  0
SECTION
  2
HEADER
  9
$ACADVER
  1
AC1014
  9
$ACADMAINTVER
 70
     0
  9
$DWGCODEPAGE
  3
ANSI_1250
  9
$INSBASE
 10
0.0
 20
0.0
 30
0.0
  9
$EXTMIN
 10
0.0
 20
-519.001233
 30
0.0
  9
$EXTMAX
 10
1349.672502
 20
0.0
 30
0.0
  9
$LIMMIN
 10
-1000.0
 20
-1000.0
  9
$LIMMAX
 10
1000.0
 20
1000.0
  9
$ORTHOMODE
 70
     0
  9
$REGENMODE
 70
     1
  9
$FILLMODE
 70
     1
  9
$QTEXTMODE
 70
     0
  9
$MIRRTEXT
 70
     0
  9
$DRAGMODE
 70
     2
  9
$LTSCALE
 40
3.0
  9
$OSMODE
 70
    32
  9
$ATTMODE
 70
     1
  9
$TEXTSIZE
 40
50.0
  9
$TRACEWID
 40
0.05
  9
$TEXTSTYLE
  7
STANDARD
  9
$CLAYER
  8
KOTY-UPLNE
  9
$CELTYPE
  6
BYLAYER
  9
$CECOLOR
 62
   256
  9
$CELTSCALE
 40
1.0
  9
$DELOBJ
 70
     1
  9
$DISPSILH
 70
     0
  9
$DIMSCALE
 40
3.0
  9
$DIMASZ
 40
5.0
  9
$DIMEXO
 40
1.0
  9
$DIMDLI
 40
0.0
  9
$DIMRND
 40
1.0
  9
$DIMDLE
 40
1.0
  9
$DIMEXE
 40
2.0
  9
$DIMTP
 40
0.0
  9
$DIMTM
 40
0.0
  9
$DIMTXT
 40
6.44
  9
$DIMCEN
 40
1.0
  9
$DIMTSZ
 40
0.0
  9
$DIMTOL
 70
     0
  9
$DIMLIM
 70
     0
  9
$DIMTIH
 70
     0
  9
$DIMTOH
 70
     0
  9
$DIMSE1
 70
     0
  9
$DIMSE2
 70
     0
  9
$DIMTAD
 70
     3
  9
$DIMZIN
 70
     0
  9
$DIMBLK
  1

  9
$DIMASO
 70
     1
  9
$DIMSHO
 70
     0
  9
$DIMPOST
  1

  9
$DIMAPOST
  1

  9
$DIMALT
 70
     0
  9
$DIMALTD
 70
     2
  9
$DIMALTF
 40
25.4
  9
$DIMLFAC
 40
1.0
  9
$DIMTOFL
 70
     1
  9
$DIMTVP
 40
0.0
  9
$DIMTIX
 70
     1
  9
$DIMSOXD
 70
     0
  9
$DIMSAH
 70
     0
  9
$DIMBLK1
  1

  9
$DIMBLK2
  1

  9
$DIMSTYLE
  2
UPLNE
  9
$DIMCLRD
 70
   256
  9
$DIMCLRE
 70
   256
  9
$DIMCLRT
 70
     5
  9
$DIMTFAC
 40
1.0
  9
$DIMGAP
 40
2.0
  9
$DIMJUST
 70
     0
  9
$DIMSD1
 70
     0
  9
$DIMSD2
 70
     0
  9
$DIMTOLJ
 70
     1
  9
$DIMTZIN
 70
     0
  9
$DIMALTZ
 70
     0
  9
$DIMALTTZ
 70
     0
  9
$DIMFIT
 70
     5
  9
$DIMUPT
 70
     0
  9
$DIMUNIT
 70
     2
  9
$DIMDEC
 70
     0
  9
$DIMTDEC
 70
     0
  9
$DIMALTU
 70
     2
  9
$DIMALTTD
 70
     2
  9
$DIMTXSTY
  7
STANDARD
  9
$DIMAUNIT
 70
     0
  9
$LUNITS
 70
     2
  9
$LUPREC
 70
     2
  9
$SKETCHINC
 40
0.1
  9
$FILLETRAD
 40
5.0
  9
$AUNITS
 70
     0
  9
$AUPREC
 70
     2
  9
$MENU
  1
acad
  9
$ELEVATION
 40
0.0
  9
$PELEVATION
 40
0.0
  9
$THICKNESS
 40
0.0
  9
$LIMCHECK
 70
     0
  9
$BLIPMODE
 70
     1
  9
$CHAMFERA
 40
0.0
  9
$CHAMFERB
 40
0.0
  9
$CHAMFERC
 40
0.0
  9
$CHAMFERD
 40
0.0
  9
$SKPOLY
 70
     0
  9
$TDCREATE
 40
2448722.252204629
  9
$TDUPDATE
 40
2452465.901525000
  9
$TDINDWG
 40
2.5464449074
  9
$TDUSRTIMER
 40
2.5464449074
  9
$USRTIMER
 70
     1
  9
$ANGBASE
 50
0.0
  9
$ANGDIR
 70
     0
  9
$PDMODE
 70
     0
  9
$PDSIZE
 40
0.0
  9
$PLINEWID
 40
0.0
  9
$COORDS
 70
     2
  9
$SPLFRAME
 70
     0
  9
$SPLINETYPE
 70
     6
  9
$SPLINESEGS
 70
     8
  9
$ATTDIA
 70
     0
  9
$ATTREQ
 70
     1
  9
$HANDLING
 70
     1
  9
$HANDSEED
  5
197
  9
$SURFTAB1
 70
     6
  9
$SURFTAB2
 70
     6
  9
$SURFTYPE
 70
     6
  9
$SURFU
 70
     6
  9
$SURFV
 70
     6
  9
$UCSNAME
  2

  9
$UCSORG
 10
0.0
 20
0.0
 30
0.0
  9
$UCSXDIR
 10
1.0
 20
0.0
 30
0.0
  9
$UCSYDIR
 10
0.0
 20
1.0
 30
0.0
  9
$PUCSNAME
  2

  9
$PUCSORG
 10
0.0
 20
0.0
 30
0.0
  9
$PUCSXDIR
 10
1.0
 20
0.0
 30
0.0
  9
$PUCSYDIR
 10
0.0
 20
1.0
 30
0.0
  9
$USERI1
 70
     1
  9
$USERI2
 70
     0
  9
$USERI3
 70
     0
  9
$USERI4
 70
     0
  9
$USERI5
 70
     0
  9
$USERR1
 40
0.0
  9
$USERR2
 40
0.0
  9
$USERR3
 40
0.0
  9
$USERR4
 40
0.0
  9
$USERR5
 40
0.0
  9
$WORLDVIEW
 70
     1
  9
$SHADEDGE
 70
     3
  9
$SHADEDIF
 70
    70
  9
$TILEMODE
 70
     1
  9
$MAXACTVP
 70
    16
  9
$PINSBASE
 10
0.0
 20
0.0
 30
0.0
  9
$PLIMCHECK
 70
     0
  9
$PEXTMIN
 10
1.000000E+20
 20
1.000000E+20
 30
1.000000E+20
  9
$PEXTMAX
 10
-1.000000E+20
 20
-1.000000E+20
 30
-1.000000E+20
  9
$PLIMMIN
 10
0.0
 20
0.0
  9
$PLIMMAX
 10
12.0
 20
9.0
  9
$UNITMODE
 70
     0
  9
$VISRETAIN
 70
     0
  9
$PLINEGEN
 70
     0
  9
$PSLTSCALE
 70
     0
  9
$TREEDEPTH
 70
  3020
  9
$PICKSTYLE
 70
     0
  9
$CMLSTYLE
  2
STANDARD
  9
$CMLJUST
 70
     0
  9
$CMLSCALE
 40
1.0
  9
$PROXYGRAPHICS
 70
     1
  9
$MEASUREMENT
 70
     0
  0
ENDSEC
  0
SECTION
  2
CLASSES
  0
CLASS
  1
LWPOLYLINE
  2
AcDbPolyline
  3
"AutoCAD"
 90
        0
280
     0
281
     1
  0
CLASS
  1
DICTIONARYVAR
  2
AcDbDictionaryVar
  3
"AutoCAD"
 90
        0
280
     0
281
     0
  0
ENDSEC
  0
SECTION
  2
TABLES
  0
TABLE
  2
VPORT
  5
12
100
AcDbSymbolTable
 70
     2
  0
VPORT
  5
196
100
AcDbSymbolTableRecord
100
AcDbViewportTableRecord
  2
*ACTIVE
 70
     0
 10
0.0
 20
0.0
 11
1.0
 21
1.0
 12
615.425887
 22
-96.957574
 13
0.0
 23
0.0
 14
1.0
 24
1.0
 15
600.0
 25
600.0
 16
0.0
 26
0.0
 36
1.0
 17
0.0
 27
0.0
 37
0.0
 40
923.288954
 41
2.224444
 42
50.0
 43
0.0
 44
0.0
 50
0.0
 51
0.0
 71
     0
 72
   100
 73
     1
 74
     0
 75
     0
 76
     0
 77
     0
 78
     0
  0
ENDTAB
  0
TABLE
  2
LTYPE
  5
D
100
AcDbSymbolTable
 70
     1
  0
LTYPE
  5
E
100
AcDbSymbolTableRecord
100
AcDbLinetypeTableRecord
  2
BYBLOCK
 70
     0
  3

 72
    65
 73
     0
 40
0.0
  0
LTYPE
  5
F
100
AcDbSymbolTableRecord
100
AcDbLinetypeTableRecord
  2
BYLAYER
 70
     0
  3

 72
    65
 73
     0
 40
0.0
  0
LTYPE
  5
5
100
AcDbSymbolTableRecord
100
AcDbLinetypeTableRecord
  2
CONTINUOUS
 70
     0
  3
Solid line
 72
    65
 73
     0
 40
0.0
  0
ENDTAB
  0
TABLE
  2
LAYER
  5
A
100
AcDbSymbolTable
 70
     7
  0
LAYER
  5
4
100
AcDbSymbolTableRecord
100
AcDbLayerTableRecord
  2
0
 70
     0
 62
     7
  6
CONTINUOUS
  0
LAYER
  5
1B
100
AcDbSymbolTableRecord
100
AcDbLayerTableRecord
  2
KOTY-UPLNE
 70
     0
 62
     7
  6
CONTINUOUS
  0
LAYER
  5
99
100
AcDbSymbolTableRecord
100
AcDbLayerTableRecord
  2
RAMEC
 70
     0
 62
     5
  6
CONTINUOUS
  0
LAYER
  5
152
100
AcDbSymbolTableRecord
100
AcDbLayerTableRecord
  2
POZICE
 70
     0
 62
     1
  6
CONTINUOUS
  0
LAYER
  5
E2
100
AcDbSymbolTableRecord
100
AcDbLayerTableRecord
  2
POPIS
 70
     0
 62
     1
  6
CONTINUOUS
  0
LAYER
  5
27
100
AcDbSymbolTableRecord
100
AcDbLayerTableRecord
  2
DEFPOINTS
 70
     0
 62
     7
  6
CONTINUOUS
  0
LAYER
  5
97
100
AcDbSymbolTableRecord
100
AcDbLayerTableRecord
  2
TRAPEZ-VELKY
 70
     0
 62
     7
  6
CONTINUOUS
  0
ENDTAB
  0
TABLE
  2
STYLE
  5
B
100
AcDbSymbolTable
 70
     2
  0
STYLE
  5
C
100
AcDbSymbolTableRecord
100
AcDbTextStyleTableRecord
  2
STANDARD
 70
     0
 40
0.0
 41
0.9
 50
0.0
 71
     0
 42
50.0
  3
simplex.shx
  4

  0
STYLE
  5
E3
100
AcDbSymbolTableRecord
100
AcDbTextStyleTableRecord
  2
STYLE1
 70
     0
 40
0.0
 41
0.9
 50
0.0
 71
     0
 42
50.0
  3
simplex.shx
  4

  0
ENDTAB
  0
TABLE
  2
VIEW
  5
10
100
AcDbSymbolTable
 70
     0
  0
ENDTAB
  0
TABLE
  2
UCS
  5
11
100
AcDbSymbolTable
 70
     0
  0
ENDTAB
  0
TABLE
  2
APPID
  5
14
100
AcDbSymbolTable
 70
     1
  0
APPID
  5
15
100
AcDbSymbolTableRecord
100
AcDbRegAppTableRecord
  2
ACAD
 70
     0
  0
ENDTAB
  0
TABLE
  2
DIMSTYLE
  5
16
100
AcDbSymbolTable
 70
     1
  0
DIMSTYLE
105
1D
102
{ACAD_REACTORS
330
B4
330
A7
330
144
330
127
330
11A
330
10D
330
100
330
F3
330
E4
330
87
330
77
330
6A
330
5A
330
4B
330
3B
330
2C
330
1E
330
D2
330
C2
330
134
330
183
330
163
330
154
330
9A
330
172
102
}
100
AcDbSymbolTableRecord
100
AcDbDimStyleTableRecord
  2
UPLNE
 70
     0
  3

  4

  5

  6

  7

 40
5.0
 41
5.0
 42
1.0
 43
0.0
 44
2.0
 45
1.0
 46
1.0
 47
0.0
 48
0.0
140
6.44
141
1.0
142
0.0
143
25.4
144
1.0
145
0.0
146
1.0
147
1.0
 71
     0
 72
     0
 73
     0
 74
     0
 75
     0
 76
     0
 77
     3
 78
     0
170
     0
171
     2
172
     1
173
     0
174
     1
175
     0
176
   256
177
   256
178
     5
270
     2
271
     0
272
     0
273
     2
274
     2
340
C
275
     0
280
     0
281
     0
282
     0
283
     1
284
     0
285
     0
286
     0
287
     5
288
     0
  0
ENDTAB
  0
TABLE
  2
BLOCK_RECORD
  5
1
100
AcDbSymbolTable
 70
    25
  0
BLOCK_RECORD
  5
2
100
AcDbSymbolTableRecord
100
AcDbBlockTableRecord
  2
*MODEL_SPACE
  0
BLOCK_RECORD
  5
7
100
AcDbSymbolTableRecord
100
AcDbBlockTableRecord
  2
*PAPER_SPACE
  0
BLOCK_RECORD
  5
B5
100
AcDbSymbolTableRecord
100
AcDbBlockTableRecord
  2
*D0
  0
BLOCK_RECORD
  5
A8
100
AcDbSymbolTableRecord
100
AcDbBlockTableRecord
  2
*D1
  0
BLOCK_RECORD
  5
145
100
AcDbSymbolTableRecord
100
AcDbBlockTableRecord
  2
*D2
  0
BLOCK_RECORD
  5
128
100
AcDbSymbolTableRecord
100
AcDbBlockTableRecord
  2
*D3
  0
BLOCK_RECORD
  5
11B
100
AcDbSymbolTableRecord
100
AcDbBlockTableRecord
  2
*D4
  0
BLOCK_RECORD
  5
10E
100
AcDbSymbolTableRecord
100
AcDbBlockTableRecord
  2
*D5
  0
BLOCK_RECORD
  5
101
100
AcDbSymbolTableRecord
100
AcDbBlockTableRecord
  2
*D6
  0
BLOCK_RECORD
  5
F4
100
AcDbSymbolTableRecord
100
AcDbBlockTableRecord
  2
*D7
  0
BLOCK_RECORD
  5
E5
100
AcDbSymbolTableRecord
100
AcDbBlockTableRecord
  2
*D8
  0
BLOCK_RECORD
  5
88
100
AcDbSymbolTableRecord
100
AcDbBlockTableRecord
  2
*D9
  0
BLOCK_RECORD
  5
78
100
AcDbSymbolTableRecord
100
AcDbBlockTableRecord
  2
*D10
  0
BLOCK_RECORD
  5
6B
100
AcDbSymbolTableRecord
100
AcDbBlockTableRecord
  2
*D11
  0
BLOCK_RECORD
  5
5B
100
AcDbSymbolTableRecord
100
AcDbBlockTableRecord
  2
*D12
  0
BLOCK_RECORD
  5
4C
100
AcDbSymbolTableRecord
100
AcDbBlockTableRecord
  2
*D13
  0
BLOCK_RECORD
  5
3C
100
AcDbSymbolTableRecord
100
AcDbBlockTableRecord
  2
*D14
  0
BLOCK_RECORD
  5
2D
100
AcDbSymbolTableRecord
100
AcDbBlockTableRecord
  2
*D15
  0
BLOCK_RECORD
  5
1F
100
AcDbSymbolTableRecord
100
AcDbBlockTableRecord
  2
*D16
  0
BLOCK_RECORD
  5
D3
100
AcDbSymbolTableRecord
100
AcDbBlockTableRecord
  2
*D17
  0
BLOCK_RECORD
  5
C3
100
AcDbSymbolTableRecord
100
AcDbBlockTableRecord
  2
*D18
  0
BLOCK_RECORD
  5
135
100
AcDbSymbolTableRecord
100
AcDbBlockTableRecord
  2
*D19
  0
BLOCK_RECORD
  5
184
100
AcDbSymbolTableRecord
100
AcDbBlockTableRecord
  2
*D20
  0
BLOCK_RECORD
  5
164
100
AcDbSymbolTableRecord
100
AcDbBlockTableRecord
  2
*D21
  0
BLOCK_RECORD
  5
155
100
AcDbSymbolTableRecord
100
AcDbBlockTableRecord
  2
*D22
  0
BLOCK_RECORD
  5
9B
100
AcDbSymbolTableRecord
100
AcDbBlockTableRecord
  2
*D23
  0
BLOCK_RECORD
  5
173
100
AcDbSymbolTableRecord
100
AcDbBlockTableRecord
  2
*D24
  0
ENDTAB
  0
ENDSEC
  0
SECTION
  2
BLOCKS
  0
BLOCK
  5
3
100
AcDbEntity
  8
0
100
AcDbBlockBegin
  2
*MODEL_SPACE
 70
     0
 10
0.0
 20
0.0
 30
0.0
  3
*MODEL_SPACE
  1

  0
ENDBLK
  5
6
100
AcDbEntity
  8
0
100
AcDbBlockEnd
  0
BLOCK
  5
8
100
AcDbEntity
 67
     1
  8
0
100
AcDbBlockBegin
  2
*PAPER_SPACE
 70
     0
 10
0.0
 20
0.0
 30
0.0
  3
*PAPER_SPACE
  1

  0
ENDBLK
  5
9
100
AcDbEntity
 67
     1
  8
0
100
AcDbBlockEnd
  0
BLOCK
  5
BF
100
AcDbEntity
  8
0
100
AcDbBlockBegin
  2
*D0
 70
     1
 10
0.0
 20
0.0
 30
0.0
  3
*D0
  1

  0
LINE
  5
B6
100
AcDbEntity
  8
0
  6
BYBLOCK
100
AcDbLine
 10
5596.182687
 20
274.457726
 30
0.0
 11
5596.182687
 21
221.457726
 31
0.0
  0
LINE
  5
B7
100
AcDbEntity
  8
0
  6
BYBLOCK
100
AcDbLine
 10
6016.182687
 20
284.067651
 30
0.0
 11
6016.182687
 21
221.457726
 31
0.0
  0
LINE
  5
B8
100
AcDbEntity
  8
0
  6
BYBLOCK
100
AcDbLine
 10
5611.182687
 20
227.457726
 30
0.0
 11
6001.182687
 21
227.457726
 31
0.0
  0
SOLID
  5
B9
100
AcDbEntity
  8
0
  6
BYBLOCK
100
AcDbTrace
 10
5611.182687
 20
229.957726
 30
0.0
 11
5611.182687
 21
224.957726
 31
0.0
 12
5596.182687
 22
227.457726
 32
0.0
 13
5596.182687
 23
227.457726
 33
0.0
  0
SOLID
  5
BA
100
AcDbEntity
  8
0
  6
BYBLOCK
100
AcDbTrace
 10
6001.182687
 20
229.957726
 30
0.0
 11
6001.182687
 21
224.957726
 31
0.0
 12
6016.182687
 22
227.457726
 32
0.0
 13
6016.182687
 23
227.457726
 33
0.0
  0
MTEXT
  5
BB
100
AcDbEntity
  8
0
  6
BYBLOCK
 62
     5
100
AcDbMText
 10
5806.182687
 20
243.117726
 30
0.0
 40
19.32
 41
0.0
 71
     5
 72
     1
  1
\A1;420
  0
POINT
  5
BC
100
AcDbEntity
  8
DEFPOINTS
  6
BYBLOCK
 62
     0
100
AcDbPoint
 10
5596.182687
 20
277.457726
 30
0.0
  0
POINT
  5
BD
100
AcDbEntity
  8
DEFPOINTS
  6
BYBLOCK
 62
     0
100
AcDbPoint
 10
6016.182687
 20
287.067651
 30
0.0
  0
POINT
  5
BE
100
AcDbEntity
  8
DEFPOINTS
  6
BYBLOCK
 62
     0
100
AcDbPoint
 10
6016.182687
 20
227.457726
 30
0.0
  0
ENDBLK
  5
C0
100
AcDbEntity
  8
0
100
AcDbBlockEnd
  0
BLOCK
  5
B2
100
AcDbEntity
  8
0
100
AcDbBlockBegin
  2
*D1
 70
     1
 10
0.0
 20
0.0
 30
0.0
  3
*D1
  1

  0
LINE
  5
A9
100
AcDbEntity
  8
0
  6
BYBLOCK
100
AcDbLine
 10
6436.182687
 20
279.457726
 30
0.0
 11
6436.182687
 21
161.457726
 31
0.0
  0
LINE
  5
AA
100
AcDbEntity
  8
0
  6
BYBLOCK
100
AcDbLine
 10
5596.182687
 20
271.457726
 30
0.0
 11
5596.182687
 21
161.457726
 31
0.0
  0
LINE
  5
AB
100
AcDbEntity
  8
0
  6
BYBLOCK
100
AcDbLine
 10
6421.182687
 20
167.457726
 30
0.0
 11
5611.182687
 21
167.457726
 31
0.0
  0
SOLID
  5
AC
100
AcDbEntity
  8
0
  6
BYBLOCK
100
AcDbTrace
 10
6421.182687
 20
169.957726
 30
0.0
 11
6421.182687
 21
164.957726
 31
0.0
 12
6436.182687
 22
167.457726
 32
0.0
 13
6436.182687
 23
167.457726
 33
0.0
  0
SOLID
  5
AD
100
AcDbEntity
  8
0
  6
BYBLOCK
100
AcDbTrace
 10
5611.182687
 20
169.957726
 30
0.0
 11
5611.182687
 21
164.957726
 31
0.0
 12
5596.182687
 22
167.457726
 32
0.0
 13
5596.182687
 23
167.457726
 33
0.0
  0
MTEXT
  5
AE
100
AcDbEntity
  8
0
  6
BYBLOCK
 62
     5
100
AcDbMText
 10
6016.182687
 20
183.117726
 30
0.0
 40
19.32
 41
0.0
 71
     5
 72
     1
  1
\A1;840
  0
POINT
  5
AF
100
AcDbEntity
  8
DEFPOINTS
  6
BYBLOCK
 62
     0
100
AcDbPoint
 10
6436.182687
 20
282.457726
 30
0.0
  0
POINT
  5
B0
100
AcDbEntity
  8
DEFPOINTS
  6
BYBLOCK
 62
     0
100
AcDbPoint
 10
5596.182687
 20
274.457726
 30
0.0
  0
POINT
  5
B1
100
AcDbEntity
  8
DEFPOINTS
  6
BYBLOCK
 62
     0
100
AcDbPoint
 10
5596.182687
 20
167.457726
 30
0.0
  0
ENDBLK
  5
B3
100
AcDbEntity
  8
0
100
AcDbBlockEnd
  0
BLOCK
  5
14F
100
AcDbEntity
  8
0
100
AcDbBlockBegin
  2
*D2
 70
     1
 10
0.0
 20
0.0
 30
0.0
  3
*D2
  1

  0
LINE
  5
146
100
AcDbEntity
  8
0
  6
BYBLOCK
100
AcDbLine
 10
5695.682687
 20
490.457726
 30
0.0
 11
5695.682687
 21
532.269408
 31
0.0
  0
LINE
  5
147
100
AcDbEntity
  8
0
  6
BYBLOCK
100
AcDbLine
 10
5916.682687
 20
490.457726
 30
0.0
 11
5916.682687
 21
532.269408
 31
0.0
  0
LINE
  5
148
100
AcDbEntity
  8
0
  6
BYBLOCK
100
AcDbLine
 10
5710.682687
 20
526.269408
 30
0.0
 11
5901.682687
 21
526.269408
 31
0.0
  0
SOLID
  5
149
100
AcDbEntity
  8
0
  6
BYBLOCK
100
AcDbTrace
 10
5710.682687
 20
528.769408
 30
0.0
 11
5710.682687
 21
523.769408
 31
0.0
 12
5695.682687
 22
526.269408
 32
0.0
 13
5695.682687
 23
526.269408
 33
0.0
  0
SOLID
  5
14A
100
AcDbEntity
  8
0
  6
BYBLOCK
100
AcDbTrace
 10
5901.682687
 20
528.769408
 30
0.0
 11
5901.682687
 21
523.769408
 31
0.0
 12
5916.682687
 22
526.269408
 32
0.0
 13
5916.682687
 23
526.269408
 33
0.0
  0
MTEXT
  5
14B
100
AcDbEntity
  8
0
  6
BYBLOCK
 62
     5
100
AcDbMText
 10
5806.182687
 20
541.929408
 30
0.0
 40
19.32
 41
0.0
 71
     5
 72
     1
  1
\A1;221
  0
POINT
  5
14C
100
AcDbEntity
  8
DEFPOINTS
  6
BYBLOCK
 62
     0
100
AcDbPoint
 10
5695.682687
 20
487.457726
 30
0.0
  0
POINT
  5
14D
100
AcDbEntity
  8
DEFPOINTS
  6
BYBLOCK
 62
     0
100
AcDbPoint
 10
5916.682687
 20
487.457726
 30
0.0
  0
POINT
  5
14E
100
AcDbEntity
  8
DEFPOINTS
  6
BYBLOCK
 62
     0
100
AcDbPoint
 10
5916.682687
 20
526.269408
 30
0.0
  0
ENDBLK
  5
150
100
AcDbEntity
  8
0
100
AcDbBlockEnd
  0
BLOCK
  5
132
100
AcDbEntity
  8
0
100
AcDbBlockBegin
  2
*D3
 70
     1
 10
0.0
 20
0.0
 30
0.0
  3
*D3
  1

  0
LINE
  5
129
100
AcDbEntity
  8
0
  6
BYBLOCK
100
AcDbLine
 10
5916.682687
 20
490.457726
 30
0.0
 11
5916.682687
 21
532.269408
 31
0.0
  0
LINE
  5
12A
100
AcDbEntity
  8
0
  6
BYBLOCK
100
AcDbLine
 10
5976.682687
 20
290.457726
 30
0.0
 11
5976.682687
 21
532.269408
 31
0.0
  0
LINE
  5
12B
100
AcDbEntity
  8
0
  6
BYBLOCK
100
AcDbLine
 10
5931.682687
 20
526.269408
 30
0.0
 11
5961.682687
 21
526.269408
 31
0.0
  0
SOLID
  5
12C
100
AcDbEntity
  8
0
  6
BYBLOCK
100
AcDbTrace
 10
5931.682687
 20
528.769408
 30
0.0
 11
5931.682687
 21
523.769408
 31
0.0
 12
5916.682687
 22
526.269408
 32
0.0
 13
5916.682687
 23
526.269408
 33
0.0
  0
SOLID
  5
12D
100
AcDbEntity
  8
0
  6
BYBLOCK
100
AcDbTrace
 10
5961.682687
 20
528.769408
 30
0.0
 11
5961.682687
 21
523.769408
 31
0.0
 12
5976.682687
 22
526.269408
 32
0.0
 13
5976.682687
 23
526.269408
 33
0.0
  0
MTEXT
  5
12E
100
AcDbEntity
  8
0
  6
BYBLOCK
 62
     5
100
AcDbMText
 10
5946.682687
 20
541.929408
 30
0.0
 40
19.32
 41
0.0
 71
     5
 72
     1
  1
\A1;60
  0
POINT
  5
12F
100
AcDbEntity
  8
DEFPOINTS
  6
BYBLOCK
 62
     0
100
AcDbPoint
 10
5916.682687
 20
487.457726
 30
0.0
  0
POINT
  5
130
100
AcDbEntity
  8
DEFPOINTS
  6
BYBLOCK
 62
     0
100
AcDbPoint
 10
5976.682687
 20
287.457726
 30
0.0
  0
POINT
  5
131
100
AcDbEntity
  8
DEFPOINTS
  6
BYBLOCK
 62
     0
100
AcDbPoint
 10
5976.682687
 20
526.269408
 30
0.0
  0
ENDBLK
  5
133
100
AcDbEntity
  8
0
100
AcDbBlockEnd
  0
BLOCK
  5
125
100
AcDbEntity
  8
0
100
AcDbBlockBegin
  2
*D4
 70
     1
 10
0.0
 20
0.0
 30
0.0
  3
*D4
  1

  0
LINE
  5
11C
100
AcDbEntity
  8
0
  6
BYBLOCK
100
AcDbLine
 10
5976.682687
 20
290.457726
 30
0.0
 11
5976.682687
 21
532.269408
 31
0.0
  0
LINE
  5
11D
100
AcDbEntity
  8
0
  6
BYBLOCK
100
AcDbLine
 10
6055.682687
 20
290.457726
 30
0.0
 11
6055.682687
 21
532.269408
 31
0.0
  0
LINE
  5
11E
100
AcDbEntity
  8
0
  6
BYBLOCK
100
AcDbLine
 10
5991.682687
 20
526.269408
 30
0.0
 11
6040.682687
 21
526.269408
 31
0.0
  0
SOLID
  5
11F
100
AcDbEntity
  8
0
  6
BYBLOCK
100
AcDbTrace
 10
5991.682687
 20
528.769408
 30
0.0
 11
5991.682687
 21
523.769408
 31
0.0
 12
5976.682687
 22
526.269408
 32
0.0
 13
5976.682687
 23
526.269408
 33
0.0
  0
SOLID
  5
120
100
AcDbEntity
  8
0
  6
BYBLOCK
100
AcDbTrace
 10
6040.682687
 20
528.769408
 30
0.0
 11
6040.682687
 21
523.769408
 31
0.0
 12
6055.682687
 22
526.269408
 32
0.0
 13
6055.682687
 23
526.269408
 33
0.0
  0
MTEXT
  5
121
100
AcDbEntity
  8
0
  6
BYBLOCK
 62
     5
100
AcDbMText
 10
6016.182687
 20
541.929408
 30
0.0
 40
19.32
 41
0.0
 71
     5
 72
     1
  1
\A1;79
  0
POINT
  5
122
100
AcDbEntity
  8
DEFPOINTS
  6
BYBLOCK
 62
     0
100
AcDbPoint
 10
5976.682687
 20
287.457726
 30
0.0
  0
POINT
  5
123
100
AcDbEntity
  8
DEFPOINTS
  6
BYBLOCK
 62
     0
100
AcDbPoint
 10
6055.682687
 20
287.457726
 30
0.0
  0
POINT
  5
124
100
AcDbEntity
  8
DEFPOINTS
  6
BYBLOCK
 62
     0
100
AcDbPoint
 10
6055.682687
 20
526.269408
 30
0.0
  0
ENDBLK
  5
126
100
AcDbEntity
  8
0
100
AcDbBlockEnd
  0
BLOCK
  5
118
100
AcDbEntity
  8
0
100
AcDbBlockBegin
  2
*D5
 70
     1
 10
0.0
 20
0.0
 30
0.0
  3
*D5
  1

  0
LINE
  5
10F
100
AcDbEntity
  8
0
  6
BYBLOCK
100
AcDbLine
 10
5695.682687
 20
484.457726
 30
0.0
 11
5695.682687
 21
281.457726
 31
0.0
  0
LINE
  5
110
100
AcDbEntity
  8
0
  6
BYBLOCK
100
AcDbLine
 10
5763.73213
 20
479.534678
 30
0.0
 11
5763.73213
 21
281.457726
 31
0.0
  0
LINE
  5
111
100
AcDbEntity
  8
0
  6
BYBLOCK
100
AcDbLine
 10
5710.682687
 20
287.457726
 30
0.0
 11
5748.73213
 21
287.457726
 31
0.0
  0
SOLID
  5
112
100
AcDbEntity
  8
0
  6
BYBLOCK
100
AcDbTrace
 10
5710.682687
 20
289.957726
 30
0.0
 11
5710.682687
 21
284.957726
 31
0.0
 12
5695.682687
 22
287.457726
 32
0.0
 13
5695.682687
 23
287.457726
 33
0.0
  0
SOLID
  5
113
100
AcDbEntity
  8
0
  6
BYBLOCK
100
AcDbTrace
 10
5748.73213
 20
289.957726
 30
0.0
 11
5748.73213
 21
284.957726
 31
0.0
 12
5763.73213
 22
287.457726
 32
0.0
 13
5763.73213
 23
287.457726
 33
0.0
  0
MTEXT
  5
114
100
AcDbEntity
  8
0
  6
BYBLOCK
 62
     5
100
AcDbMText
 10
5729.707408
 20
304.957726
 30
0.0
 40
19.32
 41
0.0
 71
     5
 72
     1
  1
\A1;67,5
  0
POINT
  5
115
100
AcDbEntity
  8
DEFPOINTS
  6
BYBLOCK
 62
     0
100
AcDbPoint
 10
5695.682687
 20
487.457726
 30
0.0
  0
POINT
  5
116
100
AcDbEntity
  8
DEFPOINTS
  6
BYBLOCK
 62
     0
100
AcDbPoint
 10
5763.73213
 20
482.534678
 30
0.0
  0
POINT
  5
117
100
AcDbEntity
  8
DEFPOINTS
  6
BYBLOCK
 62
     0
100
AcDbPoint
 10
5763.73213
 20
287.457726
 30
0.0
  0
ENDBLK
  5
119
100
AcDbEntity
  8
0
100
AcDbBlockEnd
  0
BLOCK
  5
10B
100
AcDbEntity
  8
0
100
AcDbBlockBegin
  2
*D6
 70
     1
 10
0.0
 20
0.0
 30
0.0
  3
*D6
  1

  0
LINE
  5
102
100
AcDbEntity
  8
0
  6
BYBLOCK
100
AcDbLine
 10
5763.73213
 20
479.534678
 30
0.0
 11
5763.73213
 21
281.457726
 31
0.0
  0
LINE
  5
103
100
AcDbEntity
  8
0
  6
BYBLOCK
100
AcDbLine
 10
5848.633245
 20
479.534678
 30
0.0
 11
5848.633245
 21
281.457726
 31
0.0
  0
LINE
  5
104
100
AcDbEntity
  8
0
  6
BYBLOCK
100
AcDbLine
 10
5778.73213
 20
287.457726
 30
0.0
 11
5833.633245
 21
287.457726
 31
0.0
  0
SOLID
  5
105
100
AcDbEntity
  8
0
  6
BYBLOCK
100
AcDbTrace
 10
5778.73213
 20
289.957726
 30
0.0
 11
5778.73213
 21
284.957726
 31
0.0
 12
5763.73213
 22
287.457726
 32
0.0
 13
5763.73213
 23
287.457726
 33
0.0
  0
SOLID
  5
106
100
AcDbEntity
  8
0
  6
BYBLOCK
100
AcDbTrace
 10
5833.633245
 20
289.957726
 30
0.0
 11
5833.633245
 21
284.957726
 31
0.0
 12
5848.633245
 22
287.457726
 32
0.0
 13
5848.633245
 23
287.457726
 33
0.0
  0
MTEXT
  5
107
100
AcDbEntity
  8
0
  6
BYBLOCK
 62
     5
100
AcDbMText
 10
5806.182687
 20
303.117726
 30
0.0
 40
19.32
 41
0.0
 71
     5
 72
     1
  1
\A1;86
  0
POINT
  5
108
100
AcDbEntity
  8
DEFPOINTS
  6
BYBLOCK
 62
     0
100
AcDbPoint
 10
5763.73213
 20
482.534678
 30
0.0
  0
POINT
  5
109
100
AcDbEntity
  8
DEFPOINTS
  6
BYBLOCK
 62
     0
100
AcDbPoint
 10
5848.633245
 20
482.534678
 30
0.0
  0
POINT
  5
10A
100
AcDbEntity
  8
DEFPOINTS
  6
BYBLOCK
 62
     0
100
AcDbPoint
 10
5848.633245
 20
287.457726
 30
0.0
  0
ENDBLK
  5
10C
100
AcDbEntity
  8
0
100
AcDbBlockEnd
  0
BLOCK
  5
FE
100
AcDbEntity
  8
0
100
AcDbBlockBegin
  2
*D7
 70
     1
 10
0.0
 20
0.0
 30
0.0
  3
*D7
  1

  0
LINE
  5
F5
100
AcDbEntity
  8
0
  6
BYBLOCK
100
AcDbLine
 10
5848.633245
 20
479.534678
 30
0.0
 11
5848.633245
 21
281.457726
 31
0.0
  0
LINE
  5
F6
100
AcDbEntity
  8
0
  6
BYBLOCK
100
AcDbLine
 10
5916.682687
 20
484.457726
 30
0.0
 11
5916.682687
 21
281.457726
 31
0.0
  0
LINE
  5
F7
100
AcDbEntity
  8
0
  6
BYBLOCK
100
AcDbLine
 10
5863.633245
 20
287.457726
 30
0.0
 11
5901.682687
 21
287.457726
 31
0.0
  0
SOLID
  5
F8
100
AcDbEntity
  8
0
  6
BYBLOCK
100
AcDbTrace
 10
5863.633245
 20
289.957726
 30
0.0
 11
5863.633245
 21
284.957726
 31
0.0
 12
5848.633245
 22
287.457726
 32
0.0
 13
5848.633245
 23
287.457726
 33
0.0
  0
SOLID
  5
F9
100
AcDbEntity
  8
0
  6
BYBLOCK
100
AcDbTrace
 10
5901.682687
 20
289.957726
 30
0.0
 11
5901.682687
 21
284.957726
 31
0.0
 12
5916.682687
 22
287.457726
 32
0.0
 13
5916.682687
 23
287.457726
 33
0.0
  0
MTEXT
  5
FA
100
AcDbEntity
  8
0
  6
BYBLOCK
 62
     5
100
AcDbMText
 10
5882.657966
 20
304.957726
 30
0.0
 40
19.32
 41
0.0
 71
     5
 72
     1
  1
\A1;67,5
  0
POINT
  5
FB
100
AcDbEntity
  8
DEFPOINTS
  6
BYBLOCK
 62
     0
100
AcDbPoint
 10
5848.633245
 20
482.534678
 30
0.0
  0
POINT
  5
FC
100
AcDbEntity
  8
DEFPOINTS
  6
BYBLOCK
 62
     0
100
AcDbPoint
 10
5916.682687
 20
487.457726
 30
0.0
  0
POINT
  5
FD
100
AcDbEntity
  8
DEFPOINTS
  6
BYBLOCK
 62
     0
100
AcDbPoint
 10
5916.682687
 20
287.457726
 30
0.0
  0
ENDBLK
  5
FF
100
AcDbEntity
  8
0
100
AcDbBlockEnd
  0
BLOCK
  5
F1
100
AcDbEntity
  8
0
100
AcDbBlockBegin
  2
*D8
 70
     1
 10
0.0
 20
0.0
 30
0.0
  3
*D8
  1

  0
LINE
  5
E6
100
AcDbEntity
  8
0
  6
BYBLOCK
100
AcDbLine
 10
6006.182687
 20
290.457726
 30
0.0
 11
6006.182687
 21
370.625812
 31
0.0
  0
LINE
  5
E7
100
AcDbEntity
  8
0
  6
BYBLOCK
100
AcDbLine
 10
6026.182687
 20
290.457726
 30
0.0
 11
6026.182687
 21
370.625812
 31
0.0
  0
LINE
  5
E8
100
AcDbEntity
  8
0
  6
BYBLOCK
100
AcDbLine
 10
5991.182687
 20
364.625812
 30
0.0
 11
5976.182687
 21
364.625812
 31
0.0
  0
LINE
  5
E9
100
AcDbEntity
  8
0
  6
BYBLOCK
100
AcDbLine
 10
6041.182687
 20
364.625812
 30
0.0
 11
6056.182687
 21
364.625812
 31
0.0
  0
LINE
  5
EA
100
AcDbEntity
  8
0
  6
BYBLOCK
100
AcDbLine
 10
6006.182687
 20
364.625812
 30
0.0
 11
6026.182687
 21
364.625812
 31
0.0
  0
SOLID
  5
EB
100
AcDbEntity
  8
0
  6
BYBLOCK
100
AcDbTrace
 10
5991.182687
 20
367.125812
 30
0.0
 11
5991.182687
 21
362.125812
 31
0.0
 12
6006.182687
 22
364.625812
 32
0.0
 13
6006.182687
 23
364.625812
 33
0.0
  0
SOLID
  5
EC
100
AcDbEntity
  8
0
  6
BYBLOCK
100
AcDbTrace
 10
6041.182687
 20
367.125812
 30
0.0
 11
6041.182687
 21
362.125812
 31
0.0
 12
6026.182687
 22
364.625812
 32
0.0
 13
6026.182687
 23
364.625812
 33
0.0
  0
MTEXT
  5
ED
100
AcDbEntity
  8
0
  6
BYBLOCK
 62
     5
100
AcDbMText
 10
6016.182687
 20
380.285812
 30
0.0
 40
19.32
 41
0.0
 71
     5
 72
     1
  1
\A1;20
  0
POINT
  5
EE
100
AcDbEntity
  8
DEFPOINTS
  6
BYBLOCK
 62
     0
100
AcDbPoint
 10
6006.182687
 20
287.457726
 30
0.0
  0
POINT
  5
EF
100
AcDbEntity
  8
DEFPOINTS
  6
BYBLOCK
 62
     0
100
AcDbPoint
 10
6026.182687
 20
287.457726
 30
0.0
  0
POINT
  5
F0
100
AcDbEntity
  8
DEFPOINTS
  6
BYBLOCK
 62
     0
100
AcDbPoint
 10
6026.182687
 20
364.625812
 30
0.0
  0
ENDBLK
  5
F2
100
AcDbEntity
  8
0
100
AcDbBlockEnd
  0
BLOCK
  5
94
100
AcDbEntity
  8
0
100
AcDbBlockBegin
  2
*D9
 70
     1
 10
0.0
 20
0.0
 30
0.0
  3
*D9
  1

  0
LINE
  5
89
100
AcDbEntity
  8
0
  6
BYBLOCK
100
AcDbLine
 10
6339.682687
 20
487.457726
 30
0.0
 11
6546.603617
 21
487.457726
 31
0.0
  0
LINE
  5
8A
100
AcDbEntity
  8
0
  6
BYBLOCK
100
AcDbLine
 10
6345.91264
 20
460.457726
 30
0.0
 11
6546.603617
 21
460.457726
 31
0.0
  0
LINE
  5
8B
100
AcDbEntity
  8
0
  6
BYBLOCK
100
AcDbLine
 10
6540.603617
 20
502.457726
 30
0.0
 11
6540.603617
 21
517.457726
 31
0.0
  0
LINE
  5
8C
100
AcDbEntity
  8
0
  6
BYBLOCK
100
AcDbLine
 10
6540.603617
 20
445.457726
 30
0.0
 11
6540.603617
 21
430.457726
 31
0.0
  0
LINE
  5
8D
100
AcDbEntity
  8
0
  6
BYBLOCK
100
AcDbLine
 10
6540.603617
 20
487.457726
 30
0.0
 11
6540.603617
 21
460.457726
 31
0.0
  0
SOLID
  5
8E
100
AcDbEntity
  8
0
  6
BYBLOCK
100
AcDbTrace
 10
6538.103617
 20
502.457726
 30
0.0
 11
6543.103617
 21
502.457726
 31
0.0
 12
6540.603617
 22
487.457726
 32
0.0
 13
6540.603617
 23
487.457726
 33
0.0
  0
SOLID
  5
8F
100
AcDbEntity
  8
0
  6
BYBLOCK
100
AcDbTrace
 10
6538.103617
 20
445.457726
 30
0.0
 11
6543.103617
 21
445.457726
 31
0.0
 12
6540.603617
 22
460.457726
 32
0.0
 13
6540.603617
 23
460.457726
 33
0.0
  0
MTEXT
  5
90
100
AcDbEntity
  8
0
  6
BYBLOCK
 62
     5
100
AcDbMText
 10
6524.943617
 20
473.957726
 30
0.0
 40
19.32
 41
0.0
 71
     5
 72
     1
  1
\A1;27
 11
0.0
 21
1.0
 31
0.0
  0
POINT
  5
91
100
AcDbEntity
  8
DEFPOINTS
  6
BYBLOCK
 62
     0
100
AcDbPoint
 10
6336.682687
 20
487.457726
 30
0.0
  0
POINT
  5
92
100
AcDbEntity
  8
DEFPOINTS
  6
BYBLOCK
 62
     0
100
AcDbPoint
 10
6342.91264
 20
460.457726
 30
0.0
  0
POINT
  5
93
100
AcDbEntity
  8
DEFPOINTS
  6
BYBLOCK
 62
     0
100
AcDbPoint
 10
6540.603617
 20
460.457726
 30
0.0
  0
ENDBLK
  5
95
100
AcDbEntity
  8
0
100
AcDbBlockEnd
  0
BLOCK
  5
85
100
AcDbEntity
  8
0
100
AcDbBlockBegin
  2
*D10
 70
     1
 10
0.0
 20
0.0
 30
0.0
  3
*D10
  1

  0
LINE
  5
79
100
AcDbEntity
  8
0
  6
BYBLOCK
100
AcDbLine
 10
6345.91264
 20
460.457726
 30
0.0
 11
6546.603617
 21
460.457726
 31
0.0
  0
LINE
  5
7A
100
AcDbEntity
  8
0
  6
BYBLOCK
100
AcDbLine
 10
6352.606691
 20
451.457726
 30
0.0
 11
6546.603617
 21
451.457726
 31
0.0
  0
LINE
  5
7B
100
AcDbEntity
  8
0
  6
BYBLOCK
100
AcDbLine
 10
6540.603617
 20
475.457726
 30
0.0
 11
6540.603617
 21
490.457726
 31
0.0
  0
LINE
  5
7C
100
AcDbEntity
  8
0
  6
BYBLOCK
100
AcDbLine
 10
6540.603617
 20
436.457726
 30
0.0
 11
6540.603617
 21
421.457726
 31
0.0
  0
MTEXT
  5
7D
100
AcDbEntity
  8
0
  6
BYBLOCK
 62
     5
100
AcDbMText
 10
6561.863502
 20
455.957726
 30
0.0
 40
19.32
 41
0.0
 71
     5
 72
     1
  1
\A1;9
 11
0.0
 21
1.0
 31
0.0
  0
LINE
  5
7E
100
AcDbEntity
  8
0
  6
BYBLOCK
100
AcDbLine
 10
6540.603617
 20
460.457726
 30
0.0
 11
6540.603617
 21
451.457726
 31
0.0
  0
LINE
  5
7F
100
AcDbEntity
  8
0
  6
BYBLOCK
100
AcDbLine
 10
6540.603617
 20
460.457726
 30
0.0
 11
6540.603617
 21
451.457726
 31
0.0
  0
SOLID
  5
80
100
AcDbEntity
  8
0
  6
BYBLOCK
100
AcDbTrace
 10
6538.103617
 20
475.457726
 30
0.0
 11
6543.103617
 21
475.457726
 31
0.0
 12
6540.603617
 22
460.457726
 32
0.0
 13
6540.603617
 23
460.457726
 33
0.0
  0
SOLID
  5
81
100
AcDbEntity
  8
0
  6
BYBLOCK
100
AcDbTrace
 10
6538.103617
 20
436.457726
 30
0.0
 11
6543.103617
 21
436.457726
 31
0.0
 12
6540.603617
 22
451.457726
 32
0.0
 13
6540.603617
 23
451.457726
 33
0.0
  0
POINT
  5
82
100
AcDbEntity
  8
DEFPOINTS
  6
BYBLOCK
 62
     0
100
AcDbPoint
 10
6342.91264
 20
460.457726
 30
0.0
  0
POINT
  5
83
100
AcDbEntity
  8
DEFPOINTS
  6
BYBLOCK
 62
     0
100
AcDbPoint
 10
6349.606691
 20
451.457726
 30
0.0
  0
POINT
  5
84
100
AcDbEntity
  8
DEFPOINTS
  6
BYBLOCK
 62
     0
100
AcDbPoint
 10
6540.603617
 20
451.457726
 30
0.0
  0
ENDBLK
  5
86
100
AcDbEntity
  8
0
100
AcDbBlockEnd
  0
BLOCK
  5
75
100
AcDbEntity
  8
0
100
AcDbBlockBegin
  2
*D11
 70
     1
 10
0.0
 20
0.0
 30
0.0
  3
*D11
  1

  0
LINE
  5
6C
100
AcDbEntity
  8
0
  6
BYBLOCK
100
AcDbLine
 10
6352.606691
 20
451.457726
 30
0.0
 11
6546.603617
 21
451.457726
 31
0.0
  0
LINE
  5
6D
100
AcDbEntity
  8
0
  6
BYBLOCK
100
AcDbLine
 10
6373.60394
 20
360.457726
 30
0.0
 11
6546.603617
 21
360.457726
 31
0.0
  0
LINE
  5
6E
100
AcDbEntity
  8
0
  6
BYBLOCK
100
AcDbLine
 10
6540.603617
 20
436.457726
 30
0.0
 11
6540.603617
 21
375.457726
 31
0.0
  0
SOLID
  5
6F
100
AcDbEntity
  8
0
  6
BYBLOCK
100
AcDbTrace
 10
6538.103617
 20
436.457726
 30
0.0
 11
6543.103617
 21
436.457726
 31
0.0
 12
6540.603617
 22
451.457726
 32
0.0
 13
6540.603617
 23
451.457726
 33
0.0
  0
SOLID
  5
70
100
AcDbEntity
  8
0
  6
BYBLOCK
100
AcDbTrace
 10
6538.103617
 20
375.457726
 30
0.0
 11
6543.103617
 21
375.457726
 31
0.0
 12
6540.603617
 22
360.457726
 32
0.0
 13
6540.603617
 23
360.457726
 33
0.0
  0
MTEXT
  5
71
100
AcDbEntity
  8
0
  6
BYBLOCK
 62
     5
100
AcDbMText
 10
6524.943617
 20
405.957726
 30
0.0
 40
19.32
 41
0.0
 71
     5
 72
     1
  1
\A1;91
 11
0.0
 21
1.0
 31
0.0
  0
POINT
  5
72
100
AcDbEntity
  8
DEFPOINTS
  6
BYBLOCK
 62
     0
100
AcDbPoint
 10
6349.606691
 20
451.457726
 30
0.0
  0
POINT
  5
73
100
AcDbEntity
  8
DEFPOINTS
  6
BYBLOCK
 62
     0
100
AcDbPoint
 10
6370.60394
 20
360.457726
 30
0.0
  0
POINT
  5
74
100
AcDbEntity
  8
DEFPOINTS
  6
BYBLOCK
 62
     0
100
AcDbPoint
 10
6540.603617
 20
360.457726
 30
0.0
  0
ENDBLK
  5
76
100
AcDbEntity
  8
0
100
AcDbBlockEnd
  0
BLOCK
  5
68
100
AcDbEntity
  8
0
100
AcDbBlockBegin
  2
*D12
 70
     1
 10
0.0
 20
0.0
 30
0.0
  3
*D12
  1

  0
LINE
  5
5C
100
AcDbEntity
  8
0
  6
BYBLOCK
100
AcDbLine
 10
6373.60394
 20
360.457726
 30
0.0
 11
6546.603617
 21
360.457726
 31
0.0
  0
LINE
  5
5D
100
AcDbEntity
  8
0
  6
BYBLOCK
100
AcDbLine
 10
6380.297991
 20
351.457726
 30
0.0
 11
6546.603617
 21
351.457726
 31
0.0
  0
LINE
  5
5E
100
AcDbEntity
  8
0
  6
BYBLOCK
100
AcDbLine
 10
6540.603617
 20
375.457726
 30
0.0
 11
6540.603617
 21
390.457726
 31
0.0
  0
LINE
  5
5F
100
AcDbEntity
  8
0
  6
BYBLOCK
100
AcDbLine
 10
6540.603617
 20
336.457726
 30
0.0
 11
6540.603617
 21
321.457726
 31
0.0
  0
MTEXT
  5
60
100
AcDbEntity
  8
0
  6
BYBLOCK
 62
     5
100
AcDbMText
 10
6559.776429
 20
355.957726
 30
0.0
 40
19.32
 41
0.0
 71
     5
 72
     1
  1
\A1;9
 11
0.0
 21
1.0
 31
0.0
  0
LINE
  5
61
100
AcDbEntity
  8
0
  6
BYBLOCK
100
AcDbLine
 10
6540.603617
 20
360.457726
 30
0.0
 11
6540.603617
 21
351.457726
 31
0.0
  0
LINE
  5
62
100
AcDbEntity
  8
0
  6
BYBLOCK
100
AcDbLine
 10
6540.603617
 20
360.457726
 30
0.0
 11
6540.603617
 21
351.457726
 31
0.0
  0
SOLID
  5
63
100
AcDbEntity
  8
0
  6
BYBLOCK
100
AcDbTrace
 10
6538.103617
 20
375.457726
 30
0.0
 11
6543.103617
 21
375.457726
 31
0.0
 12
6540.603617
 22
360.457726
 32
0.0
 13
6540.603617
 23
360.457726
 33
0.0
  0
SOLID
  5
64
100
AcDbEntity
  8
0
  6
BYBLOCK
100
AcDbTrace
 10
6538.103617
 20
336.457726
 30
0.0
 11
6543.103617
 21
336.457726
 31
0.0
 12
6540.603617
 22
351.457726
 32
0.0
 13
6540.603617
 23
351.457726
 33
0.0
  0
POINT
  5
65
100
AcDbEntity
  8
DEFPOINTS
  6
BYBLOCK
 62
     0
100
AcDbPoint
 10
6370.60394
 20
360.457726
 30
0.0
  0
POINT
  5
66
100
AcDbEntity
  8
DEFPOINTS
  6
BYBLOCK
 62
     0
100
AcDbPoint
 10
6377.297991
 20
351.457726
 30
0.0
  0
POINT
  5
67
100
AcDbEntity
  8
DEFPOINTS
  6
BYBLOCK
 62
     0
100
AcDbPoint
 10
6540.603617
 20
351.457726
 30
0.0
  0
ENDBLK
  5
69
100
AcDbEntity
  8
0
100
AcDbBlockEnd
  0
BLOCK
  5
58
100
AcDbEntity
  8
0
100
AcDbBlockBegin
  2
*D13
 70
     1
 10
0.0
 20
0.0
 30
0.0
  3
*D13
  1

  0
LINE
  5
4D
100
AcDbEntity
  8
0
  6
BYBLOCK
100
AcDbLine
 10
6380.297991
 20
351.457726
 30
0.0
 11
6546.603617
 21
351.457726
 31
0.0
  0
LINE
  5
4E
100
AcDbEntity
  8
0
  6
BYBLOCK
100
AcDbLine
 10
6386.758683
 20
323.457726
 30
0.0
 11
6546.603617
 21
323.457726
 31
0.0
  0
LINE
  5
4F
100
AcDbEntity
  8
0
  6
BYBLOCK
100
AcDbLine
 10
6540.603617
 20
366.457726
 30
0.0
 11
6540.603617
 21
381.457726
 31
0.0
  0
LINE
  5
50
100
AcDbEntity
  8
0
  6
BYBLOCK
100
AcDbLine
 10
6540.603617
 20
308.457726
 30
0.0
 11
6540.603617
 21
293.457726
 31
0.0
  0
LINE
  5
51
100
AcDbEntity
  8
0
  6
BYBLOCK
100
AcDbLine
 10
6540.603617
 20
351.457726
 30
0.0
 11
6540.603617
 21
323.457726
 31
0.0
  0
SOLID
  5
52
100
AcDbEntity
  8
0
  6
BYBLOCK
100
AcDbTrace
 10
6538.103617
 20
366.457726
 30
0.0
 11
6543.103617
 21
366.457726
 31
0.0
 12
6540.603617
 22
351.457726
 32
0.0
 13
6540.603617
 23
351.457726
 33
0.0
  0
SOLID
  5
53
100
AcDbEntity
  8
0
  6
BYBLOCK
100
AcDbTrace
 10
6538.103617
 20
308.457726
 30
0.0
 11
6543.103617
 21
308.457726
 31
0.0
 12
6540.603617
 22
323.457726
 32
0.0
 13
6540.603617
 23
323.457726
 33
0.0
  0
MTEXT
  5
54
100
AcDbEntity
  8
0
  6
BYBLOCK
 62
     5
100
AcDbMText
 10
6524.943617
 20
337.457726
 30
0.0
 40
19.32
 41
0.0
 71
     5
 72
     1
  1
\A1;28
 11
0.0
 21
1.0
 31
0.0
  0
POINT
  5
55
100
AcDbEntity
  8
DEFPOINTS
  6
BYBLOCK
 62
     0
100
AcDbPoint
 10
6377.297991
 20
351.457726
 30
0.0
  0
POINT
  5
56
100
AcDbEntity
  8
DEFPOINTS
  6
BYBLOCK
 62
     0
100
AcDbPoint
 10
6383.758683
 20
323.457726
 30
0.0
  0
POINT
  5
57
100
AcDbEntity
  8
DEFPOINTS
  6
BYBLOCK
 62
     0
100
AcDbPoint
 10
6540.603617
 20
323.457726
 30
0.0
  0
ENDBLK
  5
59
100
AcDbEntity
  8
0
100
AcDbBlockEnd
  0
BLOCK
  5
49
100
AcDbEntity
  8
0
100
AcDbBlockBegin
  2
*D14
 70
     1
 10
0.0
 20
0.0
 30
0.0
  3
*D14
  1

  0
LINE
  5
3D
100
AcDbEntity
  8
0
  6
BYBLOCK
100
AcDbLine
 10
6386.758683
 20
323.457726
 30
0.0
 11
6546.603617
 21
323.457726
 31
0.0
  0
LINE
  5
3E
100
AcDbEntity
  8
0
  6
BYBLOCK
100
AcDbLine
 10
6393.452734
 20
314.457726
 30
0.0
 11
6546.603617
 21
314.457726
 31
0.0
  0
LINE
  5
3F
100
AcDbEntity
  8
0
  6
BYBLOCK
100
AcDbLine
 10
6540.603617
 20
338.457726
 30
0.0
 11
6540.603617
 21
353.457726
 31
0.0
  0
LINE
  5
40
100
AcDbEntity
  8
0
  6
BYBLOCK
100
AcDbLine
 10
6540.603617
 20
299.457726
 30
0.0
 11
6540.603617
 21
284.457726
 31
0.0
  0
MTEXT
  5
41
100
AcDbEntity
  8
0
  6
BYBLOCK
 62
     5
100
AcDbMText
 10
6563.254898
 20
318.957726
 30
0.0
 40
19.32
 41
0.0
 71
     5
 72
     1
  1
\A1;9
 11
0.0
 21
1.0
 31
0.0
  0
LINE
  5
42
100
AcDbEntity
  8
0
  6
BYBLOCK
100
AcDbLine
 10
6540.603617
 20
323.457726
 30
0.0
 11
6540.603617
 21
314.457726
 31
0.0
  0
LINE
  5
43
100
AcDbEntity
  8
0
  6
BYBLOCK
100
AcDbLine
 10
6540.603617
 20
323.457726
 30
0.0
 11
6540.603617
 21
314.457726
 31
0.0
  0
SOLID
  5
44
100
AcDbEntity
  8
0
  6
BYBLOCK
100
AcDbTrace
 10
6538.103617
 20
338.457726
 30
0.0
 11
6543.103617
 21
338.457726
 31
0.0
 12
6540.603617
 22
323.457726
 32
0.0
 13
6540.603617
 23
323.457726
 33
0.0
  0
SOLID
  5
45
100
AcDbEntity
  8
0
  6
BYBLOCK
100
AcDbTrace
 10
6538.103617
 20
299.457726
 30
0.0
 11
6543.103617
 21
299.457726
 31
0.0
 12
6540.603617
 22
314.457726
 32
0.0
 13
6540.603617
 23
314.457726
 33
0.0
  0
POINT
  5
46
100
AcDbEntity
  8
DEFPOINTS
  6
BYBLOCK
 62
     0
100
AcDbPoint
 10
6383.758683
 20
323.457726
 30
0.0
  0
POINT
  5
47
100
AcDbEntity
  8
DEFPOINTS
  6
BYBLOCK
 62
     0
100
AcDbPoint
 10
6390.452734
 20
314.457726
 30
0.0
  0
POINT
  5
48
100
AcDbEntity
  8
DEFPOINTS
  6
BYBLOCK
 62
     0
100
AcDbPoint
 10
6540.603617
 20
314.457726
 30
0.0
  0
ENDBLK
  5
4A
100
AcDbEntity
  8
0
100
AcDbBlockEnd
  0
BLOCK
  5
39
100
AcDbEntity
  8
0
100
AcDbBlockBegin
  2
*D15
 70
     1
 10
0.0
 20
0.0
 30
0.0
  3
*D15
  1

  0
LINE
  5
2E
100
AcDbEntity
  8
0
  6
BYBLOCK
100
AcDbLine
 10
6393.452734
 20
314.457726
 30
0.0
 11
6546.603617
 21
314.457726
 31
0.0
  0
LINE
  5
2F
100
AcDbEntity
  8
0
  6
BYBLOCK
100
AcDbLine
 10
6478.682687
 20
287.457726
 30
0.0
 11
6546.603617
 21
287.457726
 31
0.0
  0
LINE
  5
30
100
AcDbEntity
  8
0
  6
BYBLOCK
100
AcDbLine
 10
6540.603617
 20
329.457726
 30
0.0
 11
6540.603617
 21
344.457726
 31
0.0
  0
LINE
  5
31
100
AcDbEntity
  8
0
  6
BYBLOCK
100
AcDbLine
 10
6540.603617
 20
272.457726
 30
0.0
 11
6540.603617
 21
257.457726
 31
0.0
  0
LINE
  5
32
100
AcDbEntity
  8
0
  6
BYBLOCK
100
AcDbLine
 10
6540.603617
 20
314.457726
 30
0.0
 11
6540.603617
 21
287.457726
 31
0.0
  0
SOLID
  5
33
100
AcDbEntity
  8
0
  6
BYBLOCK
100
AcDbTrace
 10
6538.103617
 20
329.457726
 30
0.0
 11
6543.103617
 21
329.457726
 31
0.0
 12
6540.603617
 22
314.457726
 32
0.0
 13
6540.603617
 23
314.457726
 33
0.0
  0
SOLID
  5
34
100
AcDbEntity
  8
0
  6
BYBLOCK
100
AcDbTrace
 10
6538.103617
 20
272.457726
 30
0.0
 11
6543.103617
 21
272.457726
 31
0.0
 12
6540.603617
 22
287.457726
 32
0.0
 13
6540.603617
 23
287.457726
 33
0.0
  0
MTEXT
  5
35
100
AcDbEntity
  8
0
  6
BYBLOCK
 62
     5
100
AcDbMText
 10
6524.943617
 20
300.957726
 30
0.0
 40
19.32
 41
0.0
 71
     5
 72
     1
  1
\A1;27
 11
0.0
 21
1.0
 31
0.0
  0
POINT
  5
36
100
AcDbEntity
  8
DEFPOINTS
  6
BYBLOCK
 62
     0
100
AcDbPoint
 10
6390.452734
 20
314.457726
 30
0.0
  0
POINT
  5
37
100
AcDbEntity
  8
DEFPOINTS
  6
BYBLOCK
 62
     0
100
AcDbPoint
 10
6475.682687
 20
287.457726
 30
0.0
  0
POINT
  5
38
100
AcDbEntity
  8
DEFPOINTS
  6
BYBLOCK
 62
     0
100
AcDbPoint
 10
6540.603617
 20
287.457726
 30
0.0
  0
ENDBLK
  5
3A
100
AcDbEntity
  8
0
100
AcDbBlockEnd
  0
BLOCK
  5
2A
100
AcDbEntity
  8
0
100
AcDbBlockBegin
  2
*D16
 70
     1
 10
0.0
 20
0.0
 30
0.0
  3
*D16
  1

  0
LINE
  5
20
100
AcDbEntity
  8
0
  6
BYBLOCK
100
AcDbLine
 10
6339.682687
 20
487.457726
 30
0.0
 11
6608.376129
 21
487.457726
 31
0.0
  0
LINE
  5
21
100
AcDbEntity
  8
0
  6
BYBLOCK
100
AcDbLine
 10
6478.682687
 20
287.457726
 30
0.0
 11
6608.376129
 21
287.457726
 31
0.0
  0
LINE
  5
22
100
AcDbEntity
  8
0
  6
BYBLOCK
100
AcDbLine
 10
6602.376129
 20
472.457726
 30
0.0
 11
6602.376129
 21
302.457726
 31
0.0
  0
SOLID
  5
23
100
AcDbEntity
  8
0
  6
BYBLOCK
100
AcDbTrace
 10
6599.876129
 20
472.457726
 30
0.0
 11
6604.876129
 21
472.457726
 31
0.0
 12
6602.376129
 22
487.457726
 32
0.0
 13
6602.376129
 23
487.457726
 33
0.0
  0
SOLID
  5
24
100
AcDbEntity
  8
0
  6
BYBLOCK
100
AcDbTrace
 10
6599.876129
 20
302.457726
 30
0.0
 11
6604.876129
 21
302.457726
 31
0.0
 12
6602.376129
 22
287.457726
 32
0.0
 13
6602.376129
 23
287.457726
 33
0.0
  0
MTEXT
  5
25
100
AcDbEntity
  8
0
  6
BYBLOCK
 62
     5
100
AcDbMText
 10
6586.716129
 20
387.457726
 30
0.0
 40
19.32
 41
0.0
 71
     5
 72
     1
  1
\A1;200
 11
0.0
 21
1.0
 31
0.0
  0
POINT
  5
26
100
AcDbEntity
  8
DEFPOINTS
  6
BYBLOCK
 62
     0
100
AcDbPoint
 10
6336.682687
 20
487.457726
 30
0.0
  0
POINT
  5
28
100
AcDbEntity
  8
DEFPOINTS
  6
BYBLOCK
 62
     0
100
AcDbPoint
 10
6475.682687
 20
287.457726
 30
0.0
  0
POINT
  5
29
100
AcDbEntity
  8
DEFPOINTS
  6
BYBLOCK
 62
     0
100
AcDbPoint
 10
6602.376129
 20
287.457726
 30
0.0
  0
ENDBLK
  5
2B
100
AcDbEntity
  8
0
100
AcDbBlockEnd
  0
BLOCK
  5
DF
100
AcDbEntity
  8
0
100
AcDbBlockBegin
  2
*D17
 70
     1
 10
0.0
 20
0.0
 30
0.0
  3
*D17
  1

  0
LINE
  5
D4
100
AcDbEntity
  8
0
  6
BYBLOCK
100
AcDbLine
 10
6058.682687
 20
287.457726
 30
0.0
 11
6228.332455
 21
287.457726
 31
0.0
  0
LINE
  5
D5
100
AcDbEntity
  8
0
  6
BYBLOCK
100
AcDbLine
 10
6062.587135
 20
317.380919
 30
0.0
 11
6094.4998
 21
455.687253
 31
0.0
  0
ARC
  5
D6
100
AcDbEntity
  8
0
  6
BYBLOCK
100
AcDbCircle
 10
6055.682687
 20
287.457726
 30
0.0
 40
166.649767
100
AcDbArc
 50
5.158886
 51
71.848142
  0
SOLID
  5
D7
100
AcDbEntity
  8
0
  6
BYBLOCK
100
AcDbTrace
 10
6224.154853
 20
302.555039
 30
0.0
 11
6219.159919
 21
302.330016
 31
0.0
 12
6222.332455
 22
287.457726
 32
0.0
 13
6222.332455
 23
287.457726
 33
0.0
  0
SOLID
  5
D8
100
AcDbEntity
  8
0
  6
BYBLOCK
100
AcDbTrace
 10
6106.929049
 20
443.405797
 30
0.0
 11
6108.271329
 21
448.222256
 31
0.0
 12
6093.15081
 22
449.840868
 32
0.0
 13
6093.15081
 23
449.840868
 33
0.0
  0
MTEXT
  5
D9
100
AcDbEntity
  8
0
  6
BYBLOCK
 62
     5
100
AcDbMText
 10
6199.792766
 20
402.10249
 30
0.0
 40
19.32
 41
0.0
 71
     5
 72
     1
  1
\A1;77,01°
 11
0.622563
 21
-0.78257
 31
0.0
  0
POINT
  5
DA
100
AcDbEntity
  8
DEFPOINTS
  6
BYBLOCK
 62
     0
100
AcDbPoint
 10
6205.886031
 20
359.645679
 30
0.0
  0
POINT
  5
DB
100
AcDbEntity
  8
DEFPOINTS
  6
BYBLOCK
 62
     0
100
AcDbPoint
 10
6055.682687
 20
287.457726
 30
0.0
  0
POINT
  5
DC
100
AcDbEntity
  8
DEFPOINTS
  6
BYBLOCK
 62
     0
100
AcDbPoint
 10
6026.182687
 20
287.457726
 30
0.0
  0
POINT
  5
DD
100
AcDbEntity
  8
DEFPOINTS
  6
BYBLOCK
 62
     0
100
AcDbPoint
 10
6055.682687
 20
287.457726
 30
0.0
  0
POINT
  5
DE
100
AcDbEntity
  8
DEFPOINTS
  6
BYBLOCK
 62
     0
100
AcDbPoint
 10
6061.91264
 20
314.457726
 30
0.0
  0
ENDBLK
  5
E0
100
AcDbEntity
  8
0
100
AcDbBlockEnd
  0
BLOCK
  5
CF
100
AcDbEntity
  8
0
100
AcDbBlockBegin
  2
*D18
 70
     1
 10
0.0
 20
0.0
 30
0.0
  3
*D18
  1

  0
LINE
  5
C4
100
AcDbEntity
  8
0
  6
BYBLOCK
100
AcDbLine
 10
6120.09198
 20
314.457726
 30
0.0
 11
6169.337069
 21
314.457726
 31
0.0
  0
LINE
  5
C5
100
AcDbEntity
  8
0
  6
BYBLOCK
100
AcDbLine
 10
6070.3971
 20
325.86489
 30
0.0
 11
6126.023847
 21
400.653788
 31
0.0
  0
ARC
  5
C6
100
AcDbEntity
  8
0
  6
BYBLOCK
100
AcDbCircle
 10
6061.91264
 20
314.457726
 30
0.0
 40
101.424429
100
AcDbArc
 50
8.481407
 51
44.877332
  0
SOLID
  5
C7
100
AcDbEntity
  8
0
  6
BYBLOCK
100
AcDbTrace
 10
6164.721025
 20
329.601525
 30
0.0
 11
6159.734714
 21
329.231792
 31
0.0
 12
6163.337069
 22
314.457726
 32
0.0
 13
6163.337069
 23
314.457726
 33
0.0
  0
SOLID
  5
C8
100
AcDbEntity
  8
0
  6
BYBLOCK
100
AcDbTrace
 10
6132.147666
 20
384.131769
 30
0.0
 11
6135.42018
 21
387.912067
 31
0.0
 12
6122.44303
 22
395.839461
 32
0.0
 13
6122.44303
 23
395.839461
 33
0.0
  0
MTEXT
  5
C9
100
AcDbEntity
  8
0
  6
BYBLOCK
 62
     5
100
AcDbMText
 10
6168.175556
 20
367.854473
 30
0.0
 40
19.32
 41
0.0
 71
     5
 72
     1
  1
\A1;53,36°
 11
0.448997
 21
-0.893533
 31
0.0
  0
POINT
  5
CA
100
AcDbEntity
  8
DEFPOINTS
  6
BYBLOCK
 62
     0
100
AcDbPoint
 10
6158.48926
 20
345.439516
 30
0.0
  0
POINT
  5
CB
100
AcDbEntity
  8
DEFPOINTS
  6
BYBLOCK
 62
     0
100
AcDbPoint
 10
6061.91264
 20
314.457726
 30
0.0
  0
POINT
  5
CC
100
AcDbEntity
  8
DEFPOINTS
  6
BYBLOCK
 62
     0
100
AcDbPoint
 10
6061.91264
 20
314.457726
 30
0.0
  0
POINT
  5
CD
100
AcDbEntity
  8
DEFPOINTS
  6
BYBLOCK
 62
     0
100
AcDbPoint
 10
6117.09198
 20
314.457726
 30
0.0
  0
POINT
  5
CE
100
AcDbEntity
  8
DEFPOINTS
  6
BYBLOCK
 62
     0
100
AcDbPoint
 10
6068.606691
 20
323.457726
 30
0.0
  0
ENDBLK
  5
D0
100
AcDbEntity
  8
0
100
AcDbBlockEnd
  0
BLOCK
  5
142
100
AcDbEntity
  8
0
100
AcDbBlockBegin
  2
*D19
 70
     1
 10
0.0
 20
0.0
 30
0.0
  3
*D19
  1

  0
LINE
  5
136
100
AcDbEntity
  8
0
  6
BYBLOCK
100
AcDbLine
 10
5852.73213
 20
482.534678
 30
0.0
 11
5971.597706
 21
482.534678
 31
0.0
  0
LINE
  5
137
100
AcDbEntity
  8
0
  6
BYBLOCK
100
AcDbLine
 10
5919.682687
 20
487.457726
 30
0.0
 11
5971.597706
 21
487.457726
 31
0.0
  0
LINE
  5
138
100
AcDbEntity
  8
0
  6
BYBLOCK
100
AcDbLine
 10
5965.597706
 20
467.534678
 30
0.0
 11
5965.597706
 21
452.534678
 31
0.0
  0
LINE
  5
139
100
AcDbEntity
  8
0
  6
BYBLOCK
100
AcDbLine
 10
5965.597706
 20
502.457726
 30
0.0
 11
5965.597706
 21
517.457726
 31
0.0
  0
MTEXT
  5
13A
100
AcDbEntity
  8
0
  6
BYBLOCK
 62
     5
100
AcDbMText
 10
5949.847706
 20
498.369357
 30
0.0
 40
19.32
 41
0.0
 71
     5
 72
     1
  1
\A1;5
 11
0.0
 21
1.0
 31
0.0
  0
LINE
  5
13B
100
AcDbEntity
  8
0
  6
BYBLOCK
100
AcDbLine
 10
5965.597706
 20
482.534678
 30
0.0
 11
5965.597706
 21
487.457726
 31
0.0
  0
LINE
  5
13C
100
AcDbEntity
  8
0
  6
BYBLOCK
100
AcDbLine
 10
5965.597706
 20
482.534678
 30
0.0
 11
5965.597706
 21
487.457726
 31
0.0
  0
SOLID
  5
13D
100
AcDbEntity
  8
0
  6
BYBLOCK
100
AcDbTrace
 10
5963.097706
 20
467.534678
 30
0.0
 11
5968.097706
 21
467.534678
 31
0.0
 12
5965.597706
 22
482.534678
 32
0.0
 13
5965.597706
 23
482.534678
 33
0.0
  0
SOLID
  5
13E
100
AcDbEntity
  8
0
  6
BYBLOCK
100
AcDbTrace
 10
5963.097706
 20
502.457726
 30
0.0
 11
5968.097706
 21
502.457726
 31
0.0
 12
5965.597706
 22
487.457726
 32
0.0
 13
5965.597706
 23
487.457726
 33
0.0
  0
POINT
  5
13F
100
AcDbEntity
  8
DEFPOINTS
  6
BYBLOCK
 62
     0
100
AcDbPoint
 10
5849.73213
 20
482.534678
 30
0.0
  0
POINT
  5
140
100
AcDbEntity
  8
DEFPOINTS
  6
BYBLOCK
 62
     0
100
AcDbPoint
 10
5916.682687
 20
487.457726
 30
0.0
  0
POINT
  5
141
100
AcDbEntity
  8
DEFPOINTS
  6
BYBLOCK
 62
     0
100
AcDbPoint
 10
5965.597706
 20
487.457726
 30
0.0
  0
ENDBLK
  5
143
100
AcDbEntity
  8
0
100
AcDbBlockEnd
  0
BLOCK
  5
190
100
AcDbEntity
  8
0
100
AcDbBlockBegin
  2
*D20
 70
     1
 10
0.0
 20
0.0
 30
0.0
  3
*D20
  1

  0
LINE
  5
185
100
AcDbEntity
  8
0
  6
BYBLOCK
100
AcDbLine
 10
6336.008193
 20
490.380919
 30
0.0
 11
6328.305221
 21
523.764838
 31
0.0
  0
LINE
  5
186
100
AcDbEntity
  8
0
  6
BYBLOCK
100
AcDbLine
 10
6349.160176
 20
493.415594
 30
0.0
 11
6341.457204
 21
526.799514
 31
0.0
  0
LINE
  5
187
100
AcDbEntity
  8
0
  6
BYBLOCK
100
AcDbLine
 10
6315.038245
 20
514.545979
 30
0.0
 11
6300.42228
 21
511.173506
 31
0.0
  0
LINE
  5
188
100
AcDbEntity
  8
0
  6
BYBLOCK
100
AcDbLine
 10
6357.422158
 20
524.325601
 30
0.0
 11
6372.038122
 21
527.698074
 31
0.0
  0
LINE
  5
189
100
AcDbEntity
  8
0
  6
BYBLOCK
100
AcDbLine
 10
6329.65421
 20
517.918452
 30
0.0
 11
6342.806193
 21
520.953128
 31
0.0
  0
SOLID
  5
18A
100
AcDbEntity
  8
0
  6
BYBLOCK
100
AcDbTrace
 10
6314.476166
 20
516.981973
 30
0.0
 11
6315.600324
 21
512.109985
 31
0.0
 12
6329.65421
 22
517.918452
 32
0.0
 13
6329.65421
 23
517.918452
 33
0.0
  0
SOLID
  5
18B
100
AcDbEntity
  8
0
  6
BYBLOCK
100
AcDbTrace
 10
6356.860079
 20
526.761595
 30
0.0
 11
6357.984236
 21
521.889607
 31
0.0
 12
6342.806193
 22
520.953128
 32
0.0
 13
6342.806193
 23
520.953128
 33
0.0
  0
MTEXT
  5
18C
100
AcDbEntity
  8
0
  6
BYBLOCK
 62
     5
100
AcDbMText
 10
6332.295649
 20
536.487749
 30
0.0
 40
19.32
 41
0.0
 71
     5
 72
     1
  1
\A1;3x4,5
 11
0.974398
 21
0.224832
 31
0.0
  0
POINT
  5
18D
100
AcDbEntity
  8
DEFPOINTS
  6
BYBLOCK
 62
     0
100
AcDbPoint
 10
6336.682687
 20
487.457726
 30
0.0
  0
POINT
  5
18E
100
AcDbEntity
  8
DEFPOINTS
  6
BYBLOCK
 62
     0
100
AcDbPoint
 10
6349.83467
 20
490.492401
 30
0.0
  0
POINT
  5
18F
100
AcDbEntity
  8
DEFPOINTS
  6
BYBLOCK
 62
     0
100
AcDbPoint
 10
6342.806193
 20
520.953128
 30
0.0
  0
ENDBLK
  5
191
100
AcDbEntity
  8
0
100
AcDbBlockEnd
  0
BLOCK
  5
170
100
AcDbEntity
  8
0
100
AcDbBlockBegin
  2
*D21
 70
     1
 10
0.0
 20
0.0
 30
0.0
  3
*D21
  1

  0
LINE
  5
165
100
AcDbEntity
  8
0
  6
BYBLOCK
100
AcDbLine
 10
6165.682687
 20
484.457726
 30
0.0
 11
6165.682687
 21
438.680524
 31
0.0
  0
LINE
  5
166
100
AcDbEntity
  8
0
  6
BYBLOCK
100
AcDbLine
 10
6200.682687
 20
484.457726
 30
0.0
 11
6200.682687
 21
438.680524
 31
0.0
  0
LINE
  5
167
100
AcDbEntity
  8
0
  6
BYBLOCK
100
AcDbLine
 10
6150.682687
 20
444.680524
 30
0.0
 11
6135.682687
 21
444.680524
 31
0.0
  0
LINE
  5
168
100
AcDbEntity
  8
0
  6
BYBLOCK
100
AcDbLine
 10
6215.682687
 20
444.680524
 30
0.0
 11
6230.682687
 21
444.680524
 31
0.0
  0
LINE
  5
169
100
AcDbEntity
  8
0
  6
BYBLOCK
100
AcDbLine
 10
6165.682687
 20
444.680524
 30
0.0
 11
6200.682687
 21
444.680524
 31
0.0
  0
SOLID
  5
16A
100
AcDbEntity
  8
0
  6
BYBLOCK
100
AcDbTrace
 10
6150.682687
 20
447.180524
 30
0.0
 11
6150.682687
 21
442.180524
 31
0.0
 12
6165.682687
 22
444.680524
 32
0.0
 13
6165.682687
 23
444.680524
 33
0.0
  0
SOLID
  5
16B
100
AcDbEntity
  8
0
  6
BYBLOCK
100
AcDbTrace
 10
6215.682687
 20
447.180524
 30
0.0
 11
6215.682687
 21
442.180524
 31
0.0
 12
6200.682687
 22
444.680524
 32
0.0
 13
6200.682687
 23
444.680524
 33
0.0
  0
MTEXT
  5
16C
100
AcDbEntity
  8
0
  6
BYBLOCK
 62
     5
100
AcDbMText
 10
6183.182687
 20
460.340524
 30
0.0
 40
19.32
 41
0.0
 71
     5
 72
     1
  1
\A1;35
  0
POINT
  5
16D
100
AcDbEntity
  8
DEFPOINTS
  6
BYBLOCK
 62
     0
100
AcDbPoint
 10
6165.682687
 20
487.457726
 30
0.0
  0
POINT
  5
16E
100
AcDbEntity
  8
DEFPOINTS
  6
BYBLOCK
 62
     0
100
AcDbPoint
 10
6200.682687
 20
487.457726
 30
0.0
  0
POINT
  5
16F
100
AcDbEntity
  8
DEFPOINTS
  6
BYBLOCK
 62
     0
100
AcDbPoint
 10
6200.682687
 20
444.680524
 30
0.0
  0
ENDBLK
  5
171
100
AcDbEntity
  8
0
100
AcDbBlockEnd
  0
BLOCK
  5
161
100
AcDbEntity
  8
0
100
AcDbBlockBegin
  2
*D22
 70
     1
 10
0.0
 20
0.0
 30
0.0
  3
*D22
  1

  0
LINE
  5
156
100
AcDbEntity
  8
0
  6
BYBLOCK
100
AcDbLine
 10
6251.682687
 20
484.457726
 30
0.0
 11
6251.682687
 21
438.680524
 31
0.0
  0
LINE
  5
157
100
AcDbEntity
  8
0
  6
BYBLOCK
100
AcDbLine
 10
6286.682687
 20
484.457726
 30
0.0
 11
6286.682687
 21
438.680524
 31
0.0
  0
LINE
  5
158
100
AcDbEntity
  8
0
  6
BYBLOCK
100
AcDbLine
 10
6236.682687
 20
444.680524
 30
0.0
 11
6221.682687
 21
444.680524
 31
0.0
  0
LINE
  5
159
100
AcDbEntity
  8
0
  6
BYBLOCK
100
AcDbLine
 10
6301.682687
 20
444.680524
 30
0.0
 11
6316.682687
 21
444.680524
 31
0.0
  0
LINE
  5
15A
100
AcDbEntity
  8
0
  6
BYBLOCK
100
AcDbLine
 10
6251.682687
 20
444.680524
 30
0.0
 11
6286.682687
 21
444.680524
 31
0.0
  0
SOLID
  5
15B
100
AcDbEntity
  8
0
  6
BYBLOCK
100
AcDbTrace
 10
6236.682687
 20
447.180524
 30
0.0
 11
6236.682687
 21
442.180524
 31
0.0
 12
6251.682687
 22
444.680524
 32
0.0
 13
6251.682687
 23
444.680524
 33
0.0
  0
SOLID
  5
15C
100
AcDbEntity
  8
0
  6
BYBLOCK
100
AcDbTrace
 10
6301.682687
 20
447.180524
 30
0.0
 11
6301.682687
 21
442.180524
 31
0.0
 12
6286.682687
 22
444.680524
 32
0.0
 13
6286.682687
 23
444.680524
 33
0.0
  0
MTEXT
  5
15D
100
AcDbEntity
  8
0
  6
BYBLOCK
 62
     5
100
AcDbMText
 10
6269.182687
 20
460.340524
 30
0.0
 40
19.32
 41
0.0
 71
     5
 72
     1
  1
\A1;35
  0
POINT
  5
15E
100
AcDbEntity
  8
DEFPOINTS
  6
BYBLOCK
 62
     0
100
AcDbPoint
 10
6251.682687
 20
487.457726
 30
0.0
  0
POINT
  5
15F
100
AcDbEntity
  8
DEFPOINTS
  6
BYBLOCK
 62
     0
100
AcDbPoint
 10
6286.682687
 20
487.457726
 30
0.0
  0
POINT
  5
160
100
AcDbEntity
  8
DEFPOINTS
  6
BYBLOCK
 62
     0
100
AcDbPoint
 10
6286.682687
 20
444.680524
 30
0.0
  0
ENDBLK
  5
162
100
AcDbEntity
  8
0
100
AcDbBlockEnd
  0
BLOCK
  5
A5
100
AcDbEntity
  8
0
100
AcDbBlockBegin
  2
*D23
 70
     1
 10
0.0
 20
0.0
 30
0.0
  3
*D23
  1

  0
LINE
  5
9C
100
AcDbEntity
  8
0
  6
BYBLOCK
100
AcDbLine
 10
5635.682687
 20
290.457726
 30
0.0
 11
5635.682687
 21
532.269408
 31
0.0
  0
LINE
  5
9D
100
AcDbEntity
  8
0
  6
BYBLOCK
100
AcDbLine
 10
5695.682687
 20
490.457726
 30
0.0
 11
5695.682687
 21
532.269408
 31
0.0
  0
LINE
  5
9E
100
AcDbEntity
  8
0
  6
BYBLOCK
100
AcDbLine
 10
5650.682687
 20
526.269408
 30
0.0
 11
5680.682687
 21
526.269408
 31
0.0
  0
SOLID
  5
9F
100
AcDbEntity
  8
0
  6
BYBLOCK
100
AcDbTrace
 10
5650.682687
 20
528.769408
 30
0.0
 11
5650.682687
 21
523.769408
 31
0.0
 12
5635.682687
 22
526.269408
 32
0.0
 13
5635.682687
 23
526.269408
 33
0.0
  0
SOLID
  5
A0
100
AcDbEntity
  8
0
  6
BYBLOCK
100
AcDbTrace
 10
5680.682687
 20
528.769408
 30
0.0
 11
5680.682687
 21
523.769408
 31
0.0
 12
5695.682687
 22
526.269408
 32
0.0
 13
5695.682687
 23
526.269408
 33
0.0
  0
MTEXT
  5
A1
100
AcDbEntity
  8
0
  6
BYBLOCK
 62
     5
100
AcDbMText
 10
5665.682687
 20
541.929408
 30
0.0
 40
19.32
 41
0.0
 71
     5
 72
     1
  1
\A1;60
  0
POINT
  5
A2
100
AcDbEntity
  8
DEFPOINTS
  6
BYBLOCK
 62
     0
100
AcDbPoint
 10
5635.682687
 20
287.457726
 30
0.0
  0
POINT
  5
A3
100
AcDbEntity
  8
DEFPOINTS
  6
BYBLOCK
 62
     0
100
AcDbPoint
 10
5695.682687
 20
487.457726
 30
0.0
  0
POINT
  5
A4
100
AcDbEntity
  8
DEFPOINTS
  6
BYBLOCK
 62
     0
100
AcDbPoint
 10
5695.682687
 20
526.269408
 30
0.0
  0
ENDBLK
  5
A6
100
AcDbEntity
  8
0
100
AcDbBlockEnd
  0
BLOCK
  5
17E
100
AcDbEntity
  8
0
100
AcDbBlockBegin
  2
*D24
 70
     1
 10
0.0
 20
0.0
 30
0.0
  3
*D24
  1

  0
LINE
  5
174
100
AcDbEntity
  8
0
  6
BYBLOCK
100
AcDbLine
 10
6346.855546
 20
463.380919
 30
0.0
 11
6332.689215
 21
524.776397
 31
0.0
  0
LINE
  5
175
100
AcDbEntity
  8
0
  6
BYBLOCK
100
AcDbLine
 10
6351.23954
 20
464.392477
 30
0.0
 11
6337.073209
 21
525.787955
 31
0.0
  0
LINE
  5
176
100
AcDbEntity
  8
0
  6
BYBLOCK
100
AcDbLine
 10
6319.422239
 20
515.557538
 30
0.0
 11
6304.806275
 21
512.185065
 31
0.0
  0
LINE
  5
177
100
AcDbEntity
  8
0
  6
BYBLOCK
100
AcDbLine
 10
6353.038163
 20
523.314042
 30
0.0
 11
6367.654128
 21
526.686515
 31
0.0
  0
LINE
  5
178
100
AcDbEntity
  8
0
  6
BYBLOCK
100
AcDbLine
 10
6334.038204
 20
518.930011
 30
0.0
 11
6338.422198
 21
519.941569
 31
0.0
  0
SOLID
  5
179
100
AcDbEntity
  8
0
  6
BYBLOCK
100
AcDbTrace
 10
6318.860161
 20
517.993532
 30
0.0
 11
6319.984318
 21
513.121544
 31
0.0
 12
6334.038204
 22
518.930011
 32
0.0
 13
6334.038204
 23
518.930011
 33
0.0
  0
SOLID
  5
17A
100
AcDbEntity
  8
0
  6
BYBLOCK
100
AcDbTrace
 10
6352.476084
 20
525.750036
 30
0.0
 11
6353.600242
 21
520.878048
 31
0.0
 12
6338.422198
 22
519.941569
 32
0.0
 13
6338.422198
 23
519.941569
 33
0.0
  0
POINT
  5
17B
100
AcDbEntity
  8
DEFPOINTS
  6
BYBLOCK
 62
     0
100
AcDbPoint
 10
6347.53004
 20
460.457726
 30
0.0
  0
POINT
  5
17C
100
AcDbEntity
  8
DEFPOINTS
  6
BYBLOCK
 62
     0
100
AcDbPoint
 10
6351.914035
 20
461.469284
 30
0.0
  0
POINT
  5
17D
100
AcDbEntity
  8
DEFPOINTS
  6
BYBLOCK
 62
     0
100
AcDbPoint
 10
6338.422198
 20
519.941569
 30
0.0
  0
ENDBLK
  5
17F
100
AcDbEntity
  8
0
100
AcDbBlockEnd
  0
ENDSEC
  0
SECTION
  2
ENTITIES
  0
DIMENSION
  5
1E
100
AcDbEntity
  8
KOTY-UPLNE
100
AcDbDimension
  2
*D16
 10
1159.048739
 20
-349.884928
 30
0.0
 11
1143.388739
 21
-249.884928
 31
0.0
 12
-5443.32739
 22
-637.342654
 32
0.0
  3
UPLNE
100
AcDbAlignedDimension
 13
893.355297
 23
-149.884928
 33
0.0
 14
1032.355297
 24
-349.884928
 34
0.0
 50
90.0
100
AcDbRotatedDimension
1001
ACAD
1000
DSTYLE
1002
{
1070
    40
1040
3.0
1070
   147
1040
2.0
1002
}
  0
DIMENSION
  5
2C
100
AcDbEntity
  8
KOTY-UPLNE
100
AcDbDimension
  2
*D15
 10
1097.276227
 20
-349.884928
 30
0.0
 11
1081.616227
 21
-336.384928
 31
0.0
 12
-5443.32739
 22
-637.342654
 32
0.0
  3
UPLNE
100
AcDbAlignedDimension
 13
947.125344
 23
-322.884928
 33
0.0
 14
1032.355297
 24
-349.884928
 34
0.0
 50
90.0
100
AcDbRotatedDimension
1001
ACAD
1000
DSTYLE
1002
{
1070
    40
1040
3.0
1070
   147
1040
2.0
1002
}
  0
DIMENSION
  5
3B
100
AcDbEntity
  8
KOTY-UPLNE
100
AcDbDimension
  2
*D14
 10
1097.276227
 20
-322.884928
 30
0.0
 11
1119.927508
 21
-318.384928
 31
0.0
 12
-5443.32739
 22
-637.342654
 32
0.0
 70
   128
  3
UPLNE
100
AcDbAlignedDimension
 13
940.431293
 23
-313.884928
 33
0.0
 14
947.125344
 24
-322.884928
 34
0.0
 50
90.0
100
AcDbRotatedDimension
1001
ACAD
1000
DSTYLE
1002
{
1070
    40
1040
3.0
1070
   147
1040
2.0
1002
}
  0
DIMENSION
  5
4B
100
AcDbEntity
  8
KOTY-UPLNE
100
AcDbDimension
  2
*D13
 10
1097.276227
 20
-313.884928
 30
0.0
 11
1081.616227
 21
-299.884928
 31
0.0
 12
-5443.32739
 22
-637.342654
 32
0.0
  3
UPLNE
100
AcDbAlignedDimension
 13
933.970601
 23
-285.884928
 33
0.0
 14
940.431293
 24
-313.884928
 34
0.0
 50
90.0
100
AcDbRotatedDimension
1001
ACAD
1000
DSTYLE
1002
{
1070
    40
1040
3.0
1070
   147
1040
2.0
1002
}
  0
DIMENSION
  5
5A
100
AcDbEntity
  8
KOTY-UPLNE
100
AcDbDimension
  2
*D12
 10
1097.276227
 20
-285.884928
 30
0.0
 11
1116.449039
 21
-281.384928
 31
0.0
 12
-5443.32739
 22
-637.342654
 32
0.0
 70
   128
  3
UPLNE
100
AcDbAlignedDimension
 13
927.27655
 23
-276.884928
 33
0.0
 14
933.970601
 24
-285.884928
 34
0.0
 50
90.0
100
AcDbRotatedDimension
1001
ACAD
1000
DSTYLE
1002
{
1070
    40
1040
3.0
1070
   147
1040
2.0
1002
}
  0
DIMENSION
  5
6A
100
AcDbEntity
  8
KOTY-UPLNE
100
AcDbDimension
  2
*D11
 10
1097.276227
 20
-276.884928
 30
0.0
 11
1081.616227
 21
-231.384928
 31
0.0
 12
-5443.32739
 22
-637.342654
 32
0.0
  3
UPLNE
100
AcDbAlignedDimension
 13
906.279301
 23
-185.884928
 33
0.0
 14
927.27655
 24
-276.884928
 34
0.0
 50
90.0
100
AcDbRotatedDimension
1001
ACAD
1000
DSTYLE
1002
{
1070
    40
1040
3.0
1070
   147
1040
2.0
1002
}
  0
DIMENSION
  5
77
100
AcDbEntity
  8
KOTY-UPLNE
100
AcDbDimension
  2
*D10
 10
1097.276227
 20
-185.884928
 30
0.0
 11
1118.536112
 21
-181.384928
 31
0.0
 12
-5443.32739
 22
-637.342654
 32
0.0
 70
   128
  3
UPLNE
100
AcDbAlignedDimension
 13
899.58525
 23
-176.884928
 33
0.0
 14
906.279301
 24
-185.884928
 34
0.0
 50
90.0
100
AcDbRotatedDimension
1001
ACAD
1000
DSTYLE
1002
{
1070
    40
1040
3.0
1070
   147
1040
2.0
1002
}
  0
DIMENSION
  5
87
100
AcDbEntity
  8
KOTY-UPLNE
100
AcDbDimension
  2
*D9
 10
1097.276227
 20
-176.884928
 30
0.0
 11
1081.616227
 21
-163.384928
 31
0.0
 12
-5443.32739
 22
-637.342654
 32
0.0
  3
UPLNE
100
AcDbAlignedDimension
 13
893.355297
 23
-149.884928
 33
0.0
 14
899.58525
 24
-176.884928
 34
0.0
 50
90.0
100
AcDbRotatedDimension
1001
ACAD
1000
DSTYLE
1002
{
1070
    40
1040
3.0
1070
   147
1040
2.0
1002
}
  0
LWPOLYLINE
  5
96
100
AcDbEntity
  8
TRAPEZ-VELKY
100
AcDbPolyline
 90
      112
 70
     0
 10
1036.851828
 20
-330.397408
 40
5.0
 41
5.0
 10
1033.249605
 20
-346.009086
 40
5.0
 41
5.0
 42
-0.34925
 10
1028.377617
 20
-349.884928
 40
5.0
 41
5.0
 10
1004.089942
 20
-349.884928
 40
5.0
 41
5.0
 42
-0.121638
 10
1001.762562
 20
-349.310231
 40
5.0
 41
5.0
 10
995.182677
 20
-345.8497
 40
5.0
 41
5.0
 42
0.121638
 10
992.855297
 20
-345.275003
 40
5.0
 41
5.0
 42
0.121638
 10
990.527917
 20
-345.8497
 40
5.0
 41
5.0
 10
983.948032
 20
-349.310231
 40
5.0
 41
5.0
 42
-0.121638
 10
981.620652
 20
-349.884928
 40
5.0
 41
5.0
 10
957.332977
 20
-349.884928
 40
5.0
 41
5.0
 42
-0.34925
 10
952.460989
 20
-346.009086
 40
5.0
 41
5.0
 10
947.360687
 20
-323.904882
 40
5.0
 41
5.0
 42
0.103553
 10
946.500639
 20
-322.045026
 40
5.0
 41
5.0
 10
941.055999
 20
-314.724831
 40
5.0
 41
5.0
 42
-0.103553
 10
940.19595
 20
-312.864974
 40
5.0
 41
5.0
 10
934.205944
 20
-286.904882
 40
5.0
 41
5.0
 42
0.103553
 10
933.345896
 20
-285.045026
 40
5.0
 41
5.0
 10
927.901255
 20
-277.724831
 40
5.0
 41
5.0
 42
-0.103553
 10
927.041207
 20
-275.864974
 40
5.0
 41
5.0
 10
906.514645
 20
-186.904882
 40
5.0
 41
5.0
 42
0.103553
 10
905.654596
 20
-185.045026
 40
5.0
 41
5.0
 10
900.209956
 20
-177.724831
 40
5.0
 41
5.0
 42
-0.103553
 10
899.349907
 20
-175.864974
 40
5.0
 41
5.0
 10
894.249605
 20
-153.76077
 40
5.0
 41
5.0
 42
0.34925
 10
889.377617
 20
-149.884928
 40
5.0
 41
5.0
 10
860.855297
 20
-149.884928
 40
5.0
 41
5.0
 10
844.066688
 20
-149.884928
 40
5.0
 41
5.0
 42
0.070783
 10
842.672136
 20
-150.083343
 40
5.0
 41
5.0
 10
827.249849
 20
-154.562526
 40
5.0
 41
5.0
 42
-0.142278
 10
824.460745
 20
-154.562526
 40
5.0
 41
5.0
 10
809.038458
 20
-150.083343
 40
5.0
 41
5.0
 42
0.070783
 10
807.643906
 20
-149.884928
 40
5.0
 41
5.0
 10
774.855297
 20
-149.884928
 40
5.0
 41
5.0
 10
758.066688
 20
-149.884928
 40
5.0
 41
5.0
 42
0.070783
 10
756.672136
 20
-150.083343
 40
5.0
 41
5.0
 10
741.249849
 20
-154.562526
 40
5.0
 41
5.0
 42
-0.142278
 10
738.460745
 20
-154.562526
 40
5.0
 41
5.0
 10
723.038458
 20
-150.083343
 40
5.0
 41
5.0
 42
0.070783
 10
721.643906
 20
-149.884928
 40
5.0
 41
5.0
 10
676.332977
 20
-149.884928
 40
5.0
 41
5.0
 42
0.34925
 10
671.460989
 20
-153.76077
 40
5.0
 41
5.0
 10
666.360687
 20
-175.864974
 40
5.0
 41
5.0
 42
-0.103553
 10
665.500639
 20
-177.724831
 40
5.0
 41
5.0
 10
660.055999
 20
-185.045026
 40
5.0
 41
5.0
 42
0.103553
 10
659.19595
 20
-186.904882
 40
5.0
 41
5.0
 10
638.669388
 20
-275.864974
 40
5.0
 41
5.0
 42
-0.103553
 10
637.809339
 20
-277.724831
 40
5.0
 41
5.0
 10
632.364699
 20
-285.045026
 40
5.0
 41
5.0
 42
0.103553
 10
631.50465
 20
-286.904882
 40
5.0
 41
5.0
 10
625.514645
 20
-312.864974
 40
5.0
 41
5.0
 42
-0.103553
 10
624.654596
 20
-314.724831
 40
5.0
 41
5.0
 10
619.209956
 20
-322.045026
 40
5.0
 41
5.0
 42
0.103553
 10
618.349907
 20
-323.904882
 40
5.0
 41
5.0
 10
613.249605
 20
-346.009086
 40
5.0
 41
5.0
 42
-0.34925
 10
608.377617
 20
-349.884928
 40
5.0
 41
5.0
 10
584.089942
 20
-349.884928
 40
5.0
 41
5.0
 42
-0.121638
 10
581.762562
 20
-349.310231
 40
5.0
 41
5.0
 10
575.182677
 20
-345.8497
 40
5.0
 41
5.0
 42
0.246929
 10
570.527917
 20
-345.8497
 40
5.0
 41
5.0
 10
563.948032
 20
-349.310231
 40
5.0
 41
5.0
 42
-0.121638
 10
561.620652
 20
-349.884928
 40
5.0
 41
5.0
 10
537.332977
 20
-349.884928
 40
5.0
 41
5.0
 42
-0.34925
 10
532.460989
 20
-346.009086
 40
5.0
 41
5.0
 10
527.360687
 20
-323.904882
 40
5.0
 41
5.0
 42
0.103553
 10
526.500639
 20
-322.045026
 40
5.0
 41
5.0
 10
521.055999
 20
-314.724831
 40
5.0
 41
5.0
 42
-0.103553
 10
520.19595
 20
-312.864974
 40
5.0
 41
5.0
 10
514.205944
 20
-286.904882
 40
5.0
 41
5.0
 42
0.103553
 10
513.345896
 20
-285.045026
 40
5.0
 41
5.0
 10
507.901255
 20
-277.724831
 40
5.0
 41
5.0
 42
-0.103553
 10
507.041207
 20
-275.864974
 40
5.0
 41
5.0
 10
486.514645
 20
-186.904882
 40
5.0
 41
5.0
 42
0.103553
 10
485.654596
 20
-185.045026
 40
5.0
 41
5.0
 10
480.209956
 20
-177.724831
 40
5.0
 41
5.0
 42
-0.103553
 10
479.349907
 20
-175.864974
 40
5.0
 41
5.0
 10
474.249605
 20
-153.76077
 40
5.0
 41
5.0
 42
0.34925
 10
469.377617
 20
-149.884928
 40
5.0
 41
5.0
 10
440.855297
 20
-149.884928
 40
5.0
 41
5.0
 10
424.066688
 20
-149.884928
 40
5.0
 41
5.0
 42
0.070783
 10
422.672136
 20
-150.083343
 40
5.0
 41
5.0
 10
407.249849
 20
-154.562526
 40
5.0
 41
5.0
 42
-0.142278
 10
404.460745
 20
-154.562526
 40
5.0
 41
5.0
 10
389.038458
 20
-150.083343
 40
5.0
 41
5.0
 42
0.070783
 10
387.643906
 20
-149.884928
 40
5.0
 41
5.0
 10
354.855297
 20
-149.884928
 40
5.0
 41
5.0
 10
338.066688
 20
-149.884928
 40
5.0
 41
5.0
 42
0.070783
 10
336.672136
 20
-150.083343
 40
5.0
 41
5.0
 10
321.249849
 20
-154.562526
 40
5.0
 41
5.0
 42
-0.142278
 10
318.460745
 20
-154.562526
 40
5.0
 41
5.0
 10
303.038458
 20
-150.083343
 40
5.0
 41
5.0
 42
0.070783
 10
301.643906
 20
-149.884928
 40
5.0
 41
5.0
 10
256.332977
 20
-149.884928
 40
5.0
 41
5.0
 42
0.34925
 10
251.460989
 20
-153.76077
 40
5.0
 41
5.0
 10
246.360687
 20
-175.864974
 40
5.0
 41
5.0
 42
-0.103553
 10
245.500639
 20
-177.724831
 40
5.0
 41
5.0
 10
240.055999
 20
-185.045026
 40
5.0
 41
5.0
 42
0.103553
 10
239.19595
 20
-186.904882
 40
5.0
 41
5.0
 10
218.669388
 20
-275.864974
 40
5.0
 41
5.0
 42
-0.103553
 10
217.809339
 20
-277.724831
 40
5.0
 41
5.0
 10
212.364699
 20
-285.045026
 40
5.0
 41
5.0
 42
0.103553
 10
211.50465
 20
-286.904882
 40
5.0
 41
5.0
 10
205.514645
 20
-312.864974
 40
5.0
 41
5.0
 42
-0.103553
 10
204.654596
 20
-314.724831
 40
5.0
 41
5.0
 10
199.209956
 20
-322.045026
 40
5.0
 41
5.0
 42
0.103553
 10
198.349907
 20
-323.904882
 40
5.0
 41
5.0
 10
193.249605
 20
-346.009086
 40
5.0
 41
5.0
 42
-0.34925
 10
188.377617
 20
-349.884928
 40
5.0
 41
5.0
 10
164.089942
 20
-349.884928
 40
5.0
 41
5.0
 42
-0.121638
 10
161.762562
 20
-349.310231
 40
5.0
 41
5.0
 10
153.749724
 20
-345.096074
 40
5.0
 41
5.0
 42
0.236068
 10
151.96087
 20
-345.096074
 40
0.0
 41
0.0
  0
LWPOLYLINE
  5
98
100
AcDbEntity
  8
RAMEC
100
AcDbPolyline
 90
        4
 70
     1
 43
0.0
 10
0.0
 20
0.0
 10
0.0
 20
-519.001233
 10
1349.672502
 20
-519.001233
 10
1349.672502
 20
0.0
  0
DIMENSION
  5
9A
100
AcDbEntity
  8
KOTY-UPLNE
100
AcDbDimension
  2
*D23
 10
252.355297
 20
-111.073246
 30
0.0
 11
222.355297
 21
-95.413246
 31
0.0
 12
-5443.32739
 22
-637.342654
 32
0.0
  3
UPLNE
100
AcDbAlignedDimension
 13
192.355297
 23
-349.884928
 33
0.0
 14
252.355297
 24
-149.884928
 34
0.0
100
AcDbRotatedDimension
1001
ACAD
1000
DSTYLE
1002
{
1070
    40
1040
3.0
1070
   147
1040
2.0
1002
}
  0
DIMENSION
  5
A7
100
AcDbEntity
  8
KOTY-UPLNE
100
AcDbDimension
  2
*D1
 10
152.855297
 20
-469.884928
 30
0.0
 11
572.855297
 21
-454.224928
 31
0.0
 12
-5443.32739
 22
-637.342654
 32
0.0
  3
UPLNE
100
AcDbAlignedDimension
 13
992.855297
 23
-354.884928
 33
0.0
 14
152.855297
 24
-362.884928
 34
0.0
100
AcDbRotatedDimension
1001
ACAD
1000
DSTYLE
1002
{
1070
    40
1040
3.0
1070
   147
1040
2.0
1002
}
  0
DIMENSION
  5
B4
100
AcDbEntity
  8
KOTY-UPLNE
100
AcDbDimension
  2
*D0
 10
572.855297
 20
-409.884928
 30
0.0
 11
362.855297
 21
-394.224928
 31
0.0
 12
-5443.32739
 22
-637.342654
 32
0.0
  3
UPLNE
100
AcDbAlignedDimension
 13
152.855297
 23
-359.884928
 33
0.0
 14
572.855297
 24
-350.275003
 34
0.0
100
AcDbRotatedDimension
1001
ACAD
1000
DSTYLE
1002
{
1070
    40
1040
3.0
1070
   147
1040
2.0
1002
}
  0
MTEXT
  5
C1
100
AcDbEntity
  8
KOTY-UPLNE
  6
BYBLOCK
 62
     5
100
AcDbMText
 10
738.191435
 20
-77.685208
 30
0.0
 40
16.5
 41
0.0
 71
     5
 72
     1
  1
všechna zaoblení R=2
  0
DIMENSION
  5
C2
100
AcDbEntity
  8
KOTY-UPLNE
100
AcDbDimension
  2
*D18
 10
625.279301
 20
-313.884928
 30
0.0
 11
724.848166
 21
-269.488181
 31
0.0
 12
-5443.32739
 22
-637.342654
 32
0.0
 70
     2
  1
53,36%%d
  3
UPLNE
100
AcDb2LineAngularDimension
 13
618.58525
 23
-322.884928
 33
0.0
 14
673.764589
 24
-322.884928
 34
0.0
 15
618.58525
 25
-322.884928
 35
0.0
 16
715.16187
 26
-291.903138
 36
0.0
1001
ACAD
1000
DSTYLE
1002
{
1070
    40
1040
3.0
1070
   147
1040
2.0
1002
}
  0
LINE
  5
D1
100
AcDbEntity
  8
KOTY-UPLNE
100
AcDbLine
 10
618.58525
 20
-322.884928
 30
0.0
 11
673.764589
 21
-322.884928
 31
0.0
  0
DIMENSION
  5
D2
100
AcDbEntity
  8
KOTY-UPLNE
100
AcDbDimension
  2
*D17
 10
618.58525
 20
-322.884928
 30
0.0
 11
756.465376
 21
-235.240164
 31
0.0
 12
-5443.32739
 22
-637.342654
 32
0.0
 70
     2
  1
77,01%%d
  3
UPLNE
100
AcDb2LineAngularDimension
 13
582.855297
 23
-349.884928
 33
0.0
 14
612.355297
 24
-349.884928
 34
0.0
 15
612.355297
 25
-349.884928
 35
0.0
 16
762.558641
 26
-277.696975
 36
0.0
1001
ACAD
1000
DSTYLE
1002
{
1070
    40
1040
3.0
1070
   147
1040
2.0
1002
}
  0
MTEXT
  5
E1
100
AcDbEntity
  8
POPIS
100
AcDbMText
 10
661.730741
 20
-42.124031
 30
0.0
 40
40.0
 41
1.0
 71
     5
 72
     1
  1
TR 200/420
  7
STYLE1
  0
DIMENSION
  5
E4
100
AcDbEntity
  8
KOTY-UPLNE
100
AcDbDimension
  2
*D8
 10
582.855297
 20
-272.716842
 30
0.0
 11
572.855297
 21
-257.056842
 31
0.0
 12
-5443.32739
 22
-637.342654
 32
0.0
  3
UPLNE
100
AcDbAlignedDimension
 13
562.855297
 23
-349.884928
 33
0.0
 14
582.855297
 24
-349.884928
 34
0.0
100
AcDbRotatedDimension
1001
ACAD
1000
DSTYLE
1002
{
1070
    40
1040
3.0
1070
   147
1040
2.0
1002
}
  0
DIMENSION
  5
F3
100
AcDbEntity
  8
KOTY-UPLNE
100
AcDbDimension
  2
*D7
 10
473.355297
 20
-349.884928
 30
0.0
 11
439.330576
 21
-332.384928
 31
0.0
 12
-5443.32739
 22
-637.342654
 32
0.0
  1
67,5
  3
UPLNE
100
AcDbAlignedDimension
 13
405.305855
 23
-154.807976
 33
0.0
 14
473.355297
 24
-149.884928
 34
0.0
100
AcDbRotatedDimension
1001
ACAD
1000
DSTYLE
1002
{
1070
    40
1040
3.0
1070
   147
1040
2.0
1002
}
  0
DIMENSION
  5
100
100
AcDbEntity
  8
KOTY-UPLNE
100
AcDbDimension
  2
*D6
 10
405.305855
 20
-349.884928
 30
0.0
 11
362.855297
 21
-334.224928
 31
0.0
 12
-5443.32739
 22
-637.342654
 32
0.0
  1
86
  3
UPLNE
100
AcDbAlignedDimension
 13
320.404739
 23
-154.807976
 33
0.0
 14
405.305855
 24
-154.807976
 34
0.0
100
AcDbRotatedDimension
1001
ACAD
1000
DSTYLE
1002
{
1070
    40
1040
3.0
1070
   147
1040
2.0
1002
}
  0
DIMENSION
  5
10D
100
AcDbEntity
  8
KOTY-UPLNE
100
AcDbDimension
  2
*D5
 10
320.404739
 20
-349.884928
 30
0.0
 11
286.380018
 21
-332.384928
 31
0.0
 12
-5443.32739
 22
-637.342654
 32
0.0
  1
67,5
  3
UPLNE
100
AcDbAlignedDimension
 13
252.355297
 23
-149.884928
 33
0.0
 14
320.404739
 24
-154.807976
 34
0.0
100
AcDbRotatedDimension
1001
ACAD
1000
DSTYLE
1002
{
1070
    40
1040
3.0
1070
   147
1040
2.0
1002
}
  0
DIMENSION
  5
11A
100
AcDbEntity
  8
KOTY-UPLNE
100
AcDbDimension
  2
*D4
 10
612.355297
 20
-111.073246
 30
0.0
 11
572.855297
 21
-95.413246
 31
0.0
 12
-5443.32739
 22
-637.342654
 32
0.0
  3
UPLNE
100
AcDbAlignedDimension
 13
533.355297
 23
-349.884928
 33
0.0
 14
612.355297
 24
-349.884928
 34
0.0
100
AcDbRotatedDimension
1001
ACAD
1000
DSTYLE
1002
{
1070
    40
1040
3.0
1070
   147
1040
2.0
1002
}
  0
DIMENSION
  5
127
100
AcDbEntity
  8
KOTY-UPLNE
100
AcDbDimension
  2
*D3
 10
533.355297
 20
-111.073246
 30
0.0
 11
503.355297
 21
-95.413246
 31
0.0
 12
-5443.32739
 22
-637.342654
 32
0.0
  3
UPLNE
100
AcDbAlignedDimension
 13
473.355297
 23
-149.884928
 33
0.0
 14
533.355297
 24
-349.884928
 34
0.0
100
AcDbRotatedDimension
1001
ACAD
1000
DSTYLE
1002
{
1070
    40
1040
3.0
1070
   147
1040
2.0
1002
}
  0
DIMENSION
  5
134
100
AcDbEntity
  8
KOTY-UPLNE
100
AcDbDimension
  2
*D19
 10
522.270316
 20
-149.884928
 30
0.0
 11
506.520316
 21
-138.973296
 31
0.0
 12
-5443.32739
 22
-637.342654
 32
0.0
 70
   128
  3
UPLNE
100
AcDbAlignedDimension
 13
406.404739
 23
-154.807976
 33
0.0
 14
473.355297
 24
-149.884928
 34
0.0
 50
90.0
100
AcDbRotatedDimension
1001
ACAD
1000
DSTYLE
1002
{
1070
    40
1040
3.0
1070
   147
1040
2.0
1002
}
  0
DIMENSION
  5
144
100
AcDbEntity
  8
KOTY-UPLNE
100
AcDbDimension
  2
*D2
 10
473.355297
 20
-111.073246
 30
0.0
 11
362.855297
 21
-95.413246
 31
0.0
 12
-5443.32739
 22
-637.342654
 32
0.0
  3
UPLNE
100
AcDbAlignedDimension
 13
252.355297
 23
-149.884928
 33
0.0
 14
473.355297
 24
-149.884928
 34
0.0
100
AcDbRotatedDimension
1001
ACAD
1000
DSTYLE
1002
{
1070
    40
1040
3.0
1070
   147
1040
2.0
1002
}
  0
MTEXT
  5
151
100
AcDbEntity
  8
POZICE
100
AcDbMText
 10
570.458913
 20
-200.310915
 30
0.0
 40
41.73
 41
1.0
 71
     5
 72
     1
  1
A
  7
STYLE1
  0
MTEXT
  5
153
100
AcDbEntity
  8
POZICE
100
AcDbMText
 10
664.288655
 20
-383.053775
 30
0.0
 40
41.73
 41
1.0
 71
     5
 72
     1
  1
B
  7
STYLE1
  0
DIMENSION
  5
154
100
AcDbEntity
  8
KOTY-UPLNE
100
AcDbDimension
  2
*D22
 10
843.355297
 20
-192.66213
 30
0.0
 11
825.855297
 21
-177.00213
 31
0.0
 12
-5443.32739
 22
-637.342654
 32
0.0
  3
UPLNE
100
AcDbAlignedDimension
 13
808.355297
 23
-149.884928
 33
0.0
 14
843.355297
 24
-149.884928
 34
0.0
100
AcDbRotatedDimension
1001
ACAD
1000
DSTYLE
1002
{
1070
    40
1040
3.0
1070
   147
1040
2.0
1002
}
  0
DIMENSION
  5
163
100
AcDbEntity
  8
KOTY-UPLNE
100
AcDbDimension
  2
*D21
 10
757.355297
 20
-192.66213
 30
0.0
 11
739.855297
 21
-177.00213
 31
0.0
 12
-5443.32739
 22
-637.342654
 32
0.0
  3
UPLNE
100
AcDbAlignedDimension
 13
722.355297
 23
-149.884928
 33
0.0
 14
757.355297
 24
-149.884928
 34
0.0
100
AcDbRotatedDimension
1001
ACAD
1000
DSTYLE
1002
{
1070
    40
1040
3.0
1070
   147
1040
2.0
1002
}
  0
DIMENSION
  5
172
100
AcDbEntity
  8
KOTY-UPLNE
100
AcDbDimension
  2
*D24
 10
895.094808
 20
-117.401085
 30
0.0
 11
892.902811
 21
-117.906864
 31
0.0
 12
-5443.32739
 22
-637.342654
 32
0.0
 70
     1
  1
 
  3
UPLNE
100
AcDbAlignedDimension
 13
904.20265
 23
-176.884928
 33
0.0
 14
908.586645
 24
-175.87337
 34
0.0
1001
ACAD
1000
DSTYLE
1002
{
1070
    40
1040
3.0
1070
   147
1040
2.0
1002
}
  0
LINE
  5
180
100
AcDbEntity
  8
KOTY-UPLNE
  6
BYBLOCK
100
AcDbLine
 10
942.066855
 20
-320.973294
 30
0.0
 11
893.66929
 21
-111.223028
 31
0.0
  0
LINE
  5
181
100
AcDbEntity
  8
KOTY-UPLNE
  6
BYBLOCK
100
AcDbLine
 10
946.45085
 20
-319.961735
 30
0.0
 11
898.053284
 21
-110.21147
 31
0.0
  0
LINE
  5
182
100
AcDbEntity
  8
KOTY-UPLNE
  6
BYBLOCK
100
AcDbLine
 10
905.604807
 20
-182.961735
 30
0.0
 11
889.285295
 21
-112.234587
 31
0.0
  0
DIMENSION
  5
183
100
AcDbEntity
  8
KOTY-UPLNE
100
AcDbDimension
  2
*D20
 10
899.478803
 20
-116.389526
 30
0.0
 11
888.968259
 21
-100.854905
 31
0.0
 12
-5443.32739
 22
-637.342654
 32
0.0
 70
     1
  1
3x4,5
  3
UPLNE
100
AcDbAlignedDimension
 13
893.355297
 23
-149.884928
 33
0.0
 14
906.50728
 24
-146.850253
 34
0.0
1001
ACAD
1000
DSTYLE
1002
{
1070
    40
1040
3.0
1070
   147
1040
2.0
1002
}
  0
LINE
  5
192
100
AcDbEntity
  8
KOTY-UPLNE
  6
BYBLOCK
100
AcDbLine
 10
892.680803
 20
-146.961735
 30
0.0
 11
884.901301
 21
-113.246145
 31
0.0
  0
ENDSEC
  0
SECTION
  2
OBJECTS
  0
DICTIONARY
  5
1A
100
AcDbDictionary
  3
ACAD_GROUP
350
18
  3
ACAD_MLINESTYLE
350
19
  0
DICTIONARY
  5
18
102
{ACAD_REACTORS
330
1A
102
}
100
AcDbDictionary
  0
DICTIONARY
  5
19
102
{ACAD_REACTORS
330
1A
102
}
100
AcDbDictionary
  3
STANDARD
350
1C
  0
MLINESTYLE
  5
1C
102
{ACAD_REACTORS
330
19
102
}
100
AcDbMlineStyle
  2
STANDARD
 70
     0
  3

 62
   256
 51
90.0
 52
90.0
 71
     2
 49
0.5
 62
   256
  6
BYLAYER
 49
-0.5
 62
   256
  6
BYLAYER
  0
ENDSEC
  0
EOF
