  0
SECTION
  2
HEADER
  9
$ACADVER
  1
AC1014
  9
$ACADMAINTVER
 70
     0
  9
$DWGCODEPAGE
  3
ANSI_1250
  9
$INSBASE
 10
0.0
 20
0.0
 30
0.0
  9
$EXTMIN
 10
0.0
 20
-429.001233
 30
0.0
  9
$EXTMAX
 10
1349.672502
 20
0.0
 30
0.0
  9
$LIMMIN
 10
-1000.0
 20
-1000.0
  9
$LIMMAX
 10
1000.0
 20
1000.0
  9
$ORTHOMODE
 70
     0
  9
$REGENMODE
 70
     1
  9
$FILLMODE
 70
     1
  9
$QTEXTMODE
 70
     0
  9
$MIRRTEXT
 70
     0
  9
$DRAGMODE
 70
     2
  9
$LTSCALE
 40
3.0
  9
$OSMODE
 70
    32
  9
$ATTMODE
 70
     1
  9
$TEXTSIZE
 40
50.0
  9
$TRACEWID
 40
0.05
  9
$TEXTSTYLE
  7
STANDARD
  9
$CLAYER
  8
KOTY-UPLNE
  9
$CELTYPE
  6
BYLAYER
  9
$CECOLOR
 62
   256
  9
$CELTSCALE
 40
1.0
  9
$DELOBJ
 70
     1
  9
$DISPSILH
 70
     0
  9
$DIMSCALE
 40
3.0
  9
$DIMASZ
 40
5.0
  9
$DIMEXO
 40
1.0
  9
$DIMDLI
 40
0.0
  9
$DIMRND
 40
1.0
  9
$DIMDLE
 40
1.0
  9
$DIMEXE
 40
2.0
  9
$DIMTP
 40
0.0
  9
$DIMTM
 40
0.0
  9
$DIMTXT
 40
6.44
  9
$DIMCEN
 40
1.0
  9
$DIMTSZ
 40
0.0
  9
$DIMTOL
 70
     0
  9
$DIMLIM
 70
     0
  9
$DIMTIH
 70
     0
  9
$DIMTOH
 70
     0
  9
$DIMSE1
 70
     0
  9
$DIMSE2
 70
     0
  9
$DIMTAD
 70
     3
  9
$DIMZIN
 70
     0
  9
$DIMBLK
  1

  9
$DIMASO
 70
     1
  9
$DIMSHO
 70
     0
  9
$DIMPOST
  1

  9
$DIMAPOST
  1

  9
$DIMALT
 70
     0
  9
$DIMALTD
 70
     2
  9
$DIMALTF
 40
25.4
  9
$DIMLFAC
 40
1.0
  9
$DIMTOFL
 70
     1
  9
$DIMTVP
 40
0.0
  9
$DIMTIX
 70
     1
  9
$DIMSOXD
 70
     0
  9
$DIMSAH
 70
     0
  9
$DIMBLK1
  1

  9
$DIMBLK2
  1

  9
$DIMSTYLE
  2
UPLNE
  9
$DIMCLRD
 70
   256
  9
$DIMCLRE
 70
   256
  9
$DIMCLRT
 70
     5
  9
$DIMTFAC
 40
1.0
  9
$DIMGAP
 40
2.0
  9
$DIMJUST
 70
     0
  9
$DIMSD1
 70
     0
  9
$DIMSD2
 70
     0
  9
$DIMTOLJ
 70
     1
  9
$DIMTZIN
 70
     0
  9
$DIMALTZ
 70
     0
  9
$DIMALTTZ
 70
     0
  9
$DIMFIT
 70
     5
  9
$DIMUPT
 70
     0
  9
$DIMUNIT
 70
     2
  9
$DIMDEC
 70
     0
  9
$DIMTDEC
 70
     0
  9
$DIMALTU
 70
     2
  9
$DIMALTTD
 70
     2
  9
$DIMTXSTY
  7
STANDARD
  9
$DIMAUNIT
 70
     0
  9
$LUNITS
 70
     2
  9
$LUPREC
 70
     2
  9
$SKETCHINC
 40
0.1
  9
$FILLETRAD
 40
5.0
  9
$AUNITS
 70
     0
  9
$AUPREC
 70
     2
  9
$MENU
  1
acad
  9
$ELEVATION
 40
0.0
  9
$PELEVATION
 40
0.0
  9
$THICKNESS
 40
0.0
  9
$LIMCHECK
 70
     0
  9
$BLIPMODE
 70
     1
  9
$CHAMFERA
 40
0.0
  9
$CHAMFERB
 40
0.0
  9
$CHAMFERC
 40
0.0
  9
$CHAMFERD
 40
0.0
  9
$SKPOLY
 70
     0
  9
$TDCREATE
 40
2448722.252204629
  9
$TDUPDATE
 40
2452465.897073726
  9
$TDINDWG
 40
2.5464341435
  9
$TDUSRTIMER
 40
2.5464341435
  9
$USRTIMER
 70
     1
  9
$ANGBASE
 50
0.0
  9
$ANGDIR
 70
     0
  9
$PDMODE
 70
     0
  9
$PDSIZE
 40
0.0
  9
$PLINEWID
 40
0.0
  9
$COORDS
 70
     2
  9
$SPLFRAME
 70
     0
  9
$SPLINETYPE
 70
     6
  9
$SPLINESEGS
 70
     8
  9
$ATTDIA
 70
     0
  9
$ATTREQ
 70
     1
  9
$HANDLING
 70
     1
  9
$HANDSEED
  5
15E
  9
$SURFTAB1
 70
     6
  9
$SURFTAB2
 70
     6
  9
$SURFTYPE
 70
     6
  9
$SURFU
 70
     6
  9
$SURFV
 70
     6
  9
$UCSNAME
  2

  9
$UCSORG
 10
0.0
 20
0.0
 30
0.0
  9
$UCSXDIR
 10
1.0
 20
0.0
 30
0.0
  9
$UCSYDIR
 10
0.0
 20
1.0
 30
0.0
  9
$PUCSNAME
  2

  9
$PUCSORG
 10
0.0
 20
0.0
 30
0.0
  9
$PUCSXDIR
 10
1.0
 20
0.0
 30
0.0
  9
$PUCSYDIR
 10
0.0
 20
1.0
 30
0.0
  9
$USERI1
 70
     1
  9
$USERI2
 70
     0
  9
$USERI3
 70
     0
  9
$USERI4
 70
     0
  9
$USERI5
 70
     0
  9
$USERR1
 40
0.0
  9
$USERR2
 40
0.0
  9
$USERR3
 40
0.0
  9
$USERR4
 40
0.0
  9
$USERR5
 40
0.0
  9
$WORLDVIEW
 70
     1
  9
$SHADEDGE
 70
     3
  9
$SHADEDIF
 70
    70
  9
$TILEMODE
 70
     1
  9
$MAXACTVP
 70
    16
  9
$PINSBASE
 10
0.0
 20
0.0
 30
0.0
  9
$PLIMCHECK
 70
     0
  9
$PEXTMIN
 10
1.000000E+20
 20
1.000000E+20
 30
1.000000E+20
  9
$PEXTMAX
 10
-1.000000E+20
 20
-1.000000E+20
 30
-1.000000E+20
  9
$PLIMMIN
 10
0.0
 20
0.0
  9
$PLIMMAX
 10
12.0
 20
9.0
  9
$UNITMODE
 70
     0
  9
$VISRETAIN
 70
     0
  9
$PLINEGEN
 70
     0
  9
$PSLTSCALE
 70
     0
  9
$TREEDEPTH
 70
  3020
  9
$PICKSTYLE
 70
     0
  9
$CMLSTYLE
  2
STANDARD
  9
$CMLJUST
 70
     0
  9
$CMLSCALE
 40
1.0
  9
$PROXYGRAPHICS
 70
     1
  9
$MEASUREMENT
 70
     0
  0
ENDSEC
  0
SECTION
  2
CLASSES
  0
CLASS
  1
LWPOLYLINE
  2
AcDbPolyline
  3
"AutoCAD"
 90
        0
280
     0
281
     1
  0
CLASS
  1
DICTIONARYVAR
  2
AcDbDictionaryVar
  3
"AutoCAD"
 90
        0
280
     0
281
     0
  0
ENDSEC
  0
SECTION
  2
TABLES
  0
TABLE
  2
VPORT
  5
12
100
AcDbSymbolTable
 70
     2
  0
VPORT
  5
15D
100
AcDbSymbolTableRecord
100
AcDbViewportTableRecord
  2
*ACTIVE
 70
     0
 10
0.0
 20
0.0
 11
1.0
 21
1.0
 12
782.379563
 22
-196.841318
 13
0.0
 23
0.0
 14
1.0
 24
1.0
 15
600.0
 25
600.0
 16
0.0
 26
0.0
 36
1.0
 17
0.0
 27
0.0
 37
0.0
 40
727.929652
 41
2.224444
 42
50.0
 43
0.0
 44
0.0
 50
0.0
 51
0.0
 71
     0
 72
   100
 73
     1
 74
     0
 75
     0
 76
     0
 77
     0
 78
     0
  0
ENDTAB
  0
TABLE
  2
LTYPE
  5
D
100
AcDbSymbolTable
 70
     1
  0
LTYPE
  5
E
100
AcDbSymbolTableRecord
100
AcDbLinetypeTableRecord
  2
BYBLOCK
 70
     0
  3

 72
    65
 73
     0
 40
0.0
  0
LTYPE
  5
F
100
AcDbSymbolTableRecord
100
AcDbLinetypeTableRecord
  2
BYLAYER
 70
     0
  3

 72
    65
 73
     0
 40
0.0
  0
LTYPE
  5
5
100
AcDbSymbolTableRecord
100
AcDbLinetypeTableRecord
  2
CONTINUOUS
 70
     0
  3
Solid line
 72
    65
 73
     0
 40
0.0
  0
ENDTAB
  0
TABLE
  2
LAYER
  5
A
100
AcDbSymbolTable
 70
     7
  0
LAYER
  5
4
100
AcDbSymbolTableRecord
100
AcDbLayerTableRecord
  2
0
 70
     0
 62
     7
  6
CONTINUOUS
  0
LAYER
  5
1B
100
AcDbSymbolTableRecord
100
AcDbLayerTableRecord
  2
KOTY-UPLNE
 70
     0
 62
     7
  6
CONTINUOUS
  0
LAYER
  5
50
100
AcDbSymbolTableRecord
100
AcDbLayerTableRecord
  2
RAMEC
 70
     0
 62
     5
  6
CONTINUOUS
  0
LAYER
  5
4D
100
AcDbSymbolTableRecord
100
AcDbLayerTableRecord
  2
POZICE
 70
     0
 62
     1
  6
CONTINUOUS
  0
LAYER
  5
FB
100
AcDbSymbolTableRecord
100
AcDbLayerTableRecord
  2
POPIS
 70
     0
 62
     1
  6
CONTINUOUS
  0
LAYER
  5
27
100
AcDbSymbolTableRecord
100
AcDbLayerTableRecord
  2
DEFPOINTS
 70
     0
 62
     7
  6
CONTINUOUS
  0
LAYER
  5
4B
100
AcDbSymbolTableRecord
100
AcDbLayerTableRecord
  2
TRAPEZ-VELKY
 70
     0
 62
     7
  6
CONTINUOUS
  0
ENDTAB
  0
TABLE
  2
STYLE
  5
B
100
AcDbSymbolTable
 70
     2
  0
STYLE
  5
C
100
AcDbSymbolTableRecord
100
AcDbTextStyleTableRecord
  2
STANDARD
 70
     0
 40
0.0
 41
0.9
 50
0.0
 71
     0
 42
50.0
  3
simplex.shx
  4

  0
STYLE
  5
4E
100
AcDbSymbolTableRecord
100
AcDbTextStyleTableRecord
  2
STYLE1
 70
     0
 40
0.0
 41
0.9
 50
0.0
 71
     0
 42
50.0
  3
simplex.shx
  4

  0
ENDTAB
  0
TABLE
  2
VIEW
  5
10
100
AcDbSymbolTable
 70
     0
  0
ENDTAB
  0
TABLE
  2
UCS
  5
11
100
AcDbSymbolTable
 70
     0
  0
ENDTAB
  0
TABLE
  2
APPID
  5
14
100
AcDbSymbolTable
 70
     1
  0
APPID
  5
15
100
AcDbSymbolTableRecord
100
AcDbRegAppTableRecord
  2
ACAD
 70
     0
  0
ENDTAB
  0
TABLE
  2
DIMSTYLE
  5
16
100
AcDbSymbolTable
 70
     1
  0
DIMSTYLE
105
1D
102
{ACAD_REACTORS
330
11A
330
14A
330
13A
330
FD
330
12B
330
10D
330
70
330
3D
330
8B
330
7D
330
61
330
E8
330
D8
330
CB
330
BB
330
AB
330
9C
330
51
330
2E
330
1E
102
}
100
AcDbSymbolTableRecord
100
AcDbDimStyleTableRecord
  2
UPLNE
 70
     0
  3

  4

  5

  6

  7

 40
5.0
 41
5.0
 42
1.0
 43
0.0
 44
2.0
 45
1.0
 46
1.0
 47
0.0
 48
0.0
140
6.44
141
1.0
142
0.0
143
25.4
144
1.0
145
0.0
146
1.0
147
1.0
 71
     0
 72
     0
 73
     0
 74
     0
 75
     0
 76
     0
 77
     3
 78
     0
170
     0
171
     2
172
     1
173
     0
174
     1
175
     0
176
   256
177
   256
178
     5
270
     2
271
     0
272
     0
273
     2
274
     2
340
C
275
     0
280
     0
281
     0
282
     0
283
     1
284
     0
285
     0
286
     0
287
     5
288
     0
  0
ENDTAB
  0
TABLE
  2
BLOCK_RECORD
  5
1
100
AcDbSymbolTable
 70
    20
  0
BLOCK_RECORD
  5
2
100
AcDbSymbolTableRecord
100
AcDbBlockTableRecord
  2
*MODEL_SPACE
  0
BLOCK_RECORD
  5
7
100
AcDbSymbolTableRecord
100
AcDbBlockTableRecord
  2
*PAPER_SPACE
  0
BLOCK_RECORD
  5
11B
100
AcDbSymbolTableRecord
100
AcDbBlockTableRecord
  2
*D0
  0
BLOCK_RECORD
  5
14B
100
AcDbSymbolTableRecord
100
AcDbBlockTableRecord
  2
*D1
  0
BLOCK_RECORD
  5
FE
100
AcDbSymbolTableRecord
100
AcDbBlockTableRecord
  2
*D2
  0
BLOCK_RECORD
  5
13B
100
AcDbSymbolTableRecord
100
AcDbBlockTableRecord
  2
*D3
  0
BLOCK_RECORD
  5
12C
100
AcDbSymbolTableRecord
100
AcDbBlockTableRecord
  2
*D4
  0
BLOCK_RECORD
  5
10E
100
AcDbSymbolTableRecord
100
AcDbBlockTableRecord
  2
*D5
  0
BLOCK_RECORD
  5
71
100
AcDbSymbolTableRecord
100
AcDbBlockTableRecord
  2
*D6
  0
BLOCK_RECORD
  5
3E
100
AcDbSymbolTableRecord
100
AcDbBlockTableRecord
  2
*D7
  0
BLOCK_RECORD
  5
8C
100
AcDbSymbolTableRecord
100
AcDbBlockTableRecord
  2
*D8
  0
BLOCK_RECORD
  5
7E
100
AcDbSymbolTableRecord
100
AcDbBlockTableRecord
  2
*D9
  0
BLOCK_RECORD
  5
62
100
AcDbSymbolTableRecord
100
AcDbBlockTableRecord
  2
*D10
  0
BLOCK_RECORD
  5
E9
100
AcDbSymbolTableRecord
100
AcDbBlockTableRecord
  2
*D11
  0
BLOCK_RECORD
  5
D9
100
AcDbSymbolTableRecord
100
AcDbBlockTableRecord
  2
*D12
  0
BLOCK_RECORD
  5
CC
100
AcDbSymbolTableRecord
100
AcDbBlockTableRecord
  2
*D13
  0
BLOCK_RECORD
  5
BC
100
AcDbSymbolTableRecord
100
AcDbBlockTableRecord
  2
*D14
  0
BLOCK_RECORD
  5
AC
100
AcDbSymbolTableRecord
100
AcDbBlockTableRecord
  2
*D15
  0
BLOCK_RECORD
  5
9D
100
AcDbSymbolTableRecord
100
AcDbBlockTableRecord
  2
*D16
  0
BLOCK_RECORD
  5
52
100
AcDbSymbolTableRecord
100
AcDbBlockTableRecord
  2
*D17
  0
BLOCK_RECORD
  5
2F
100
AcDbSymbolTableRecord
100
AcDbBlockTableRecord
  2
*D18
  0
BLOCK_RECORD
  5
1F
100
AcDbSymbolTableRecord
100
AcDbBlockTableRecord
  2
*D19
  0
ENDTAB
  0
ENDSEC
  0
SECTION
  2
BLOCKS
  0
BLOCK
  5
3
100
AcDbEntity
  8
0
100
AcDbBlockBegin
  2
*MODEL_SPACE
 70
     0
 10
0.0
 20
0.0
 30
0.0
  3
*MODEL_SPACE
  1

  0
ENDBLK
  5
6
100
AcDbEntity
  8
0
100
AcDbBlockEnd
  0
BLOCK
  5
8
100
AcDbEntity
 67
     1
  8
0
100
AcDbBlockBegin
  2
*PAPER_SPACE
 70
     0
 10
0.0
 20
0.0
 30
0.0
  3
*PAPER_SPACE
  1

  0
ENDBLK
  5
9
100
AcDbEntity
 67
     1
  8
0
100
AcDbBlockEnd
  0
BLOCK
  5
128
100
AcDbEntity
  8
0
100
AcDbBlockBegin
  2
*D0
 70
     1
 10
0.0
 20
0.0
 30
0.0
  3
*D0
  1

  0
LINE
  5
11C
100
AcDbEntity
  8
0
  6
BYBLOCK
100
AcDbLine
 10
5038.682687
 20
1088.357726
 30
0.0
 11
5154.490182
 21
1088.357726
 31
0.0
  0
LINE
  5
11D
100
AcDbEntity
  8
0
  6
BYBLOCK
100
AcDbLine
 10
5044.072774
 20
1068.357726
 30
0.0
 11
5154.490182
 21
1068.357726
 31
0.0
  0
LINE
  5
11E
100
AcDbEntity
  8
0
  6
BYBLOCK
100
AcDbLine
 10
5148.490182
 20
1103.357726
 30
0.0
 11
5148.490182
 21
1118.357726
 31
0.0
  0
LINE
  5
11F
100
AcDbEntity
  8
0
  6
BYBLOCK
100
AcDbLine
 10
5148.490182
 20
1053.357726
 30
0.0
 11
5148.490182
 21
1038.357726
 31
0.0
  0
MTEXT
  5
120
100
AcDbEntity
  8
0
  6
BYBLOCK
 62
     5
100
AcDbMText
 10
5132.740182
 20
1112.277139
 30
0.0
 40
19.32
 41
0.0
 71
     5
 72
     1
  1
\A1;20
 11
0.0
 21
1.0
 31
0.0
  0
LINE
  5
121
100
AcDbEntity
  8
0
  6
BYBLOCK
100
AcDbLine
 10
5148.490182
 20
1088.357726
 30
0.0
 11
5148.490182
 21
1068.357726
 31
0.0
  0
LINE
  5
122
100
AcDbEntity
  8
0
  6
BYBLOCK
100
AcDbLine
 10
5148.490182
 20
1088.357726
 30
0.0
 11
5148.490182
 21
1068.357726
 31
0.0
  0
SOLID
  5
123
100
AcDbEntity
  8
0
  6
BYBLOCK
100
AcDbTrace
 10
5145.990182
 20
1103.357726
 30
0.0
 11
5150.990182
 21
1103.357726
 31
0.0
 12
5148.490182
 22
1088.357726
 32
0.0
 13
5148.490182
 23
1088.357726
 33
0.0
  0
SOLID
  5
124
100
AcDbEntity
  8
0
  6
BYBLOCK
100
AcDbTrace
 10
5145.990182
 20
1053.357726
 30
0.0
 11
5150.990182
 21
1053.357726
 31
0.0
 12
5148.490182
 22
1068.357726
 32
0.0
 13
5148.490182
 23
1068.357726
 33
0.0
  0
POINT
  5
125
100
AcDbEntity
  8
DEFPOINTS
  6
BYBLOCK
 62
     0
100
AcDbPoint
 10
5035.682687
 20
1088.357726
 30
0.0
  0
POINT
  5
126
100
AcDbEntity
  8
DEFPOINTS
  6
BYBLOCK
 62
     0
100
AcDbPoint
 10
5041.072774
 20
1068.357726
 30
0.0
  0
POINT
  5
127
100
AcDbEntity
  8
DEFPOINTS
  6
BYBLOCK
 62
     0
100
AcDbPoint
 10
5148.490182
 20
1068.357726
 30
0.0
  0
ENDBLK
  5
129
100
AcDbEntity
  8
0
100
AcDbBlockEnd
  0
BLOCK
  5
158
100
AcDbEntity
  8
0
100
AcDbBlockBegin
  2
*D1
 70
     1
 10
0.0
 20
0.0
 30
0.0
  3
*D1
  1

  0
LINE
  5
14C
100
AcDbEntity
  8
0
  6
BYBLOCK
100
AcDbLine
 10
5044.072774
 20
1068.357726
 30
0.0
 11
5154.490182
 21
1068.357726
 31
0.0
  0
LINE
  5
14D
100
AcDbEntity
  8
0
  6
BYBLOCK
100
AcDbLine
 10
5053.023096
 20
1054.357726
 30
0.0
 11
5154.490182
 21
1054.357726
 31
0.0
  0
LINE
  5
14E
100
AcDbEntity
  8
0
  6
BYBLOCK
100
AcDbLine
 10
5148.490182
 20
1083.357726
 30
0.0
 11
5148.490182
 21
1098.357726
 31
0.0
  0
LINE
  5
14F
100
AcDbEntity
  8
0
  6
BYBLOCK
100
AcDbLine
 10
5148.490182
 20
1039.357726
 30
0.0
 11
5148.490182
 21
1024.357726
 31
0.0
  0
MTEXT
  5
150
100
AcDbEntity
  8
0
  6
BYBLOCK
 62
     5
100
AcDbMText
 10
5169.866332
 20
1069.525809
 30
0.0
 40
19.32
 41
0.0
 71
     5
 72
     1
  1
\A1;14
 11
0.0
 21
1.0
 31
0.0
  0
LINE
  5
151
100
AcDbEntity
  8
0
  6
BYBLOCK
100
AcDbLine
 10
5148.490182
 20
1068.357726
 30
0.0
 11
5148.490182
 21
1054.357726
 31
0.0
  0
LINE
  5
152
100
AcDbEntity
  8
0
  6
BYBLOCK
100
AcDbLine
 10
5148.490182
 20
1068.357726
 30
0.0
 11
5148.490182
 21
1054.357726
 31
0.0
  0
SOLID
  5
153
100
AcDbEntity
  8
0
  6
BYBLOCK
100
AcDbTrace
 10
5145.990182
 20
1083.357726
 30
0.0
 11
5150.990182
 21
1083.357726
 31
0.0
 12
5148.490182
 22
1068.357726
 32
0.0
 13
5148.490182
 23
1068.357726
 33
0.0
  0
SOLID
  5
154
100
AcDbEntity
  8
0
  6
BYBLOCK
100
AcDbTrace
 10
5145.990182
 20
1039.357726
 30
0.0
 11
5150.990182
 21
1039.357726
 31
0.0
 12
5148.490182
 22
1054.357726
 32
0.0
 13
5148.490182
 23
1054.357726
 33
0.0
  0
POINT
  5
155
100
AcDbEntity
  8
DEFPOINTS
  6
BYBLOCK
 62
     0
100
AcDbPoint
 10
5041.072774
 20
1068.357726
 30
0.0
  0
POINT
  5
156
100
AcDbEntity
  8
DEFPOINTS
  6
BYBLOCK
 62
     0
100
AcDbPoint
 10
5050.023096
 20
1054.357726
 30
0.0
  0
POINT
  5
157
100
AcDbEntity
  8
DEFPOINTS
  6
BYBLOCK
 62
     0
100
AcDbPoint
 10
5148.490182
 20
1054.357726
 30
0.0
  0
ENDBLK
  5
159
100
AcDbEntity
  8
0
100
AcDbBlockEnd
  0
BLOCK
  5
10B
100
AcDbEntity
  8
0
100
AcDbBlockBegin
  2
*D2
 70
     1
 10
0.0
 20
0.0
 30
0.0
  3
*D2
  1

  0
LINE
  5
FF
100
AcDbEntity
  8
0
  6
BYBLOCK
100
AcDbLine
 10
5117.682687
 20
978.357726
 30
0.0
 11
5154.490182
 21
978.357726
 31
0.0
  0
LINE
  5
100
100
AcDbEntity
  8
0
  6
BYBLOCK
100
AcDbLine
 10
5073.2926
 20
998.357726
 30
0.0
 11
5154.490182
 21
998.357726
 31
0.0
  0
LINE
  5
101
100
AcDbEntity
  8
0
  6
BYBLOCK
100
AcDbLine
 10
5148.490182
 20
963.357726
 30
0.0
 11
5148.490182
 21
948.357726
 31
0.0
  0
LINE
  5
102
100
AcDbEntity
  8
0
  6
BYBLOCK
100
AcDbLine
 10
5148.490182
 20
1013.357726
 30
0.0
 11
5148.490182
 21
1028.357726
 31
0.0
  0
MTEXT
  5
103
100
AcDbEntity
  8
0
  6
BYBLOCK
 62
     5
100
AcDbMText
 10
5132.740182
 20
944.989361
 30
0.0
 40
19.32
 41
0.0
 71
     5
 72
     1
  1
\A1;20
 11
0.0
 21
1.0
 31
0.0
  0
LINE
  5
104
100
AcDbEntity
  8
0
  6
BYBLOCK
100
AcDbLine
 10
5148.490182
 20
978.357726
 30
0.0
 11
5148.490182
 21
998.357726
 31
0.0
  0
LINE
  5
105
100
AcDbEntity
  8
0
  6
BYBLOCK
100
AcDbLine
 10
5148.490182
 20
978.357726
 30
0.0
 11
5148.490182
 21
998.357726
 31
0.0
  0
SOLID
  5
106
100
AcDbEntity
  8
0
  6
BYBLOCK
100
AcDbTrace
 10
5145.990182
 20
963.357726
 30
0.0
 11
5150.990182
 21
963.357726
 31
0.0
 12
5148.490182
 22
978.357726
 32
0.0
 13
5148.490182
 23
978.357726
 33
0.0
  0
SOLID
  5
107
100
AcDbEntity
  8
0
  6
BYBLOCK
100
AcDbTrace
 10
5145.990182
 20
1013.357726
 30
0.0
 11
5150.990182
 21
1013.357726
 31
0.0
 12
5148.490182
 22
998.357726
 32
0.0
 13
5148.490182
 23
998.357726
 33
0.0
  0
POINT
  5
108
100
AcDbEntity
  8
DEFPOINTS
  6
BYBLOCK
 62
     0
100
AcDbPoint
 10
5114.682687
 20
978.357726
 30
0.0
  0
POINT
  5
109
100
AcDbEntity
  8
DEFPOINTS
  6
BYBLOCK
 62
     0
100
AcDbPoint
 10
5070.2926
 20
998.357726
 30
0.0
  0
POINT
  5
10A
100
AcDbEntity
  8
DEFPOINTS
  6
BYBLOCK
 62
     0
100
AcDbPoint
 10
5148.490182
 20
998.357726
 30
0.0
  0
ENDBLK
  5
10C
100
AcDbEntity
  8
0
100
AcDbBlockEnd
  0
BLOCK
  5
148
100
AcDbEntity
  8
0
100
AcDbBlockBegin
  2
*D3
 70
     1
 10
0.0
 20
0.0
 30
0.0
  3
*D3
  1

  0
LINE
  5
13C
100
AcDbEntity
  8
0
  6
BYBLOCK
100
AcDbLine
 10
5073.2926
 20
998.357726
 30
0.0
 11
5154.490182
 21
998.357726
 31
0.0
  0
LINE
  5
13D
100
AcDbEntity
  8
0
  6
BYBLOCK
100
AcDbLine
 10
5064.342279
 20
1012.357726
 30
0.0
 11
5154.490182
 21
1012.357726
 31
0.0
  0
LINE
  5
13E
100
AcDbEntity
  8
0
  6
BYBLOCK
100
AcDbLine
 10
5148.490182
 20
983.357726
 30
0.0
 11
5148.490182
 21
968.357726
 31
0.0
  0
LINE
  5
13F
100
AcDbEntity
  8
0
  6
BYBLOCK
100
AcDbLine
 10
5148.490182
 20
1027.357726
 30
0.0
 11
5148.490182
 21
1042.357726
 31
0.0
  0
MTEXT
  5
140
100
AcDbEntity
  8
0
  6
BYBLOCK
 62
     5
100
AcDbMText
 10
5169.866332
 20
998.893193
 30
0.0
 40
19.32
 41
0.0
 71
     5
 72
     1
  1
\A1;14
 11
0.0
 21
1.0
 31
0.0
  0
LINE
  5
141
100
AcDbEntity
  8
0
  6
BYBLOCK
100
AcDbLine
 10
5148.490182
 20
998.357726
 30
0.0
 11
5148.490182
 21
1012.357726
 31
0.0
  0
LINE
  5
142
100
AcDbEntity
  8
0
  6
BYBLOCK
100
AcDbLine
 10
5148.490182
 20
998.357726
 30
0.0
 11
5148.490182
 21
1012.357726
 31
0.0
  0
SOLID
  5
143
100
AcDbEntity
  8
0
  6
BYBLOCK
100
AcDbTrace
 10
5145.990182
 20
983.357726
 30
0.0
 11
5150.990182
 21
983.357726
 31
0.0
 12
5148.490182
 22
998.357726
 32
0.0
 13
5148.490182
 23
998.357726
 33
0.0
  0
SOLID
  5
144
100
AcDbEntity
  8
0
  6
BYBLOCK
100
AcDbTrace
 10
5145.990182
 20
1027.357726
 30
0.0
 11
5150.990182
 21
1027.357726
 31
0.0
 12
5148.490182
 22
1012.357726
 32
0.0
 13
5148.490182
 23
1012.357726
 33
0.0
  0
POINT
  5
145
100
AcDbEntity
  8
DEFPOINTS
  6
BYBLOCK
 62
     0
100
AcDbPoint
 10
5070.2926
 20
998.357726
 30
0.0
  0
POINT
  5
146
100
AcDbEntity
  8
DEFPOINTS
  6
BYBLOCK
 62
     0
100
AcDbPoint
 10
5061.342279
 20
1012.357726
 30
0.0
  0
POINT
  5
147
100
AcDbEntity
  8
DEFPOINTS
  6
BYBLOCK
 62
     0
100
AcDbPoint
 10
5148.490182
 20
1012.357726
 30
0.0
  0
ENDBLK
  5
149
100
AcDbEntity
  8
0
100
AcDbBlockEnd
  0
BLOCK
  5
138
100
AcDbEntity
  8
0
100
AcDbBlockBegin
  2
*D4
 70
     1
 10
0.0
 20
0.0
 30
0.0
  3
*D4
  1

  0
LINE
  5
12D
100
AcDbEntity
  8
0
  6
BYBLOCK
100
AcDbLine
 10
5053.023096
 20
1054.357726
 30
0.0
 11
5154.490182
 21
1054.357726
 31
0.0
  0
LINE
  5
12E
100
AcDbEntity
  8
0
  6
BYBLOCK
100
AcDbLine
 10
5064.342279
 20
1012.357726
 30
0.0
 11
5154.490182
 21
1012.357726
 31
0.0
  0
LINE
  5
12F
100
AcDbEntity
  8
0
  6
BYBLOCK
100
AcDbLine
 10
5148.490182
 20
1069.357726
 30
0.0
 11
5148.490182
 21
1084.357726
 31
0.0
  0
LINE
  5
130
100
AcDbEntity
  8
0
  6
BYBLOCK
100
AcDbLine
 10
5148.490182
 20
997.357726
 30
0.0
 11
5148.490182
 21
982.357726
 31
0.0
  0
LINE
  5
131
100
AcDbEntity
  8
0
  6
BYBLOCK
100
AcDbLine
 10
5148.490182
 20
1054.357726
 30
0.0
 11
5148.490182
 21
1012.357726
 31
0.0
  0
SOLID
  5
132
100
AcDbEntity
  8
0
  6
BYBLOCK
100
AcDbTrace
 10
5145.990182
 20
1069.357726
 30
0.0
 11
5150.990182
 21
1069.357726
 31
0.0
 12
5148.490182
 22
1054.357726
 32
0.0
 13
5148.490182
 23
1054.357726
 33
0.0
  0
SOLID
  5
133
100
AcDbEntity
  8
0
  6
BYBLOCK
100
AcDbTrace
 10
5145.990182
 20
997.357726
 30
0.0
 11
5150.990182
 21
997.357726
 31
0.0
 12
5148.490182
 22
1012.357726
 32
0.0
 13
5148.490182
 23
1012.357726
 33
0.0
  0
MTEXT
  5
134
100
AcDbEntity
  8
0
  6
BYBLOCK
 62
     5
100
AcDbMText
 10
5132.830182
 20
1033.357726
 30
0.0
 40
19.32
 41
0.0
 71
     5
 72
     1
  1
\A1;42
 11
0.0
 21
1.0
 31
0.0
  0
POINT
  5
135
100
AcDbEntity
  8
DEFPOINTS
  6
BYBLOCK
 62
     0
100
AcDbPoint
 10
5050.023096
 20
1054.357726
 30
0.0
  0
POINT
  5
136
100
AcDbEntity
  8
DEFPOINTS
  6
BYBLOCK
 62
     0
100
AcDbPoint
 10
5061.342279
 20
1012.357726
 30
0.0
  0
POINT
  5
137
100
AcDbEntity
  8
DEFPOINTS
  6
BYBLOCK
 62
     0
100
AcDbPoint
 10
5148.490182
 20
1012.357726
 30
0.0
  0
ENDBLK
  5
139
100
AcDbEntity
  8
0
100
AcDbBlockEnd
  0
BLOCK
  5
118
100
AcDbEntity
  8
0
100
AcDbBlockBegin
  2
*D5
 70
     1
 10
0.0
 20
0.0
 30
0.0
  3
*D5
  1

  0
LINE
  5
10F
100
AcDbEntity
  8
0
  6
BYBLOCK
100
AcDbLine
 10
5038.682687
 20
1088.357726
 30
0.0
 11
5223.575292
 21
1088.357726
 31
0.0
  0
LINE
  5
110
100
AcDbEntity
  8
0
  6
BYBLOCK
100
AcDbLine
 10
5117.682687
 20
978.357726
 30
0.0
 11
5223.575292
 21
978.357726
 31
0.0
  0
LINE
  5
111
100
AcDbEntity
  8
0
  6
BYBLOCK
100
AcDbLine
 10
5217.575292
 20
1073.357726
 30
0.0
 11
5217.575292
 21
993.357726
 31
0.0
  0
SOLID
  5
112
100
AcDbEntity
  8
0
  6
BYBLOCK
100
AcDbTrace
 10
5215.075292
 20
1073.357726
 30
0.0
 11
5220.075292
 21
1073.357726
 31
0.0
 12
5217.575292
 22
1088.357726
 32
0.0
 13
5217.575292
 23
1088.357726
 33
0.0
  0
SOLID
  5
113
100
AcDbEntity
  8
0
  6
BYBLOCK
100
AcDbTrace
 10
5215.075292
 20
993.357726
 30
0.0
 11
5220.075292
 21
993.357726
 31
0.0
 12
5217.575292
 22
978.357726
 32
0.0
 13
5217.575292
 23
978.357726
 33
0.0
  0
MTEXT
  5
114
100
AcDbEntity
  8
0
  6
BYBLOCK
 62
     5
100
AcDbMText
 10
5201.915292
 20
1033.357726
 30
0.0
 40
19.32
 41
0.0
 71
     5
 72
     1
  1
\A1;110
 11
0.0
 21
1.0
 31
0.0
  0
POINT
  5
115
100
AcDbEntity
  8
DEFPOINTS
  6
BYBLOCK
 62
     0
100
AcDbPoint
 10
5035.682687
 20
1088.357726
 30
0.0
  0
POINT
  5
116
100
AcDbEntity
  8
DEFPOINTS
  6
BYBLOCK
 62
     0
100
AcDbPoint
 10
5114.682687
 20
978.357726
 30
0.0
  0
POINT
  5
117
100
AcDbEntity
  8
DEFPOINTS
  6
BYBLOCK
 62
     0
100
AcDbPoint
 10
5217.575292
 20
978.357726
 30
0.0
  0
ENDBLK
  5
119
100
AcDbEntity
  8
0
100
AcDbBlockEnd
  0
BLOCK
  5
7B
100
AcDbEntity
  8
0
100
AcDbBlockBegin
  2
*D6
 70
     1
 10
0.0
 20
0.0
 30
0.0
  3
*D6
  1

  0
LINE
  5
72
100
AcDbEntity
  8
0
  6
BYBLOCK
100
AcDbLine
 10
4096.182687
 20
975.357726
 30
0.0
 11
4096.182687
 21
912.357726
 31
0.0
  0
LINE
  5
73
100
AcDbEntity
  8
0
  6
BYBLOCK
100
AcDbLine
 10
4429.182687
 20
975.357726
 30
0.0
 11
4429.182687
 21
912.357726
 31
0.0
  0
LINE
  5
74
100
AcDbEntity
  8
0
  6
BYBLOCK
100
AcDbLine
 10
4111.182687
 20
918.357726
 30
0.0
 11
4414.182687
 21
918.357726
 31
0.0
  0
SOLID
  5
75
100
AcDbEntity
  8
0
  6
BYBLOCK
100
AcDbTrace
 10
4111.182687
 20
920.857726
 30
0.0
 11
4111.182687
 21
915.857726
 31
0.0
 12
4096.182687
 22
918.357726
 32
0.0
 13
4096.182687
 23
918.357726
 33
0.0
  0
SOLID
  5
76
100
AcDbEntity
  8
0
  6
BYBLOCK
100
AcDbTrace
 10
4414.182687
 20
920.857726
 30
0.0
 11
4414.182687
 21
915.857726
 31
0.0
 12
4429.182687
 22
918.357726
 32
0.0
 13
4429.182687
 23
918.357726
 33
0.0
  0
MTEXT
  5
77
100
AcDbEntity
  8
0
  6
BYBLOCK
 62
     5
100
AcDbMText
 10
4262.682687
 20
935.857726
 30
0.0
 40
19.32
 41
0.0
 71
     5
 72
     1
  1
\A1;333,3
  0
POINT
  5
78
100
AcDbEntity
  8
DEFPOINTS
  6
BYBLOCK
 62
     0
100
AcDbPoint
 10
4096.182687
 20
978.357726
 30
0.0
  0
POINT
  5
79
100
AcDbEntity
  8
DEFPOINTS
  6
BYBLOCK
 62
     0
100
AcDbPoint
 10
4429.182687
 20
978.357726
 30
0.0
  0
POINT
  5
7A
100
AcDbEntity
  8
DEFPOINTS
  6
BYBLOCK
 62
     0
100
AcDbPoint
 10
4429.182687
 20
918.357726
 30
0.0
  0
ENDBLK
  5
7C
100
AcDbEntity
  8
0
100
AcDbBlockEnd
  0
BLOCK
  5
48
100
AcDbEntity
  8
0
100
AcDbBlockBegin
  2
*D7
 70
     1
 10
0.0
 20
0.0
 30
0.0
  3
*D7
  1

  0
LINE
  5
3F
100
AcDbEntity
  8
0
  6
BYBLOCK
100
AcDbLine
 10
5096.182687
 20
970.357726
 30
0.0
 11
5096.182687
 21
852.357726
 31
0.0
  0
LINE
  5
40
100
AcDbEntity
  8
0
  6
BYBLOCK
100
AcDbLine
 10
4096.182687
 20
975.357726
 30
0.0
 11
4096.182687
 21
852.357726
 31
0.0
  0
LINE
  5
41
100
AcDbEntity
  8
0
  6
BYBLOCK
100
AcDbLine
 10
5081.182687
 20
858.357726
 30
0.0
 11
4111.182687
 21
858.357726
 31
0.0
  0
SOLID
  5
42
100
AcDbEntity
  8
0
  6
BYBLOCK
100
AcDbTrace
 10
5081.182687
 20
860.857726
 30
0.0
 11
5081.182687
 21
855.857726
 31
0.0
 12
5096.182687
 22
858.357726
 32
0.0
 13
5096.182687
 23
858.357726
 33
0.0
  0
SOLID
  5
43
100
AcDbEntity
  8
0
  6
BYBLOCK
100
AcDbTrace
 10
4111.182687
 20
860.857726
 30
0.0
 11
4111.182687
 21
855.857726
 31
0.0
 12
4096.182687
 22
858.357726
 32
0.0
 13
4096.182687
 23
858.357726
 33
0.0
  0
MTEXT
  5
44
100
AcDbEntity
  8
0
  6
BYBLOCK
 62
     5
100
AcDbMText
 10
4596.182687
 20
874.017726
 30
0.0
 40
19.32
 41
0.0
 71
     5
 72
     1
  1
\A1;1000
  0
POINT
  5
45
100
AcDbEntity
  8
DEFPOINTS
  6
BYBLOCK
 62
     0
100
AcDbPoint
 10
5096.182687
 20
973.357726
 30
0.0
  0
POINT
  5
46
100
AcDbEntity
  8
DEFPOINTS
  6
BYBLOCK
 62
     0
100
AcDbPoint
 10
4096.182687
 20
978.357726
 30
0.0
  0
POINT
  5
47
100
AcDbEntity
  8
DEFPOINTS
  6
BYBLOCK
 62
     0
100
AcDbPoint
 10
4096.182687
 20
858.357726
 30
0.0
  0
ENDBLK
  5
49
100
AcDbEntity
  8
0
100
AcDbBlockEnd
  0
BLOCK
  5
98
100
AcDbEntity
  8
0
100
AcDbBlockBegin
  2
*D8
 70
     1
 10
0.0
 20
0.0
 30
0.0
  3
*D8
  1

  0
LINE
  5
8D
100
AcDbEntity
  8
0
  6
BYBLOCK
100
AcDbLine
 10
4115.682687
 20
981.357726
 30
0.0
 11
4115.682687
 21
1142.268176
 31
0.0
  0
LINE
  5
8E
100
AcDbEntity
  8
0
  6
BYBLOCK
100
AcDbLine
 10
4155.682687
 20
1091.357726
 30
0.0
 11
4155.682687
 21
1142.268176
 31
0.0
  0
LINE
  5
8F
100
AcDbEntity
  8
0
  6
BYBLOCK
100
AcDbLine
 10
4100.682687
 20
1136.268176
 30
0.0
 11
4085.682687
 21
1136.268176
 31
0.0
  0
LINE
  5
90
100
AcDbEntity
  8
0
  6
BYBLOCK
100
AcDbLine
 10
4170.682687
 20
1136.268176
 30
0.0
 11
4185.682687
 21
1136.268176
 31
0.0
  0
LINE
  5
91
100
AcDbEntity
  8
0
  6
BYBLOCK
100
AcDbLine
 10
4115.682687
 20
1136.268176
 30
0.0
 11
4155.682687
 21
1136.268176
 31
0.0
  0
SOLID
  5
92
100
AcDbEntity
  8
0
  6
BYBLOCK
100
AcDbTrace
 10
4100.682687
 20
1138.768176
 30
0.0
 11
4100.682687
 21
1133.768176
 31
0.0
 12
4115.682687
 22
1136.268176
 32
0.0
 13
4115.682687
 23
1136.268176
 33
0.0
  0
SOLID
  5
93
100
AcDbEntity
  8
0
  6
BYBLOCK
100
AcDbTrace
 10
4170.682687
 20
1138.768176
 30
0.0
 11
4170.682687
 21
1133.768176
 31
0.0
 12
4155.682687
 22
1136.268176
 32
0.0
 13
4155.682687
 23
1136.268176
 33
0.0
  0
MTEXT
  5
94
100
AcDbEntity
  8
0
  6
BYBLOCK
 62
     5
100
AcDbMText
 10
4135.682687
 20
1151.928176
 30
0.0
 40
19.32
 41
0.0
 71
     5
 72
     1
  1
\A1;40
  0
POINT
  5
95
100
AcDbEntity
  8
DEFPOINTS
  6
BYBLOCK
 62
     0
100
AcDbPoint
 10
4115.682687
 20
978.357726
 30
0.0
  0
POINT
  5
96
100
AcDbEntity
  8
DEFPOINTS
  6
BYBLOCK
 62
     0
100
AcDbPoint
 10
4155.682687
 20
1088.357726
 30
0.0
  0
POINT
  5
97
100
AcDbEntity
  8
DEFPOINTS
  6
BYBLOCK
 62
     0
100
AcDbPoint
 10
4155.682687
 20
1136.268176
 30
0.0
  0
ENDBLK
  5
99
100
AcDbEntity
  8
0
100
AcDbBlockEnd
  0
BLOCK
  5
88
100
AcDbEntity
  8
0
100
AcDbBlockBegin
  2
*D9
 70
     1
 10
0.0
 20
0.0
 30
0.0
  3
*D9
  1

  0
LINE
  5
7F
100
AcDbEntity
  8
0
  6
BYBLOCK
100
AcDbLine
 10
4155.682687
 20
1091.357726
 30
0.0
 11
4155.682687
 21
1142.268176
 31
0.0
  0
LINE
  5
80
100
AcDbEntity
  8
0
  6
BYBLOCK
100
AcDbLine
 10
4369.682687
 20
1091.357726
 30
0.0
 11
4369.682687
 21
1142.268176
 31
0.0
  0
LINE
  5
81
100
AcDbEntity
  8
0
  6
BYBLOCK
100
AcDbLine
 10
4170.682687
 20
1136.268176
 30
0.0
 11
4354.682687
 21
1136.268176
 31
0.0
  0
SOLID
  5
82
100
AcDbEntity
  8
0
  6
BYBLOCK
100
AcDbTrace
 10
4170.682687
 20
1138.768176
 30
0.0
 11
4170.682687
 21
1133.768176
 31
0.0
 12
4155.682687
 22
1136.268176
 32
0.0
 13
4155.682687
 23
1136.268176
 33
0.0
  0
SOLID
  5
83
100
AcDbEntity
  8
0
  6
BYBLOCK
100
AcDbTrace
 10
4354.682687
 20
1138.768176
 30
0.0
 11
4354.682687
 21
1133.768176
 31
0.0
 12
4369.682687
 22
1136.268176
 32
0.0
 13
4369.682687
 23
1136.268176
 33
0.0
  0
MTEXT
  5
84
100
AcDbEntity
  8
0
  6
BYBLOCK
 62
     5
100
AcDbMText
 10
4262.682687
 20
1151.928176
 30
0.0
 40
19.32
 41
0.0
 71
     5
 72
     1
  1
\A1;214
  0
POINT
  5
85
100
AcDbEntity
  8
DEFPOINTS
  6
BYBLOCK
 62
     0
100
AcDbPoint
 10
4155.682687
 20
1088.357726
 30
0.0
  0
POINT
  5
86
100
AcDbEntity
  8
DEFPOINTS
  6
BYBLOCK
 62
     0
100
AcDbPoint
 10
4369.682687
 20
1088.357726
 30
0.0
  0
POINT
  5
87
100
AcDbEntity
  8
DEFPOINTS
  6
BYBLOCK
 62
     0
100
AcDbPoint
 10
4369.682687
 20
1136.268176
 30
0.0
  0
ENDBLK
  5
89
100
AcDbEntity
  8
0
100
AcDbBlockEnd
  0
BLOCK
  5
6E
100
AcDbEntity
  8
0
100
AcDbBlockBegin
  2
*D10
 70
     1
 10
0.0
 20
0.0
 30
0.0
  3
*D10
  1

  0
LINE
  5
63
100
AcDbEntity
  8
0
  6
BYBLOCK
100
AcDbLine
 10
4369.682687
 20
1091.357726
 30
0.0
 11
4369.682687
 21
1142.268176
 31
0.0
  0
LINE
  5
64
100
AcDbEntity
  8
0
  6
BYBLOCK
100
AcDbLine
 10
4409.682687
 20
981.357726
 30
0.0
 11
4409.682687
 21
1142.268176
 31
0.0
  0
LINE
  5
65
100
AcDbEntity
  8
0
  6
BYBLOCK
100
AcDbLine
 10
4354.682687
 20
1136.268176
 30
0.0
 11
4339.682687
 21
1136.268176
 31
0.0
  0
LINE
  5
66
100
AcDbEntity
  8
0
  6
BYBLOCK
100
AcDbLine
 10
4424.682687
 20
1136.268176
 30
0.0
 11
4439.682687
 21
1136.268176
 31
0.0
  0
LINE
  5
67
100
AcDbEntity
  8
0
  6
BYBLOCK
100
AcDbLine
 10
4369.682687
 20
1136.268176
 30
0.0
 11
4409.682687
 21
1136.268176
 31
0.0
  0
SOLID
  5
68
100
AcDbEntity
  8
0
  6
BYBLOCK
100
AcDbTrace
 10
4354.682687
 20
1138.768176
 30
0.0
 11
4354.682687
 21
1133.768176
 31
0.0
 12
4369.682687
 22
1136.268176
 32
0.0
 13
4369.682687
 23
1136.268176
 33
0.0
  0
SOLID
  5
69
100
AcDbEntity
  8
0
  6
BYBLOCK
100
AcDbTrace
 10
4424.682687
 20
1138.768176
 30
0.0
 11
4424.682687
 21
1133.768176
 31
0.0
 12
4409.682687
 22
1136.268176
 32
0.0
 13
4409.682687
 23
1136.268176
 33
0.0
  0
MTEXT
  5
6A
100
AcDbEntity
  8
0
  6
BYBLOCK
 62
     5
100
AcDbMText
 10
4389.682687
 20
1151.928176
 30
0.0
 40
19.32
 41
0.0
 71
     5
 72
     1
  1
\A1;40
  0
POINT
  5
6B
100
AcDbEntity
  8
DEFPOINTS
  6
BYBLOCK
 62
     0
100
AcDbPoint
 10
4369.682687
 20
1088.357726
 30
0.0
  0
POINT
  5
6C
100
AcDbEntity
  8
DEFPOINTS
  6
BYBLOCK
 62
     0
100
AcDbPoint
 10
4409.682687
 20
978.357726
 30
0.0
  0
POINT
  5
6D
100
AcDbEntity
  8
DEFPOINTS
  6
BYBLOCK
 62
     0
100
AcDbPoint
 10
4409.682687
 20
1136.268176
 30
0.0
  0
ENDBLK
  5
6F
100
AcDbEntity
  8
0
100
AcDbBlockEnd
  0
BLOCK
  5
F6
100
AcDbEntity
  8
0
100
AcDbBlockBegin
  2
*D11
 70
     1
 10
0.0
 20
0.0
 30
0.0
  3
*D11
  1

  0
LINE
  5
EA
100
AcDbEntity
  8
0
  6
BYBLOCK
100
AcDbLine
 10
4488.682687
 20
1085.357726
 30
0.0
 11
4488.682687
 21
947.90638
 31
0.0
  0
LINE
  5
EB
100
AcDbEntity
  8
0
  6
BYBLOCK
100
AcDbLine
 10
4508.682687
 20
1085.357726
 30
0.0
 11
4508.682687
 21
947.90638
 31
0.0
  0
LINE
  5
EC
100
AcDbEntity
  8
0
  6
BYBLOCK
100
AcDbLine
 10
4473.682687
 20
953.90638
 30
0.0
 11
4458.682687
 21
953.90638
 31
0.0
  0
LINE
  5
ED
100
AcDbEntity
  8
0
  6
BYBLOCK
100
AcDbLine
 10
4523.682687
 20
953.90638
 30
0.0
 11
4538.682687
 21
953.90638
 31
0.0
  0
MTEXT
  5
EE
100
AcDbEntity
  8
0
  6
BYBLOCK
 62
     5
100
AcDbMText
 10
4465.89827
 20
969.65638
 30
0.0
 40
19.32
 41
0.0
 71
     5
 72
     1
  1
\A1;20
  0
LINE
  5
EF
100
AcDbEntity
  8
0
  6
BYBLOCK
100
AcDbLine
 10
4488.682687
 20
953.90638
 30
0.0
 11
4508.682687
 21
953.90638
 31
0.0
  0
LINE
  5
F0
100
AcDbEntity
  8
0
  6
BYBLOCK
100
AcDbLine
 10
4488.682687
 20
953.90638
 30
0.0
 11
4508.682687
 21
953.90638
 31
0.0
  0
SOLID
  5
F1
100
AcDbEntity
  8
0
  6
BYBLOCK
100
AcDbTrace
 10
4473.682687
 20
956.40638
 30
0.0
 11
4473.682687
 21
951.40638
 31
0.0
 12
4488.682687
 22
953.90638
 32
0.0
 13
4488.682687
 23
953.90638
 33
0.0
  0
SOLID
  5
F2
100
AcDbEntity
  8
0
  6
BYBLOCK
100
AcDbTrace
 10
4523.682687
 20
956.40638
 30
0.0
 11
4523.682687
 21
951.40638
 31
0.0
 12
4508.682687
 22
953.90638
 32
0.0
 13
4508.682687
 23
953.90638
 33
0.0
  0
POINT
  5
F3
100
AcDbEntity
  8
DEFPOINTS
  6
BYBLOCK
 62
     0
100
AcDbPoint
 10
4488.682687
 20
1088.357726
 30
0.0
  0
POINT
  5
F4
100
AcDbEntity
  8
DEFPOINTS
  6
BYBLOCK
 62
     0
100
AcDbPoint
 10
4508.682687
 20
1088.357726
 30
0.0
  0
POINT
  5
F5
100
AcDbEntity
  8
DEFPOINTS
  6
BYBLOCK
 62
     0
100
AcDbPoint
 10
4508.682687
 20
953.90638
 30
0.0
  0
ENDBLK
  5
F7
100
AcDbEntity
  8
0
100
AcDbBlockEnd
  0
BLOCK
  5
E6
100
AcDbEntity
  8
0
100
AcDbBlockBegin
  2
*D12
 70
     1
 10
0.0
 20
0.0
 30
0.0
  3
*D12
  1

  0
LINE
  5
DA
100
AcDbEntity
  8
0
  6
BYBLOCK
100
AcDbLine
 10
4508.682687
 20
1085.357726
 30
0.0
 11
4508.682687
 21
947.90638
 31
0.0
  0
LINE
  5
DB
100
AcDbEntity
  8
0
  6
BYBLOCK
100
AcDbLine
 10
4528.682687
 20
1085.357726
 30
0.0
 11
4528.682687
 21
947.90638
 31
0.0
  0
LINE
  5
DC
100
AcDbEntity
  8
0
  6
BYBLOCK
100
AcDbLine
 10
4493.682687
 20
953.90638
 30
0.0
 11
4478.682687
 21
953.90638
 31
0.0
  0
LINE
  5
DD
100
AcDbEntity
  8
0
  6
BYBLOCK
100
AcDbLine
 10
4543.682687
 20
953.90638
 30
0.0
 11
4558.682687
 21
953.90638
 31
0.0
  0
MTEXT
  5
DE
100
AcDbEntity
  8
0
  6
BYBLOCK
 62
     5
100
AcDbMText
 10
4518.682687
 20
932.414389
 30
0.0
 40
19.32
 41
0.0
 71
     5
 72
     1
  1
\A1;20
  0
LINE
  5
DF
100
AcDbEntity
  8
0
  6
BYBLOCK
100
AcDbLine
 10
4508.682687
 20
953.90638
 30
0.0
 11
4528.682687
 21
953.90638
 31
0.0
  0
LINE
  5
E0
100
AcDbEntity
  8
0
  6
BYBLOCK
100
AcDbLine
 10
4508.682687
 20
953.90638
 30
0.0
 11
4528.682687
 21
953.90638
 31
0.0
  0
SOLID
  5
E1
100
AcDbEntity
  8
0
  6
BYBLOCK
100
AcDbTrace
 10
4493.682687
 20
956.40638
 30
0.0
 11
4493.682687
 21
951.40638
 31
0.0
 12
4508.682687
 22
953.90638
 32
0.0
 13
4508.682687
 23
953.90638
 33
0.0
  0
SOLID
  5
E2
100
AcDbEntity
  8
0
  6
BYBLOCK
100
AcDbTrace
 10
4543.682687
 20
956.40638
 30
0.0
 11
4543.682687
 21
951.40638
 31
0.0
 12
4528.682687
 22
953.90638
 32
0.0
 13
4528.682687
 23
953.90638
 33
0.0
  0
POINT
  5
E3
100
AcDbEntity
  8
DEFPOINTS
  6
BYBLOCK
 62
     0
100
AcDbPoint
 10
4508.682687
 20
1088.357726
 30
0.0
  0
POINT
  5
E4
100
AcDbEntity
  8
DEFPOINTS
  6
BYBLOCK
 62
     0
100
AcDbPoint
 10
4528.682687
 20
1088.357726
 30
0.0
  0
POINT
  5
E5
100
AcDbEntity
  8
DEFPOINTS
  6
BYBLOCK
 62
     0
100
AcDbPoint
 10
4528.682687
 20
953.90638
 30
0.0
  0
ENDBLK
  5
E7
100
AcDbEntity
  8
0
100
AcDbBlockEnd
  0
BLOCK
  5
D6
100
AcDbEntity
  8
0
100
AcDbBlockBegin
  2
*D13
 70
     1
 10
0.0
 20
0.0
 30
0.0
  3
*D13
  1

  0
LINE
  5
CD
100
AcDbEntity
  8
0
  6
BYBLOCK
100
AcDbLine
 10
4528.682687
 20
1085.357726
 30
0.0
 11
4528.682687
 21
947.90638
 31
0.0
  0
LINE
  5
CE
100
AcDbEntity
  8
0
  6
BYBLOCK
100
AcDbLine
 10
4662.682687
 20
1085.357726
 30
0.0
 11
4662.682687
 21
947.90638
 31
0.0
  0
LINE
  5
CF
100
AcDbEntity
  8
0
  6
BYBLOCK
100
AcDbLine
 10
4543.682687
 20
953.90638
 30
0.0
 11
4647.682687
 21
953.90638
 31
0.0
  0
SOLID
  5
D0
100
AcDbEntity
  8
0
  6
BYBLOCK
100
AcDbTrace
 10
4543.682687
 20
956.40638
 30
0.0
 11
4543.682687
 21
951.40638
 31
0.0
 12
4528.682687
 22
953.90638
 32
0.0
 13
4528.682687
 23
953.90638
 33
0.0
  0
SOLID
  5
D1
100
AcDbEntity
  8
0
  6
BYBLOCK
100
AcDbTrace
 10
4647.682687
 20
956.40638
 30
0.0
 11
4647.682687
 21
951.40638
 31
0.0
 12
4662.682687
 22
953.90638
 32
0.0
 13
4662.682687
 23
953.90638
 33
0.0
  0
MTEXT
  5
D2
100
AcDbEntity
  8
0
  6
BYBLOCK
 62
     5
100
AcDbMText
 10
4595.682687
 20
969.56638
 30
0.0
 40
19.32
 41
0.0
 71
     5
 72
     1
  1
\A1;134
  0
POINT
  5
D3
100
AcDbEntity
  8
DEFPOINTS
  6
BYBLOCK
 62
     0
100
AcDbPoint
 10
4528.682687
 20
1088.357726
 30
0.0
  0
POINT
  5
D4
100
AcDbEntity
  8
DEFPOINTS
  6
BYBLOCK
 62
     0
100
AcDbPoint
 10
4662.682687
 20
1088.357726
 30
0.0
  0
POINT
  5
D5
100
AcDbEntity
  8
DEFPOINTS
  6
BYBLOCK
 62
     0
100
AcDbPoint
 10
4662.682687
 20
953.90638
 30
0.0
  0
ENDBLK
  5
D7
100
AcDbEntity
  8
0
100
AcDbBlockEnd
  0
BLOCK
  5
C9
100
AcDbEntity
  8
0
100
AcDbBlockBegin
  2
*D14
 70
     1
 10
0.0
 20
0.0
 30
0.0
  3
*D14
  1

  0
LINE
  5
BD
100
AcDbEntity
  8
0
  6
BYBLOCK
100
AcDbLine
 10
4662.682687
 20
1085.357726
 30
0.0
 11
4662.682687
 21
947.90638
 31
0.0
  0
LINE
  5
BE
100
AcDbEntity
  8
0
  6
BYBLOCK
100
AcDbLine
 10
4682.682687
 20
1085.357726
 30
0.0
 11
4682.682687
 21
947.90638
 31
0.0
  0
LINE
  5
BF
100
AcDbEntity
  8
0
  6
BYBLOCK
100
AcDbLine
 10
4647.682687
 20
953.90638
 30
0.0
 11
4632.682687
 21
953.90638
 31
0.0
  0
LINE
  5
C0
100
AcDbEntity
  8
0
  6
BYBLOCK
100
AcDbLine
 10
4697.682687
 20
953.90638
 30
0.0
 11
4712.682687
 21
953.90638
 31
0.0
  0
MTEXT
  5
C1
100
AcDbEntity
  8
0
  6
BYBLOCK
 62
     5
100
AcDbMText
 10
4672.682687
 20
930.439461
 30
0.0
 40
19.32
 41
0.0
 71
     5
 72
     1
  1
\A1;20
  0
LINE
  5
C2
100
AcDbEntity
  8
0
  6
BYBLOCK
100
AcDbLine
 10
4662.682687
 20
953.90638
 30
0.0
 11
4682.682687
 21
953.90638
 31
0.0
  0
LINE
  5
C3
100
AcDbEntity
  8
0
  6
BYBLOCK
100
AcDbLine
 10
4662.682687
 20
953.90638
 30
0.0
 11
4682.682687
 21
953.90638
 31
0.0
  0
SOLID
  5
C4
100
AcDbEntity
  8
0
  6
BYBLOCK
100
AcDbTrace
 10
4647.682687
 20
956.40638
 30
0.0
 11
4647.682687
 21
951.40638
 31
0.0
 12
4662.682687
 22
953.90638
 32
0.0
 13
4662.682687
 23
953.90638
 33
0.0
  0
SOLID
  5
C5
100
AcDbEntity
  8
0
  6
BYBLOCK
100
AcDbTrace
 10
4697.682687
 20
956.40638
 30
0.0
 11
4697.682687
 21
951.40638
 31
0.0
 12
4682.682687
 22
953.90638
 32
0.0
 13
4682.682687
 23
953.90638
 33
0.0
  0
POINT
  5
C6
100
AcDbEntity
  8
DEFPOINTS
  6
BYBLOCK
 62
     0
100
AcDbPoint
 10
4662.682687
 20
1088.357726
 30
0.0
  0
POINT
  5
C7
100
AcDbEntity
  8
DEFPOINTS
  6
BYBLOCK
 62
     0
100
AcDbPoint
 10
4682.682687
 20
1088.357726
 30
0.0
  0
POINT
  5
C8
100
AcDbEntity
  8
DEFPOINTS
  6
BYBLOCK
 62
     0
100
AcDbPoint
 10
4682.682687
 20
953.90638
 30
0.0
  0
ENDBLK
  5
CA
100
AcDbEntity
  8
0
100
AcDbBlockEnd
  0
BLOCK
  5
B9
100
AcDbEntity
  8
0
100
AcDbBlockBegin
  2
*D15
 70
     1
 10
0.0
 20
0.0
 30
0.0
  3
*D15
  1

  0
LINE
  5
AD
100
AcDbEntity
  8
0
  6
BYBLOCK
100
AcDbLine
 10
4682.682687
 20
1085.357726
 30
0.0
 11
4682.682687
 21
947.90638
 31
0.0
  0
LINE
  5
AE
100
AcDbEntity
  8
0
  6
BYBLOCK
100
AcDbLine
 10
4702.682687
 20
1085.357726
 30
0.0
 11
4702.682687
 21
947.90638
 31
0.0
  0
LINE
  5
AF
100
AcDbEntity
  8
0
  6
BYBLOCK
100
AcDbLine
 10
4667.682687
 20
953.90638
 30
0.0
 11
4652.682687
 21
953.90638
 31
0.0
  0
LINE
  5
B0
100
AcDbEntity
  8
0
  6
BYBLOCK
100
AcDbLine
 10
4717.682687
 20
953.90638
 30
0.0
 11
4732.682687
 21
953.90638
 31
0.0
  0
MTEXT
  5
B1
100
AcDbEntity
  8
0
  6
BYBLOCK
 62
     5
100
AcDbMText
 10
4719.001355
 20
969.65638
 30
0.0
 40
19.32
 41
0.0
 71
     5
 72
     1
  1
\A1;20
  0
LINE
  5
B2
100
AcDbEntity
  8
0
  6
BYBLOCK
100
AcDbLine
 10
4682.682687
 20
953.90638
 30
0.0
 11
4702.682687
 21
953.90638
 31
0.0
  0
LINE
  5
B3
100
AcDbEntity
  8
0
  6
BYBLOCK
100
AcDbLine
 10
4682.682687
 20
953.90638
 30
0.0
 11
4702.682687
 21
953.90638
 31
0.0
  0
SOLID
  5
B4
100
AcDbEntity
  8
0
  6
BYBLOCK
100
AcDbTrace
 10
4667.682687
 20
956.40638
 30
0.0
 11
4667.682687
 21
951.40638
 31
0.0
 12
4682.682687
 22
953.90638
 32
0.0
 13
4682.682687
 23
953.90638
 33
0.0
  0
SOLID
  5
B5
100
AcDbEntity
  8
0
  6
BYBLOCK
100
AcDbTrace
 10
4717.682687
 20
956.40638
 30
0.0
 11
4717.682687
 21
951.40638
 31
0.0
 12
4702.682687
 22
953.90638
 32
0.0
 13
4702.682687
 23
953.90638
 33
0.0
  0
POINT
  5
B6
100
AcDbEntity
  8
DEFPOINTS
  6
BYBLOCK
 62
     0
100
AcDbPoint
 10
4682.682687
 20
1088.357726
 30
0.0
  0
POINT
  5
B7
100
AcDbEntity
  8
DEFPOINTS
  6
BYBLOCK
 62
     0
100
AcDbPoint
 10
4702.682687
 20
1088.357726
 30
0.0
  0
POINT
  5
B8
100
AcDbEntity
  8
DEFPOINTS
  6
BYBLOCK
 62
     0
100
AcDbPoint
 10
4702.682687
 20
953.90638
 30
0.0
  0
ENDBLK
  5
BA
100
AcDbEntity
  8
0
100
AcDbBlockEnd
  0
BLOCK
  5
A9
100
AcDbEntity
  8
0
100
AcDbBlockBegin
  2
*D16
 70
     1
 10
0.0
 20
0.0
 30
0.0
  3
*D16
  1

  0
LINE
  5
9E
100
AcDbEntity
  8
0
  6
BYBLOCK
100
AcDbLine
 10
4742.682687
 20
975.357726
 30
0.0
 11
4742.682687
 21
912.357726
 31
0.0
  0
LINE
  5
9F
100
AcDbEntity
  8
0
  6
BYBLOCK
100
AcDbLine
 10
4781.682687
 20
975.357726
 30
0.0
 11
4781.682687
 21
912.357726
 31
0.0
  0
LINE
  5
A0
100
AcDbEntity
  8
0
  6
BYBLOCK
100
AcDbLine
 10
4727.682687
 20
918.357726
 30
0.0
 11
4712.682687
 21
918.357726
 31
0.0
  0
LINE
  5
A1
100
AcDbEntity
  8
0
  6
BYBLOCK
100
AcDbLine
 10
4796.682687
 20
918.357726
 30
0.0
 11
4811.682687
 21
918.357726
 31
0.0
  0
LINE
  5
A2
100
AcDbEntity
  8
0
  6
BYBLOCK
100
AcDbLine
 10
4742.682687
 20
918.357726
 30
0.0
 11
4781.682687
 21
918.357726
 31
0.0
  0
SOLID
  5
A3
100
AcDbEntity
  8
0
  6
BYBLOCK
100
AcDbTrace
 10
4727.682687
 20
920.857726
 30
0.0
 11
4727.682687
 21
915.857726
 31
0.0
 12
4742.682687
 22
918.357726
 32
0.0
 13
4742.682687
 23
918.357726
 33
0.0
  0
SOLID
  5
A4
100
AcDbEntity
  8
0
  6
BYBLOCK
100
AcDbTrace
 10
4796.682687
 20
920.857726
 30
0.0
 11
4796.682687
 21
915.857726
 31
0.0
 12
4781.682687
 22
918.357726
 32
0.0
 13
4781.682687
 23
918.357726
 33
0.0
  0
MTEXT
  5
A5
100
AcDbEntity
  8
0
  6
BYBLOCK
 62
     5
100
AcDbMText
 10
4762.182687
 20
934.017726
 30
0.0
 40
19.32
 41
0.0
 71
     5
 72
     1
  1
\A1;39
  0
POINT
  5
A6
100
AcDbEntity
  8
DEFPOINTS
  6
BYBLOCK
 62
     0
100
AcDbPoint
 10
4742.682687
 20
978.357726
 30
0.0
  0
POINT
  5
A7
100
AcDbEntity
  8
DEFPOINTS
  6
BYBLOCK
 62
     0
100
AcDbPoint
 10
4781.682687
 20
978.357726
 30
0.0
  0
POINT
  5
A8
100
AcDbEntity
  8
DEFPOINTS
  6
BYBLOCK
 62
     0
100
AcDbPoint
 10
4781.682687
 20
918.357726
 30
0.0
  0
ENDBLK
  5
AA
100
AcDbEntity
  8
0
100
AcDbBlockEnd
  0
BLOCK
  5
5F
100
AcDbEntity
  8
0
100
AcDbBlockBegin
  2
*D17
 70
     1
 10
0.0
 20
0.0
 30
0.0
  3
*D17
  1

  0
LINE
  5
53
100
AcDbEntity
  8
0
  6
BYBLOCK
100
AcDbLine
 10
4342.682687
 20
1083.357726
 30
0.0
 11
4455.09063
 21
1083.357726
 31
0.0
  0
LINE
  5
54
100
AcDbEntity
  8
0
  6
BYBLOCK
100
AcDbLine
 10
4372.682687
 20
1088.357726
 30
0.0
 11
4455.09063
 21
1088.357726
 31
0.0
  0
LINE
  5
55
100
AcDbEntity
  8
0
  6
BYBLOCK
100
AcDbLine
 10
4449.09063
 20
1068.357726
 30
0.0
 11
4449.09063
 21
1053.357726
 31
0.0
  0
LINE
  5
56
100
AcDbEntity
  8
0
  6
BYBLOCK
100
AcDbLine
 10
4449.09063
 20
1103.357726
 30
0.0
 11
4449.09063
 21
1118.357726
 31
0.0
  0
MTEXT
  5
57
100
AcDbEntity
  8
0
  6
BYBLOCK
 62
     5
100
AcDbMText
 10
4433.34063
 20
1065.721836
 30
0.0
 40
19.32
 41
0.0
 71
     5
 72
     1
  1
\A1;5
 11
0.0
 21
1.0
 31
0.0
  0
LINE
  5
58
100
AcDbEntity
  8
0
  6
BYBLOCK
100
AcDbLine
 10
4449.09063
 20
1083.357726
 30
0.0
 11
4449.09063
 21
1088.357726
 31
0.0
  0
LINE
  5
59
100
AcDbEntity
  8
0
  6
BYBLOCK
100
AcDbLine
 10
4449.09063
 20
1083.357726
 30
0.0
 11
4449.09063
 21
1088.357726
 31
0.0
  0
SOLID
  5
5A
100
AcDbEntity
  8
0
  6
BYBLOCK
100
AcDbTrace
 10
4446.59063
 20
1068.357726
 30
0.0
 11
4451.59063
 21
1068.357726
 31
0.0
 12
4449.09063
 22
1083.357726
 32
0.0
 13
4449.09063
 23
1083.357726
 33
0.0
  0
SOLID
  5
5B
100
AcDbEntity
  8
0
  6
BYBLOCK
100
AcDbTrace
 10
4446.59063
 20
1103.357726
 30
0.0
 11
4451.59063
 21
1103.357726
 31
0.0
 12
4449.09063
 22
1088.357726
 32
0.0
 13
4449.09063
 23
1088.357726
 33
0.0
  0
POINT
  5
5C
100
AcDbEntity
  8
DEFPOINTS
  6
BYBLOCK
 62
     0
100
AcDbPoint
 10
4339.682687
 20
1083.357726
 30
0.0
  0
POINT
  5
5D
100
AcDbEntity
  8
DEFPOINTS
  6
BYBLOCK
 62
     0
100
AcDbPoint
 10
4369.682687
 20
1088.357726
 30
0.0
  0
POINT
  5
5E
100
AcDbEntity
  8
DEFPOINTS
  6
BYBLOCK
 62
     0
100
AcDbPoint
 10
4449.09063
 20
1088.357726
 30
0.0
  0
ENDBLK
  5
60
100
AcDbEntity
  8
0
100
AcDbBlockEnd
  0
BLOCK
  5
3A
100
AcDbEntity
  8
0
100
AcDbBlockBegin
  2
*D18
 70
     1
 10
0.0
 20
0.0
 30
0.0
  3
*D18
  1

  0
LINE
  5
30
100
AcDbEntity
  8
0
  6
BYBLOCK
100
AcDbLine
 10
4797.639017
 20
1014.885333
 30
0.0
 11
4830.976293
 21
1067.031153
 31
0.0
  0
ARC
  5
31
100
AcDbEntity
  8
0
  6
BYBLOCK
100
AcDbCircle
 10
4787.072774
 20
998.357726
 30
0.0
 40
75.508027
100
AcDbArc
 50
11.400857
 51
46.008009
  0
SOLID
  5
32
100
AcDbEntity
  8
0
  6
BYBLOCK
100
AcDbTrace
 10
4863.578531
 20
1013.531866
 30
0.0
 11
4858.603257
 21
1013.03523
 31
0.0
 12
4862.580801
 22
998.357726
 32
0.0
 13
4862.580801
 23
998.357726
 33
0.0
  0
SOLID
  5
33
100
AcDbEntity
  8
0
  6
BYBLOCK
100
AcDbTrace
 10
4837.968306
 20
1050.718817
 30
0.0
 11
4841.066623
 21
1054.643155
 31
0.0
 12
4827.74445
 22
1061.975938
 32
0.0
 13
4827.74445
 23
1061.975938
 33
0.0
  0
MTEXT
  5
34
100
AcDbEntity
  8
0
  6
BYBLOCK
 62
     5
100
AcDbMText
 10
4868.650953
 20
1043.028677
 30
0.0
 40
19.32
 41
0.0
 71
     5
 72
     1
  1
\A1;57,41°
 11
0.480291
 21
-0.877109
 31
0.0
  0
POINT
  5
35
100
AcDbEntity
  8
DEFPOINTS
  6
BYBLOCK
 62
     0
100
AcDbPoint
 10
4858.408339
 20
1023.110489
 30
0.0
  0
POINT
  5
36
100
AcDbEntity
  8
DEFPOINTS
  6
BYBLOCK
 62
     0
100
AcDbPoint
 10
4796.023096
 20
1012.357726
 30
0.0
  0
POINT
  5
37
100
AcDbEntity
  8
DEFPOINTS
  6
BYBLOCK
 62
     0
100
AcDbPoint
 10
4787.072774
 20
998.357726
 30
0.0
  0
POINT
  5
38
100
AcDbEntity
  8
DEFPOINTS
  6
BYBLOCK
 62
     0
100
AcDbPoint
 10
4868.254532
 20
998.357726
 30
0.0
  0
POINT
  5
39
100
AcDbEntity
  8
DEFPOINTS
  6
BYBLOCK
 62
     0
100
AcDbPoint
 10
4787.072774
 20
998.357726
 30
0.0
  0
ENDBLK
  5
3B
100
AcDbEntity
  8
0
100
AcDbBlockEnd
  0
BLOCK
  5
2C
100
AcDbEntity
  8
0
100
AcDbBlockBegin
  2
*D19
 70
     1
 10
0.0
 20
0.0
 30
0.0
  3
*D19
  1

  0
LINE
  5
20
100
AcDbEntity
  8
0
  6
BYBLOCK
100
AcDbLine
 10
4784.682687
 20
978.357726
 30
0.0
 11
4949.506545
 21
978.357726
 31
0.0
  0
LINE
  5
21
100
AcDbEntity
  8
0
  6
BYBLOCK
100
AcDbLine
 10
4787.853434
 20
1001.254374
 30
0.0
 11
4825.353773
 21
1140.399954
 31
0.0
  0
ARC
  5
22
100
AcDbEntity
  8
0
  6
BYBLOCK
100
AcDbCircle
 10
4781.682687
 20
978.357726
 30
0.0
 40
161.823858
100
AcDbArc
 50
5.312843
 51
69.604055
  0
SOLID
  5
23
100
AcDbEntity
  8
0
  6
BYBLOCK
100
AcDbTrace
 10
4945.308658
 20
993.457474
 30
0.0
 11
4940.314031
 21
993.22574
 31
0.0
 12
4943.506545
 22
978.357726
 32
0.0
 13
4943.506545
 23
978.357726
 33
0.0
  0
SOLID
  5
24
100
AcDbEntity
  8
0
  6
BYBLOCK
100
AcDbTrace
 10
4837.317502
 20
1127.655176
 30
0.0
 11
4838.840952
 21
1132.417434
 31
0.0
 12
4823.792454
 22
1134.606657
 32
0.0
 13
4823.792454
 23
1134.606657
 33
0.0
  0
MTEXT
  5
25
100
AcDbEntity
  8
0
  6
BYBLOCK
 62
     5
100
AcDbMText
 10
4954.606804
 20
1033.010542
 30
0.0
 40
19.32
 41
0.0
 71
     5
 72
     1
  1
\A1;74,92°
 11
0.301358
 21
-0.953511
 31
0.0
  0
POINT
  5
26
100
AcDbEntity
  8
DEFPOINTS
  6
BYBLOCK
 62
     0
100
AcDbPoint
 10
4885.820876
 20
1102.221355
 30
0.0
  0
POINT
  5
28
100
AcDbEntity
  8
DEFPOINTS
  6
BYBLOCK
 62
     0
100
AcDbPoint
 10
4787.072774
 20
998.357726
 30
0.0
  0
POINT
  5
29
100
AcDbEntity
  8
DEFPOINTS
  6
BYBLOCK
 62
     0
100
AcDbPoint
 10
4781.682687
 20
978.357726
 30
0.0
  0
POINT
  5
2A
100
AcDbEntity
  8
DEFPOINTS
  6
BYBLOCK
 62
     0
100
AcDbPoint
 10
4762.182687
 20
978.357726
 30
0.0
  0
POINT
  5
2B
100
AcDbEntity
  8
DEFPOINTS
  6
BYBLOCK
 62
     0
100
AcDbPoint
 10
4781.682687
 20
978.357726
 30
0.0
  0
ENDBLK
  5
2D
100
AcDbEntity
  8
0
100
AcDbBlockEnd
  0
ENDSEC
  0
SECTION
  2
ENTITIES
  0
DIMENSION
  5
1E
100
AcDbEntity
  8
KOTY-UPLNE
100
AcDbDimension
  2
*D19
 10
838.355297
 20
-259.884928
 30
0.0
 11
1011.279414
 21
-205.232112
 31
0.0
 12
-3943.32739
 22
-1238.242654
 32
0.0
 70
   130
  1
74,92%%D
  3
UPLNE
100
AcDb2LineAngularDimension
 13
838.355297
 23
-259.884928
 33
0.0
 14
818.855297
 24
-259.884928
 34
0.0
 15
843.745384
 25
-239.884928
 35
0.0
 16
942.493486
 26
-136.021299
 36
0.0
1001
ACAD
1000
DSTYLE
1002
{
1070
    40
1040
3.0
1070
   147
1040
2.0
1002
}
  0
DIMENSION
  5
2E
100
AcDbEntity
  8
KOTY-UPLNE
100
AcDbDimension
  2
*D18
 10
843.745384
 20
-239.884928
 30
0.0
 11
925.323563
 21
-195.213977
 31
0.0
 12
-3943.32739
 22
-1238.242654
 32
0.0
 70
     2
  1
57,41%%D
  3
UPLNE
100
AcDb2LineAngularDimension
 13
843.745384
 23
-239.884928
 33
0.0
 14
924.927141
 24
-239.884928
 34
0.0
 15
852.695706
 25
-225.884928
 35
0.0
 16
915.080949
 26
-215.132165
 36
0.0
1001
ACAD
1000
DSTYLE
1002
{
1070
    40
1040
3.0
1070
   147
1040
2.0
1002
}
  0
LINE
  5
3C
100
AcDbEntity
  8
KOTY-UPLNE
100
AcDbLine
 10
843.745384
 20
-239.884928
 30
0.0
 11
924.927141
 21
-239.884928
 31
0.0
  0
DIMENSION
  5
3D
100
AcDbEntity
  8
KOTY-UPLNE
100
AcDbDimension
  2
*D7
 10
152.855297
 20
-379.884928
 30
0.0
 11
652.855297
 21
-364.224928
 31
0.0
 12
-3943.32739
 22
-1238.242654
 32
0.0
  3
UPLNE
100
AcDbAlignedDimension
 13
1152.855297
 23
-264.884928
 33
0.0
 14
152.855297
 24
-259.884928
 34
0.0
100
AcDbRotatedDimension
1001
ACAD
1000
DSTYLE
1002
{
1070
    40
1040
3.0
1070
   147
1040
2.0
1002
}
  0
LWPOLYLINE
  5
4A
100
AcDbEntity
  8
TRAPEZ-VELKY
100
AcDbPolyline
 90
      116
 70
     0
 43
5.0
 10
1174.476158
 20
-248.304928
 10
1172.352167
 20
-256.186027
 42
-0.33905
 10
1167.52442
 20
-259.884928
 10
1151.855297
 20
-259.884928
 10
1136.186174
 20
-259.884928
 42
-0.33905
 10
1131.358427
 20
-256.186027
 10
1127.165562
 20
-240.628336
 42
0.076542
 10
1126.550493
 20
-239.236233
 10
1118.429605
 20
-226.533624
 42
-0.076542
 10
1117.814537
 20
-225.14152
 10
1106.896057
 20
-184.628336
 42
0.076542
 10
1106.280989
 20
-183.236233
 10
1098.160101
 20
-170.533624
 42
-0.076542
 10
1097.545033
 20
-169.14152
 10
1093.352167
 20
-153.583829
 42
0.33905
 10
1088.52442
 20
-149.884928
 10
1073.692357
 20
-149.884928
 42
0.131398
 10
1071.1967
 20
-150.552297
 10
1064.850955
 20
-154.207537
 42
-0.267412
 10
1059.85964
 20
-154.207537
 10
1053.513895
 20
-150.552297
 42
0.131398
 10
1051.018237
 20
-149.884928
 10
919.692357
 20
-149.884928
 42
0.131398
 10
917.1967
 20
-150.552297
 10
910.850955
 20
-154.207537
 42
-0.267412
 10
905.85964
 20
-154.207537
 10
899.513895
 20
-150.552297
 42
0.131398
 10
897.018237
 20
-149.884928
 10
882.186174
 20
-149.884928
 42
0.33905
 10
877.358427
 20
-153.583829
 10
873.165562
 20
-169.14152
 42
-0.076542
 10
872.550493
 20
-170.533624
 10
864.429605
 20
-183.236233
 42
0.076542
 10
863.814537
 20
-184.628336
 10
852.896057
 20
-225.14152
 42
-0.076542
 10
852.280989
 20
-226.533624
 10
844.160101
 20
-239.236233
 42
0.076542
 10
843.545033
 20
-240.628336
 10
839.352167
 20
-256.186027
 42
-0.33905
 10
834.52442
 20
-259.884928
 10
818.855297
 20
-259.884928
 10
803.186174
 20
-259.884928
 42
-0.33905
 10
798.358427
 20
-256.186027
 10
794.165562
 20
-240.628336
 42
0.076542
 10
793.550493
 20
-239.236233
 10
785.429605
 20
-226.533624
 42
-0.076542
 10
784.814537
 20
-225.14152
 10
773.896057
 20
-184.628336
 42
0.076542
 10
773.280989
 20
-183.236233
 10
765.160101
 20
-170.533624
 42
-0.076542
 10
764.545033
 20
-169.14152
 10
760.352167
 20
-153.583829
 42
0.33905
 10
755.52442
 20
-149.884928
 10
740.692357
 20
-149.884928
 42
0.131398
 10
738.1967
 20
-150.552297
 10
731.850955
 20
-154.207537
 42
-0.267412
 10
726.85964
 20
-154.207537
 10
720.513895
 20
-150.552297
 42
0.131398
 10
718.018237
 20
-149.884928
 10
586.692357
 20
-149.884928
 42
0.131398
 10
584.1967
 20
-150.552297
 10
577.850955
 20
-154.207537
 42
-0.267412
 10
572.85964
 20
-154.207537
 10
566.513895
 20
-150.552297
 42
0.131398
 10
564.018237
 20
-149.884928
 10
549.186174
 20
-149.884928
 42
0.33905
 10
544.358427
 20
-153.583829
 10
540.165562
 20
-169.14152
 42
-0.076542
 10
539.550493
 20
-170.533624
 10
531.429605
 20
-183.236233
 42
0.076542
 10
530.814537
 20
-184.628336
 10
519.896057
 20
-225.14152
 42
-0.076542
 10
519.280989
 20
-226.533624
 10
511.160101
 20
-239.236233
 42
0.076542
 10
510.545033
 20
-240.628336
 10
506.352167
 20
-256.186027
 42
-0.33905
 10
501.52442
 20
-259.884928
 10
485.855297
 20
-259.884928
 10
470.186174
 20
-259.884928
 42
-0.33905
 10
465.358427
 20
-256.186027
 10
461.165562
 20
-240.628336
 42
0.076542
 10
460.550493
 20
-239.236233
 10
452.429605
 20
-226.533624
 42
-0.076542
 10
451.814537
 20
-225.14152
 10
440.896057
 20
-184.628336
 42
0.076542
 10
440.280989
 20
-183.236233
 10
432.160101
 20
-170.533624
 42
-0.076542
 10
431.545033
 20
-169.14152
 10
427.352167
 20
-153.583829
 42
0.33905
 10
422.52442
 20
-149.884928
 10
407.692357
 20
-149.884928
 42
0.131398
 10
405.1967
 20
-150.552297
 10
398.850955
 20
-154.207537
 42
-0.267412
 10
393.85964
 20
-154.207537
 10
387.513895
 20
-150.552297
 42
0.131398
 10
385.018237
 20
-149.884928
 10
253.692357
 20
-149.884928
 42
0.131398
 10
251.1967
 20
-150.552297
 10
244.850955
 20
-154.207537
 42
-0.267412
 10
239.85964
 20
-154.207537
 10
233.513895
 20
-150.552297
 42
0.131398
 10
231.018237
 20
-149.884928
 10
216.186174
 20
-149.884928
 42
0.33905
 10
211.358427
 20
-153.583829
 10
207.165562
 20
-169.14152
 42
-0.076542
 10
206.550493
 20
-170.533624
 10
198.429605
 20
-183.236233
 42
0.076542
 10
197.814537
 20
-184.628336
 10
186.896057
 20
-225.14152
 42
-0.076542
 10
186.280989
 20
-226.533624
 10
178.160101
 20
-239.236233
 42
0.076542
 10
177.545033
 20
-240.628336
 10
173.352167
 20
-256.186027
 42
-0.33905
 10
168.52442
 20
-259.884928
 10
152.855297
 20
-259.884928
 10
147.855297
 20
-259.884928
  0
MTEXT
  5
4C
100
AcDbEntity
  8
POZICE
100
AcDbMText
 10
900.758285
 20
-320.283049
 30
0.0
 40
41.73
 41
1.0
 71
     5
 72
     1
  1
B
  7
STYLE1
  0
LWPOLYLINE
  5
4F
100
AcDbEntity
  8
RAMEC
100
AcDbPolyline
 90
        4
 70
     1
 43
0.0
 10
0.0
 20
0.0
 10
0.0
 20
-429.001233
 10
1349.672502
 20
-429.001233
 10
1349.672502
 20
0.0
  0
DIMENSION
  5
51
100
AcDbEntity
  8
KOTY-UPLNE
100
AcDbDimension
  2
*D17
 10
505.76324
 20
-149.884928
 30
0.0
 11
490.01324
 21
-172.520818
 31
0.0
 12
-3943.32739
 22
-1238.242654
 32
0.0
 70
   128
  3
UPLNE
100
AcDbAlignedDimension
 13
396.355297
 23
-154.884928
 33
0.0
 14
426.355297
 24
-149.884928
 34
0.0
 50
90.0
100
AcDbRotatedDimension
1001
ACAD
1000
DSTYLE
1002
{
1070
    40
1040
3.0
1070
   147
1040
2.0
1002
}
  0
DIMENSION
  5
61
100
AcDbEntity
  8
KOTY-UPLNE
100
AcDbDimension
  2
*D10
 10
466.355297
 20
-101.974478
 30
0.0
 11
446.355297
 21
-86.314478
 31
0.0
 12
-3943.32739
 22
-1238.242654
 32
0.0
  3
UPLNE
100
AcDbAlignedDimension
 13
426.355297
 23
-149.884928
 33
0.0
 14
466.355297
 24
-259.884928
 34
0.0
100
AcDbRotatedDimension
1001
ACAD
1000
DSTYLE
1002
{
1070
    40
1040
3.0
1070
   147
1040
2.0
1002
}
  0
DIMENSION
  5
70
100
AcDbEntity
  8
KOTY-UPLNE
100
AcDbDimension
  2
*D6
 10
485.855297
 20
-319.884928
 30
0.0
 11
319.355297
 21
-302.384928
 31
0.0
 12
-3943.32739
 22
-1238.242654
 32
0.0
  1
333,3
  3
UPLNE
100
AcDbAlignedDimension
 13
152.855297
 23
-259.884928
 33
0.0
 14
485.855297
 24
-259.884928
 34
0.0
100
AcDbRotatedDimension
1001
ACAD
1000
DSTYLE
1002
{
1070
    40
1040
3.0
1070
   147
1040
2.0
1002
}
  0
DIMENSION
  5
7D
100
AcDbEntity
  8
KOTY-UPLNE
100
AcDbDimension
  2
*D9
 10
426.355297
 20
-101.974478
 30
0.0
 11
319.355297
 21
-86.314478
 31
0.0
 12
-3943.32739
 22
-1238.242654
 32
0.0
  3
UPLNE
100
AcDbAlignedDimension
 13
212.355297
 23
-149.884928
 33
0.0
 14
426.355297
 24
-149.884928
 34
0.0
100
AcDbRotatedDimension
1001
ACAD
1000
DSTYLE
1002
{
1070
    40
1040
3.0
1070
   147
1040
2.0
1002
}
  0
LWPOLYLINE
  5
8A
100
AcDbEntity
  8
TRAPEZ-VELKY
100
AcDbPolyline
 90
        6
 70
     0
 43
5.0
 10
246.807204
 20
-153.080709
 10
259.87704
 20
-162.133907
 42
0.131398
 10
262.372697
 20
-162.801276
 10
376.337897
 20
-162.801276
 42
0.131398
 10
378.833555
 20
-162.133907
 10
391.903391
 20
-153.080709
  0
DIMENSION
  5
8B
100
AcDbEntity
  8
KOTY-UPLNE
100
AcDbDimension
  2
*D8
 10
212.355297
 20
-101.974478
 30
0.0
 11
192.355297
 21
-86.314478
 31
0.0
 12
-3943.32739
 22
-1238.242654
 32
0.0
  3
UPLNE
100
AcDbAlignedDimension
 13
172.355297
 23
-259.884928
 33
0.0
 14
212.355297
 24
-149.884928
 34
0.0
100
AcDbRotatedDimension
1001
ACAD
1000
DSTYLE
1002
{
1070
    40
1040
3.0
1070
   147
1040
2.0
1002
}
  0
LINE
  5
9A
100
AcDbEntity
  8
TRAPEZ-VELKY
100
AcDbLine
 10
152.855297
 20
-259.884928
 30
0.0
 11
152.855297
 21
-259.884928
 31
0.0
  0
LINE
  5
9B
100
AcDbEntity
  8
TRAPEZ-VELKY
100
AcDbLine
 10
152.855297
 20
-259.884928
 30
0.0
 11
152.855297
 21
-259.884928
 31
0.0
  0
DIMENSION
  5
9C
100
AcDbEntity
  8
KOTY-UPLNE
100
AcDbDimension
  2
*D16
 10
838.355297
 20
-319.884928
 30
0.0
 11
818.855297
 21
-304.224928
 31
0.0
 12
-3943.32739
 22
-1238.242654
 32
0.0
  3
UPLNE
100
AcDbAlignedDimension
 13
799.355297
 23
-259.884928
 33
0.0
 14
838.355297
 24
-259.884928
 34
0.0
100
AcDbRotatedDimension
1001
ACAD
1000
DSTYLE
1002
{
1070
    40
1040
3.0
1070
   147
1040
2.0
1002
}
  0
DIMENSION
  5
AB
100
AcDbEntity
  8
KOTY-UPLNE
100
AcDbDimension
  2
*D15
 10
759.355297
 20
-284.336274
 30
0.0
 11
775.673965
 21
-268.586274
 31
0.0
 12
-3943.32739
 22
-1238.242654
 32
0.0
 70
   128
  3
UPLNE
100
AcDbAlignedDimension
 13
739.355297
 23
-149.884928
 33
0.0
 14
759.355297
 24
-149.884928
 34
0.0
100
AcDbRotatedDimension
1001
ACAD
1000
DSTYLE
1002
{
1070
    40
1040
3.0
1070
   147
1040
2.0
1002
}
  0
DIMENSION
  5
BB
100
AcDbEntity
  8
KOTY-UPLNE
100
AcDbDimension
  2
*D14
 10
739.355297
 20
-284.336274
 30
0.0
 11
729.355297
 21
-307.803193
 31
0.0
 12
-3943.32739
 22
-1238.242654
 32
0.0
 70
   128
  3
UPLNE
100
AcDbAlignedDimension
 13
719.355297
 23
-149.884928
 33
0.0
 14
739.355297
 24
-149.884928
 34
0.0
100
AcDbRotatedDimension
1001
ACAD
1000
DSTYLE
1002
{
1070
    40
1040
3.0
1070
   147
1040
2.0
1002
}
  0
DIMENSION
  5
CB
100
AcDbEntity
  8
KOTY-UPLNE
100
AcDbDimension
  2
*D13
 10
719.355297
 20
-284.336274
 30
0.0
 11
652.355297
 21
-268.676274
 31
0.0
 12
-3943.32739
 22
-1238.242654
 32
0.0
  3
UPLNE
100
AcDbAlignedDimension
 13
585.355297
 23
-149.884928
 33
0.0
 14
719.355297
 24
-149.884928
 34
0.0
100
AcDbRotatedDimension
1001
ACAD
1000
DSTYLE
1002
{
1070
    40
1040
3.0
1070
   147
1040
2.0
1002
}
  0
DIMENSION
  5
D8
100
AcDbEntity
  8
KOTY-UPLNE
100
AcDbDimension
  2
*D12
 10
585.355297
 20
-284.336274
 30
0.0
 11
575.355297
 21
-305.828264
 31
0.0
 12
-3943.32739
 22
-1238.242654
 32
0.0
 70
   128
  3
UPLNE
100
AcDbAlignedDimension
 13
565.355297
 23
-149.884928
 33
0.0
 14
585.355297
 24
-149.884928
 34
0.0
100
AcDbRotatedDimension
1001
ACAD
1000
DSTYLE
1002
{
1070
    40
1040
3.0
1070
   147
1040
2.0
1002
}
  0
DIMENSION
  5
E8
100
AcDbEntity
  8
KOTY-UPLNE
100
AcDbDimension
  2
*D11
 10
565.355297
 20
-284.336274
 30
0.0
 11
522.57088
 21
-268.586274
 31
0.0
 12
-3943.32739
 22
-1238.242654
 32
0.0
 70
   128
  3
UPLNE
100
AcDbAlignedDimension
 13
545.355297
 23
-149.884928
 33
0.0
 14
565.355297
 24
-149.884928
 34
0.0
100
AcDbRotatedDimension
1001
ACAD
1000
DSTYLE
1002
{
1070
    40
1040
3.0
1070
   147
1040
2.0
1002
}
  0
MTEXT
  5
F8
100
AcDbEntity
  8
KOTY-UPLNE
  6
BYBLOCK
 62
     5
100
AcDbMText
 10
669.486575
 20
-85.198963
 30
0.0
 40
16.5
 41
0.0
 71
     5
 72
     1
  1
všechna zaoblení R=5
  0
LWPOLYLINE
  5
F9
100
AcDbEntity
  8
TRAPEZ-VELKY
100
AcDbPolyline
 90
        6
 70
     0
 43
5.0
 10
579.807204
 20
-153.080709
 10
592.87704
 20
-162.133907
 42
0.131398
 10
595.372697
 20
-162.801276
 10
709.337897
 20
-162.801276
 42
0.131398
 10
711.833555
 20
-162.133907
 10
724.903391
 20
-153.080709
  0
MTEXT
  5
FA
100
AcDbEntity
  8
POPIS
100
AcDbMText
 10
661.730741
 20
-42.124031
 30
0.0
 40
40.0
 41
1.0
 71
     5
 72
     1
  1
TR 110/333
  7
STYLE1
  0
MTEXT
  5
FC
100
AcDbEntity
  8
POZICE
100
AcDbMText
 10
816.15859
 20
-154.554207
 30
0.0
 40
41.73
 41
1.0
 71
     5
 72
     1
  1
A
  7
STYLE1
  0
DIMENSION
  5
FD
100
AcDbEntity
  8
KOTY-UPLNE
100
AcDbDimension
  2
*D2
 10
1205.162791
 20
-239.884928
 30
0.0
 11
1189.412791
 21
-293.253293
 31
0.0
 12
-3943.32739
 22
-1238.242654
 32
0.0
 70
   128
  3
UPLNE
100
AcDbAlignedDimension
 13
1171.355297
 23
-259.884928
 33
0.0
 14
1126.96521
 24
-239.884928
 34
0.0
 50
90.0
100
AcDbRotatedDimension
1001
ACAD
1000
DSTYLE
1002
{
1070
    40
1040
3.0
1070
   147
1040
2.0
1002
}
  0
DIMENSION
  5
10D
100
AcDbEntity
  8
KOTY-UPLNE
100
AcDbDimension
  2
*D5
 10
1274.247902
 20
-259.884928
 30
0.0
 11
1258.587902
 21
-204.884928
 31
0.0
 12
-3943.32739
 22
-1238.242654
 32
0.0
  3
UPLNE
100
AcDbAlignedDimension
 13
1092.355297
 23
-149.884928
 33
0.0
 14
1171.355297
 24
-259.884928
 34
0.0
 50
90.0
100
AcDbRotatedDimension
1001
ACAD
1000
DSTYLE
1002
{
1070
    40
1040
3.0
1070
   147
1040
2.0
1002
}
  0
DIMENSION
  5
11A
100
AcDbEntity
  8
KOTY-UPLNE
100
AcDbDimension
  2
*D0
 10
1205.162791
 20
-169.884928
 30
0.0
 11
1189.412791
 21
-125.965515
 31
0.0
 12
-3943.32739
 22
-1238.242654
 32
0.0
 70
   128
  3
UPLNE
100
AcDbAlignedDimension
 13
1092.355297
 23
-149.884928
 33
0.0
 14
1097.745384
 24
-169.884928
 34
0.0
 50
90.0
100
AcDbRotatedDimension
1001
ACAD
1000
DSTYLE
1002
{
1070
    40
1040
3.0
1070
   147
1040
2.0
1002
}
  0
LWPOLYLINE
  5
12A
100
AcDbEntity
  8
TRAPEZ-VELKY
100
AcDbPolyline
 90
        6
 70
     0
 43
5.0
 10
912.807204
 20
-153.080709
 10
925.87704
 20
-162.133907
 42
0.131398
 10
928.372697
 20
-162.801276
 10
1042.337897
 20
-162.801276
 42
0.131398
 10
1044.833555
 20
-162.133907
 10
1057.903391
 20
-153.080709
  0
DIMENSION
  5
12B
100
AcDbEntity
  8
KOTY-UPLNE
100
AcDbDimension
  2
*D4
 10
1205.162791
 20
-225.884928
 30
0.0
 11
1189.502791
 21
-204.884928
 31
0.0
 12
-3943.32739
 22
-1238.242654
 32
0.0
  3
UPLNE
100
AcDbAlignedDimension
 13
1106.695706
 23
-183.884928
 33
0.0
 14
1118.014889
 24
-225.884928
 34
0.0
 50
90.0
100
AcDbRotatedDimension
1001
ACAD
1000
DSTYLE
1002
{
1070
    40
1040
3.0
1070
   147
1040
2.0
1002
}
  0
DIMENSION
  5
13A
100
AcDbEntity
  8
KOTY-UPLNE
100
AcDbDimension
  2
*D3
 10
1205.162791
 20
-225.884928
 30
0.0
 11
1226.538942
 21
-239.349461
 31
0.0
 12
-3943.32739
 22
-1238.242654
 32
0.0
 70
   128
  3
UPLNE
100
AcDbAlignedDimension
 13
1126.96521
 23
-239.884928
 33
0.0
 14
1118.014889
 24
-225.884928
 34
0.0
 50
90.0
100
AcDbRotatedDimension
1001
ACAD
1000
DSTYLE
1002
{
1070
    40
1040
3.0
1070
   147
1040
2.0
1002
}
  0
DIMENSION
  5
14A
100
AcDbEntity
  8
KOTY-UPLNE
100
AcDbDimension
  2
*D1
 10
1205.162791
 20
-183.884928
 30
0.0
 11
1226.538942
 21
-168.716845
 31
0.0
 12
-3943.32739
 22
-1238.242654
 32
0.0
 70
   128
  3
UPLNE
100
AcDbAlignedDimension
 13
1097.745384
 23
-169.884928
 33
0.0
 14
1106.695706
 24
-183.884928
 34
0.0
 50
90.0
100
AcDbRotatedDimension
1001
ACAD
1000
DSTYLE
1002
{
1070
    40
1040
3.0
1070
   147
1040
2.0
1002
}
  0
ENDSEC
  0
SECTION
  2
OBJECTS
  0
DICTIONARY
  5
1A
100
AcDbDictionary
  3
ACAD_GROUP
350
18
  3
ACAD_MLINESTYLE
350
19
  0
DICTIONARY
  5
18
102
{ACAD_REACTORS
330
1A
102
}
100
AcDbDictionary
  0
DICTIONARY
  5
19
102
{ACAD_REACTORS
330
1A
102
}
100
AcDbDictionary
  3
STANDARD
350
1C
  0
MLINESTYLE
  5
1C
102
{ACAD_REACTORS
330
19
102
}
100
AcDbMlineStyle
  2
STANDARD
 70
     0
  3

 62
   256
 51
90.0
 52
90.0
 71
     2
 49
0.5
 62
   256
  6
BYLAYER
 49
-0.5
 62
   256
  6
BYLAYER
  0
ENDSEC
  0
EOF
