  0
SECTION
  2
HEADER
  9
$ACADVER
  1
AC1014
  9
$ACADMAINTVER
 70
     0
  9
$DWGCODEPAGE
  3
ANSI_1250
  9
$INSBASE
 10
0.0
 20
0.0
 30
0.0
  9
$EXTMIN
 10
0.0
 20
-425.001233
 30
0.0
  9
$EXTMAX
 10
1349.672502
 20
0.0
 30
0.0
  9
$LIMMIN
 10
-1000.0
 20
-1000.0
  9
$LIMMAX
 10
1000.0
 20
1000.0
  9
$ORTHOMODE
 70
     0
  9
$REGENMODE
 70
     1
  9
$FILLMODE
 70
     1
  9
$QTEXTMODE
 70
     0
  9
$MIRRTEXT
 70
     0
  9
$DRAGMODE
 70
     2
  9
$LTSCALE
 40
3.0
  9
$OSMODE
 70
    32
  9
$ATTMODE
 70
     1
  9
$TEXTSIZE
 40
50.0
  9
$TRACEWID
 40
0.05
  9
$TEXTSTYLE
  7
STANDARD
  9
$CLAYER
  8
KOTY-UPLNE
  9
$CELTYPE
  6
BYLAYER
  9
$CECOLOR
 62
   256
  9
$CELTSCALE
 40
1.0
  9
$DELOBJ
 70
     1
  9
$DISPSILH
 70
     0
  9
$DIMSCALE
 40
3.0
  9
$DIMASZ
 40
5.0
  9
$DIMEXO
 40
1.0
  9
$DIMDLI
 40
0.0
  9
$DIMRND
 40
1.0
  9
$DIMDLE
 40
1.0
  9
$DIMEXE
 40
2.0
  9
$DIMTP
 40
0.0
  9
$DIMTM
 40
0.0
  9
$DIMTXT
 40
6.44
  9
$DIMCEN
 40
1.0
  9
$DIMTSZ
 40
0.0
  9
$DIMTOL
 70
     0
  9
$DIMLIM
 70
     0
  9
$DIMTIH
 70
     0
  9
$DIMTOH
 70
     0
  9
$DIMSE1
 70
     0
  9
$DIMSE2
 70
     0
  9
$DIMTAD
 70
     3
  9
$DIMZIN
 70
     0
  9
$DIMBLK
  1

  9
$DIMASO
 70
     1
  9
$DIMSHO
 70
     0
  9
$DIMPOST
  1

  9
$DIMAPOST
  1

  9
$DIMALT
 70
     0
  9
$DIMALTD
 70
     2
  9
$DIMALTF
 40
25.4
  9
$DIMLFAC
 40
1.0
  9
$DIMTOFL
 70
     1
  9
$DIMTVP
 40
0.0
  9
$DIMTIX
 70
     1
  9
$DIMSOXD
 70
     0
  9
$DIMSAH
 70
     0
  9
$DIMBLK1
  1

  9
$DIMBLK2
  1

  9
$DIMSTYLE
  2
UPLNE
  9
$DIMCLRD
 70
   256
  9
$DIMCLRE
 70
   256
  9
$DIMCLRT
 70
     5
  9
$DIMTFAC
 40
1.0
  9
$DIMGAP
 40
2.0
  9
$DIMJUST
 70
     0
  9
$DIMSD1
 70
     0
  9
$DIMSD2
 70
     0
  9
$DIMTOLJ
 70
     1
  9
$DIMTZIN
 70
     0
  9
$DIMALTZ
 70
     0
  9
$DIMALTTZ
 70
     0
  9
$DIMFIT
 70
     5
  9
$DIMUPT
 70
     0
  9
$DIMUNIT
 70
     2
  9
$DIMDEC
 70
     0
  9
$DIMTDEC
 70
     0
  9
$DIMALTU
 70
     2
  9
$DIMALTTD
 70
     2
  9
$DIMTXSTY
  7
STANDARD
  9
$DIMAUNIT
 70
     0
  9
$LUNITS
 70
     2
  9
$LUPREC
 70
     2
  9
$SKETCHINC
 40
0.1
  9
$FILLETRAD
 40
5.0
  9
$AUNITS
 70
     0
  9
$AUPREC
 70
     2
  9
$MENU
  1
acad
  9
$ELEVATION
 40
0.0
  9
$PELEVATION
 40
0.0
  9
$THICKNESS
 40
0.0
  9
$LIMCHECK
 70
     0
  9
$BLIPMODE
 70
     1
  9
$CHAMFERA
 40
0.0
  9
$CHAMFERB
 40
0.0
  9
$CHAMFERC
 40
0.0
  9
$CHAMFERD
 40
0.0
  9
$SKPOLY
 70
     0
  9
$TDCREATE
 40
2448722.252204629
  9
$TDUPDATE
 40
2452465.896520023
  9
$TDINDWG
 40
2.5464321759
  9
$TDUSRTIMER
 40
2.5464321759
  9
$USRTIMER
 70
     1
  9
$ANGBASE
 50
0.0
  9
$ANGDIR
 70
     0
  9
$PDMODE
 70
     0
  9
$PDSIZE
 40
0.0
  9
$PLINEWID
 40
0.0
  9
$COORDS
 70
     2
  9
$SPLFRAME
 70
     0
  9
$SPLINETYPE
 70
     6
  9
$SPLINESEGS
 70
     8
  9
$ATTDIA
 70
     0
  9
$ATTREQ
 70
     1
  9
$HANDLING
 70
     1
  9
$HANDSEED
  5
F8
  9
$SURFTAB1
 70
     6
  9
$SURFTAB2
 70
     6
  9
$SURFTYPE
 70
     6
  9
$SURFU
 70
     6
  9
$SURFV
 70
     6
  9
$UCSNAME
  2

  9
$UCSORG
 10
0.0
 20
0.0
 30
0.0
  9
$UCSXDIR
 10
1.0
 20
0.0
 30
0.0
  9
$UCSYDIR
 10
0.0
 20
1.0
 30
0.0
  9
$PUCSNAME
  2

  9
$PUCSORG
 10
0.0
 20
0.0
 30
0.0
  9
$PUCSXDIR
 10
1.0
 20
0.0
 30
0.0
  9
$PUCSYDIR
 10
0.0
 20
1.0
 30
0.0
  9
$USERI1
 70
     1
  9
$USERI2
 70
     0
  9
$USERI3
 70
     0
  9
$USERI4
 70
     0
  9
$USERI5
 70
     0
  9
$USERR1
 40
0.0
  9
$USERR2
 40
0.0
  9
$USERR3
 40
0.0
  9
$USERR4
 40
0.0
  9
$USERR5
 40
0.0
  9
$WORLDVIEW
 70
     1
  9
$SHADEDGE
 70
     3
  9
$SHADEDIF
 70
    70
  9
$TILEMODE
 70
     1
  9
$MAXACTVP
 70
    16
  9
$PINSBASE
 10
0.0
 20
0.0
 30
0.0
  9
$PLIMCHECK
 70
     0
  9
$PEXTMIN
 10
1.000000E+20
 20
1.000000E+20
 30
1.000000E+20
  9
$PEXTMAX
 10
-1.000000E+20
 20
-1.000000E+20
 30
-1.000000E+20
  9
$PLIMMIN
 10
0.0
 20
0.0
  9
$PLIMMAX
 10
12.0
 20
9.0
  9
$UNITMODE
 70
     0
  9
$VISRETAIN
 70
     0
  9
$PLINEGEN
 70
     0
  9
$PSLTSCALE
 70
     0
  9
$TREEDEPTH
 70
  3020
  9
$PICKSTYLE
 70
     0
  9
$CMLSTYLE
  2
STANDARD
  9
$CMLJUST
 70
     0
  9
$CMLSCALE
 40
1.0
  9
$PROXYGRAPHICS
 70
     1
  9
$MEASUREMENT
 70
     0
  0
ENDSEC
  0
SECTION
  2
CLASSES
  0
CLASS
  1
LWPOLYLINE
  2
AcDbPolyline
  3
"AutoCAD"
 90
        0
280
     0
281
     1
  0
CLASS
  1
DICTIONARYVAR
  2
AcDbDictionaryVar
  3
"AutoCAD"
 90
        0
280
     0
281
     0
  0
ENDSEC
  0
SECTION
  2
TABLES
  0
TABLE
  2
VPORT
  5
12
100
AcDbSymbolTable
 70
     2
  0
VPORT
  5
F7
100
AcDbSymbolTableRecord
100
AcDbViewportTableRecord
  2
*ACTIVE
 70
     0
 10
0.0
 20
0.0
 11
1.0
 21
1.0
 12
756.512355
 22
-254.526644
 13
0.0
 23
0.0
 14
1.0
 24
1.0
 15
600.0
 25
600.0
 16
0.0
 26
0.0
 36
1.0
 17
0.0
 27
0.0
 37
0.0
 40
748.294968
 41
2.224444
 42
50.0
 43
0.0
 44
0.0
 50
0.0
 51
0.0
 71
     0
 72
   100
 73
     1
 74
     0
 75
     0
 76
     0
 77
     0
 78
     0
  0
ENDTAB
  0
TABLE
  2
LTYPE
  5
D
100
AcDbSymbolTable
 70
     1
  0
LTYPE
  5
E
100
AcDbSymbolTableRecord
100
AcDbLinetypeTableRecord
  2
BYBLOCK
 70
     0
  3

 72
    65
 73
     0
 40
0.0
  0
LTYPE
  5
F
100
AcDbSymbolTableRecord
100
AcDbLinetypeTableRecord
  2
BYLAYER
 70
     0
  3

 72
    65
 73
     0
 40
0.0
  0
LTYPE
  5
5
100
AcDbSymbolTableRecord
100
AcDbLinetypeTableRecord
  2
CONTINUOUS
 70
     0
  3
Solid line
 72
    65
 73
     0
 40
0.0
  0
ENDTAB
  0
TABLE
  2
LAYER
  5
A
100
AcDbSymbolTable
 70
     7
  0
LAYER
  5
4
100
AcDbSymbolTableRecord
100
AcDbLayerTableRecord
  2
0
 70
     0
 62
     7
  6
CONTINUOUS
  0
LAYER
  5
1B
100
AcDbSymbolTableRecord
100
AcDbLayerTableRecord
  2
KOTY-UPLNE
 70
     0
 62
     7
  6
CONTINUOUS
  0
LAYER
  5
51
100
AcDbSymbolTableRecord
100
AcDbLayerTableRecord
  2
RAMEC
 70
     0
 62
     5
  6
CONTINUOUS
  0
LAYER
  5
B9
100
AcDbSymbolTableRecord
100
AcDbLayerTableRecord
  2
POZICE
 70
     0
 62
     1
  6
CONTINUOUS
  0
LAYER
  5
4E
100
AcDbSymbolTableRecord
100
AcDbLayerTableRecord
  2
POPIS
 70
     0
 62
     1
  6
CONTINUOUS
  0
LAYER
  5
27
100
AcDbSymbolTableRecord
100
AcDbLayerTableRecord
  2
DEFPOINTS
 70
     0
 62
     7
  6
CONTINUOUS
  0
LAYER
  5
4C
100
AcDbSymbolTableRecord
100
AcDbLayerTableRecord
  2
TRAPEZ-VELKY
 70
     0
 62
     7
  6
CONTINUOUS
  0
ENDTAB
  0
TABLE
  2
STYLE
  5
B
100
AcDbSymbolTable
 70
     2
  0
STYLE
  5
C
100
AcDbSymbolTableRecord
100
AcDbTextStyleTableRecord
  2
STANDARD
 70
     0
 40
0.0
 41
0.9
 50
0.0
 71
     0
 42
50.0
  3
simplex.shx
  4

  0
STYLE
  5
4F
100
AcDbSymbolTableRecord
100
AcDbTextStyleTableRecord
  2
STYLE1
 70
     0
 40
0.0
 41
0.9
 50
0.0
 71
     0
 42
50.0
  3
simplex.shx
  4

  0
ENDTAB
  0
TABLE
  2
VIEW
  5
10
100
AcDbSymbolTable
 70
     0
  0
ENDTAB
  0
TABLE
  2
UCS
  5
11
100
AcDbSymbolTable
 70
     0
  0
ENDTAB
  0
TABLE
  2
APPID
  5
14
100
AcDbSymbolTable
 70
     1
  0
APPID
  5
15
100
AcDbSymbolTableRecord
100
AcDbRegAppTableRecord
  2
ACAD
 70
     0
  0
ENDTAB
  0
TABLE
  2
DIMSTYLE
  5
16
100
AcDbSymbolTable
 70
     1
  0
DIMSTYLE
105
1D
102
{ACAD_REACTORS
330
8B
330
7E
330
6F
330
62
330
3D
330
A9
330
52
330
9A
330
E7
330
D7
330
C8
330
BB
330
2E
330
1E
102
}
100
AcDbSymbolTableRecord
100
AcDbDimStyleTableRecord
  2
UPLNE
 70
     0
  3

  4

  5

  6

  7

 40
5.0
 41
5.0
 42
1.0
 43
0.0
 44
2.0
 45
1.0
 46
1.0
 47
0.0
 48
0.0
140
6.44
141
1.0
142
0.0
143
25.4
144
1.0
145
0.0
146
1.0
147
1.0
 71
     0
 72
     0
 73
     0
 74
     0
 75
     0
 76
     0
 77
     3
 78
     0
170
     0
171
     2
172
     1
173
     0
174
     1
175
     0
176
   256
177
   256
178
     5
270
     2
271
     0
272
     0
273
     2
274
     2
340
C
275
     0
280
     0
281
     0
282
     0
283
     1
284
     0
285
     0
286
     0
287
     5
288
     0
  0
ENDTAB
  0
TABLE
  2
BLOCK_RECORD
  5
1
100
AcDbSymbolTable
 70
    14
  0
BLOCK_RECORD
  5
2
100
AcDbSymbolTableRecord
100
AcDbBlockTableRecord
  2
*MODEL_SPACE
  0
BLOCK_RECORD
  5
7
100
AcDbSymbolTableRecord
100
AcDbBlockTableRecord
  2
*PAPER_SPACE
  0
BLOCK_RECORD
  5
8C
100
AcDbSymbolTableRecord
100
AcDbBlockTableRecord
  2
*D0
  0
BLOCK_RECORD
  5
7F
100
AcDbSymbolTableRecord
100
AcDbBlockTableRecord
  2
*D1
  0
BLOCK_RECORD
  5
70
100
AcDbSymbolTableRecord
100
AcDbBlockTableRecord
  2
*D2
  0
BLOCK_RECORD
  5
63
100
AcDbSymbolTableRecord
100
AcDbBlockTableRecord
  2
*D3
  0
BLOCK_RECORD
  5
3E
100
AcDbSymbolTableRecord
100
AcDbBlockTableRecord
  2
*D4
  0
BLOCK_RECORD
  5
AA
100
AcDbSymbolTableRecord
100
AcDbBlockTableRecord
  2
*D5
  0
BLOCK_RECORD
  5
53
100
AcDbSymbolTableRecord
100
AcDbBlockTableRecord
  2
*D6
  0
BLOCK_RECORD
  5
9B
100
AcDbSymbolTableRecord
100
AcDbBlockTableRecord
  2
*D7
  0
BLOCK_RECORD
  5
E8
100
AcDbSymbolTableRecord
100
AcDbBlockTableRecord
  2
*D8
  0
BLOCK_RECORD
  5
D8
100
AcDbSymbolTableRecord
100
AcDbBlockTableRecord
  2
*D9
  0
BLOCK_RECORD
  5
C9
100
AcDbSymbolTableRecord
100
AcDbBlockTableRecord
  2
*D10
  0
BLOCK_RECORD
  5
BC
100
AcDbSymbolTableRecord
100
AcDbBlockTableRecord
  2
*D11
  0
BLOCK_RECORD
  5
2F
100
AcDbSymbolTableRecord
100
AcDbBlockTableRecord
  2
*D12
  0
BLOCK_RECORD
  5
1F
100
AcDbSymbolTableRecord
100
AcDbBlockTableRecord
  2
*D13
  0
ENDTAB
  0
ENDSEC
  0
SECTION
  2
BLOCKS
  0
BLOCK
  5
3
100
AcDbEntity
  8
0
100
AcDbBlockBegin
  2
*MODEL_SPACE
 70
     0
 10
0.0
 20
0.0
 30
0.0
  3
*MODEL_SPACE
  1

  0
ENDBLK
  5
6
100
AcDbEntity
  8
0
100
AcDbBlockEnd
  0
BLOCK
  5
8
100
AcDbEntity
 67
     1
  8
0
100
AcDbBlockBegin
  2
*PAPER_SPACE
 70
     0
 10
0.0
 20
0.0
 30
0.0
  3
*PAPER_SPACE
  1

  0
ENDBLK
  5
9
100
AcDbEntity
 67
     1
  8
0
100
AcDbBlockEnd
  0
BLOCK
  5
98
100
AcDbEntity
  8
0
100
AcDbBlockBegin
  2
*D0
 70
     1
 10
0.0
 20
0.0
 30
0.0
  3
*D0
  1

  0
LINE
  5
8D
100
AcDbEntity
  8
0
  6
BYBLOCK
100
AcDbLine
 10
2616.181687
 20
-5015.542274
 30
0.0
 11
2616.181687
 21
-4867.730592
 31
0.0
  0
LINE
  5
8E
100
AcDbEntity
  8
0
  6
BYBLOCK
100
AcDbLine
 10
2651.181687
 20
-4909.542274
 30
0.0
 11
2651.181687
 21
-4867.730592
 31
0.0
  0
LINE
  5
8F
100
AcDbEntity
  8
0
  6
BYBLOCK
100
AcDbLine
 10
2601.181687
 20
-4873.730592
 30
0.0
 11
2586.181687
 21
-4873.730592
 31
0.0
  0
LINE
  5
90
100
AcDbEntity
  8
0
  6
BYBLOCK
100
AcDbLine
 10
2666.181687
 20
-4873.730592
 30
0.0
 11
2681.181687
 21
-4873.730592
 31
0.0
  0
LINE
  5
91
100
AcDbEntity
  8
0
  6
BYBLOCK
100
AcDbLine
 10
2616.181687
 20
-4873.730592
 30
0.0
 11
2651.181687
 21
-4873.730592
 31
0.0
  0
SOLID
  5
92
100
AcDbEntity
  8
0
  6
BYBLOCK
100
AcDbTrace
 10
2601.181687
 20
-4871.230592
 30
0.0
 11
2601.181687
 21
-4876.230592
 31
0.0
 12
2616.181687
 22
-4873.730592
 32
0.0
 13
2616.181687
 23
-4873.730592
 33
0.0
  0
SOLID
  5
93
100
AcDbEntity
  8
0
  6
BYBLOCK
100
AcDbTrace
 10
2666.181687
 20
-4871.230592
 30
0.0
 11
2666.181687
 21
-4876.230592
 31
0.0
 12
2651.181687
 22
-4873.730592
 32
0.0
 13
2651.181687
 23
-4873.730592
 33
0.0
  0
MTEXT
  5
94
100
AcDbEntity
  8
0
  6
BYBLOCK
 62
     5
100
AcDbMText
 10
2633.681687
 20
-4858.070592
 30
0.0
 40
19.32
 41
0.0
 71
     5
 72
     1
  1
\A1;35
  0
POINT
  5
95
100
AcDbEntity
  8
DEFPOINTS
  6
BYBLOCK
 62
     0
100
AcDbPoint
 10
2616.181687
 20
-5018.542274
 30
0.0
  0
POINT
  5
96
100
AcDbEntity
  8
DEFPOINTS
  6
BYBLOCK
 62
     0
100
AcDbPoint
 10
2651.181687
 20
-4912.542274
 30
0.0
  0
POINT
  5
97
100
AcDbEntity
  8
DEFPOINTS
  6
BYBLOCK
 62
     0
100
AcDbPoint
 10
2651.181687
 20
-4873.730592
 30
0.0
  0
ENDBLK
  5
99
100
AcDbEntity
  8
0
100
AcDbBlockEnd
  0
BLOCK
  5
89
100
AcDbEntity
  8
0
100
AcDbBlockBegin
  2
*D1
 70
     1
 10
0.0
 20
0.0
 30
0.0
  3
*D1
  1

  0
LINE
  5
80
100
AcDbEntity
  8
0
  6
BYBLOCK
100
AcDbLine
 10
2651.181687
 20
-4909.542274
 30
0.0
 11
2651.181687
 21
-4867.730592
 31
0.0
  0
LINE
  5
81
100
AcDbEntity
  8
0
  6
BYBLOCK
100
AcDbLine
 10
2791.181687
 20
-4909.542274
 30
0.0
 11
2791.181687
 21
-4867.730592
 31
0.0
  0
LINE
  5
82
100
AcDbEntity
  8
0
  6
BYBLOCK
100
AcDbLine
 10
2666.181687
 20
-4873.730592
 30
0.0
 11
2776.181687
 21
-4873.730592
 31
0.0
  0
SOLID
  5
83
100
AcDbEntity
  8
0
  6
BYBLOCK
100
AcDbTrace
 10
2666.181687
 20
-4871.230592
 30
0.0
 11
2666.181687
 21
-4876.230592
 31
0.0
 12
2651.181687
 22
-4873.730592
 32
0.0
 13
2651.181687
 23
-4873.730592
 33
0.0
  0
SOLID
  5
84
100
AcDbEntity
  8
0
  6
BYBLOCK
100
AcDbTrace
 10
2776.181687
 20
-4871.230592
 30
0.0
 11
2776.181687
 21
-4876.230592
 31
0.0
 12
2791.181687
 22
-4873.730592
 32
0.0
 13
2791.181687
 23
-4873.730592
 33
0.0
  0
MTEXT
  5
85
100
AcDbEntity
  8
0
  6
BYBLOCK
 62
     5
100
AcDbMText
 10
2721.181687
 20
-4858.070592
 30
0.0
 40
19.32
 41
0.0
 71
     5
 72
     1
  1
\A1;140
  0
POINT
  5
86
100
AcDbEntity
  8
DEFPOINTS
  6
BYBLOCK
 62
     0
100
AcDbPoint
 10
2651.181687
 20
-4912.542274
 30
0.0
  0
POINT
  5
87
100
AcDbEntity
  8
DEFPOINTS
  6
BYBLOCK
 62
     0
100
AcDbPoint
 10
2791.181687
 20
-4912.542274
 30
0.0
  0
POINT
  5
88
100
AcDbEntity
  8
DEFPOINTS
  6
BYBLOCK
 62
     0
100
AcDbPoint
 10
2791.181687
 20
-4873.730592
 30
0.0
  0
ENDBLK
  5
8A
100
AcDbEntity
  8
0
100
AcDbBlockEnd
  0
BLOCK
  5
7C
100
AcDbEntity
  8
0
100
AcDbBlockBegin
  2
*D2
 70
     1
 10
0.0
 20
0.0
 30
0.0
  3
*D2
  1

  0
LINE
  5
71
100
AcDbEntity
  8
0
  6
BYBLOCK
100
AcDbLine
 10
2791.181687
 20
-4909.542274
 30
0.0
 11
2791.181687
 21
-4867.730592
 31
0.0
  0
LINE
  5
72
100
AcDbEntity
  8
0
  6
BYBLOCK
100
AcDbLine
 10
2826.181687
 20
-5015.542274
 30
0.0
 11
2826.181687
 21
-4867.730592
 31
0.0
  0
LINE
  5
73
100
AcDbEntity
  8
0
  6
BYBLOCK
100
AcDbLine
 10
2776.181687
 20
-4873.730592
 30
0.0
 11
2761.181687
 21
-4873.730592
 31
0.0
  0
LINE
  5
74
100
AcDbEntity
  8
0
  6
BYBLOCK
100
AcDbLine
 10
2841.181687
 20
-4873.730592
 30
0.0
 11
2856.181687
 21
-4873.730592
 31
0.0
  0
LINE
  5
75
100
AcDbEntity
  8
0
  6
BYBLOCK
100
AcDbLine
 10
2791.181687
 20
-4873.730592
 30
0.0
 11
2826.181687
 21
-4873.730592
 31
0.0
  0
SOLID
  5
76
100
AcDbEntity
  8
0
  6
BYBLOCK
100
AcDbTrace
 10
2776.181687
 20
-4871.230592
 30
0.0
 11
2776.181687
 21
-4876.230592
 31
0.0
 12
2791.181687
 22
-4873.730592
 32
0.0
 13
2791.181687
 23
-4873.730592
 33
0.0
  0
SOLID
  5
77
100
AcDbEntity
  8
0
  6
BYBLOCK
100
AcDbTrace
 10
2841.181687
 20
-4871.230592
 30
0.0
 11
2841.181687
 21
-4876.230592
 31
0.0
 12
2826.181687
 22
-4873.730592
 32
0.0
 13
2826.181687
 23
-4873.730592
 33
0.0
  0
MTEXT
  5
78
100
AcDbEntity
  8
0
  6
BYBLOCK
 62
     5
100
AcDbMText
 10
2808.681687
 20
-4858.070592
 30
0.0
 40
19.32
 41
0.0
 71
     5
 72
     1
  1
\A1;35
  0
POINT
  5
79
100
AcDbEntity
  8
DEFPOINTS
  6
BYBLOCK
 62
     0
100
AcDbPoint
 10
2791.181687
 20
-4912.542274
 30
0.0
  0
POINT
  5
7A
100
AcDbEntity
  8
DEFPOINTS
  6
BYBLOCK
 62
     0
100
AcDbPoint
 10
2826.181687
 20
-5018.542274
 30
0.0
  0
POINT
  5
7B
100
AcDbEntity
  8
DEFPOINTS
  6
BYBLOCK
 62
     0
100
AcDbPoint
 10
2826.181687
 20
-4873.730592
 30
0.0
  0
ENDBLK
  5
7D
100
AcDbEntity
  8
0
100
AcDbBlockEnd
  0
BLOCK
  5
6D
100
AcDbEntity
  8
0
100
AcDbBlockBegin
  2
*D3
 70
     1
 10
0.0
 20
0.0
 30
0.0
  3
*D3
  1

  0
LINE
  5
64
100
AcDbEntity
  8
0
  6
BYBLOCK
100
AcDbLine
 10
2596.182687
 20
-5021.542274
 30
0.0
 11
2596.182687
 21
-5084.542274
 31
0.0
  0
LINE
  5
65
100
AcDbEntity
  8
0
  6
BYBLOCK
100
AcDbLine
 10
2846.180687
 20
-5021.542274
 30
0.0
 11
2846.180687
 21
-5084.542274
 31
0.0
  0
LINE
  5
66
100
AcDbEntity
  8
0
  6
BYBLOCK
100
AcDbLine
 10
2611.182687
 20
-5078.542274
 30
0.0
 11
2831.180687
 21
-5078.542274
 31
0.0
  0
SOLID
  5
67
100
AcDbEntity
  8
0
  6
BYBLOCK
100
AcDbTrace
 10
2611.182687
 20
-5076.042274
 30
0.0
 11
2611.182687
 21
-5081.042274
 31
0.0
 12
2596.182687
 22
-5078.542274
 32
0.0
 13
2596.182687
 23
-5078.542274
 33
0.0
  0
SOLID
  5
68
100
AcDbEntity
  8
0
  6
BYBLOCK
100
AcDbTrace
 10
2831.180687
 20
-5076.042274
 30
0.0
 11
2831.180687
 21
-5081.042274
 31
0.0
 12
2846.180687
 22
-5078.542274
 32
0.0
 13
2846.180687
 23
-5078.542274
 33
0.0
  0
MTEXT
  5
69
100
AcDbEntity
  8
0
  6
BYBLOCK
 62
     5
100
AcDbMText
 10
2721.181687
 20
-5062.882274
 30
0.0
 40
19.32
 41
0.0
 71
     5
 72
     1
  1
\A1;250
  0
POINT
  5
6A
100
AcDbEntity
  8
DEFPOINTS
  6
BYBLOCK
 62
     0
100
AcDbPoint
 10
2596.182687
 20
-5018.542274
 30
0.0
  0
POINT
  5
6B
100
AcDbEntity
  8
DEFPOINTS
  6
BYBLOCK
 62
     0
100
AcDbPoint
 10
2846.180687
 20
-5018.542274
 30
0.0
  0
POINT
  5
6C
100
AcDbEntity
  8
DEFPOINTS
  6
BYBLOCK
 62
     0
100
AcDbPoint
 10
2846.180687
 20
-5078.542274
 30
0.0
  0
ENDBLK
  5
6E
100
AcDbEntity
  8
0
100
AcDbBlockEnd
  0
BLOCK
  5
48
100
AcDbEntity
  8
0
100
AcDbBlockBegin
  2
*D4
 70
     1
 10
0.0
 20
0.0
 30
0.0
  3
*D4
  1

  0
LINE
  5
3F
100
AcDbEntity
  8
0
  6
BYBLOCK
100
AcDbLine
 10
2596.182687
 20
-5031.542274
 30
0.0
 11
2596.182687
 21
-5144.542274
 31
0.0
  0
LINE
  5
40
100
AcDbEntity
  8
0
  6
BYBLOCK
100
AcDbLine
 10
3346.176687
 20
-5021.542274
 30
0.0
 11
3346.176687
 21
-5144.542274
 31
0.0
  0
LINE
  5
41
100
AcDbEntity
  8
0
  6
BYBLOCK
100
AcDbLine
 10
2611.182687
 20
-5138.542274
 30
0.0
 11
3331.176687
 21
-5138.542274
 31
0.0
  0
SOLID
  5
42
100
AcDbEntity
  8
0
  6
BYBLOCK
100
AcDbTrace
 10
2611.182687
 20
-5136.042274
 30
0.0
 11
2611.182687
 21
-5141.042274
 31
0.0
 12
2596.182687
 22
-5138.542274
 32
0.0
 13
2596.182687
 23
-5138.542274
 33
0.0
  0
SOLID
  5
43
100
AcDbEntity
  8
0
  6
BYBLOCK
100
AcDbTrace
 10
3331.176687
 20
-5136.042274
 30
0.0
 11
3331.176687
 21
-5141.042274
 31
0.0
 12
3346.176687
 22
-5138.542274
 32
0.0
 13
3346.176687
 23
-5138.542274
 33
0.0
  0
MTEXT
  5
44
100
AcDbEntity
  8
0
  6
BYBLOCK
 62
     5
100
AcDbMText
 10
2971.179687
 20
-5122.882274
 30
0.0
 40
19.32
 41
0.0
 71
     5
 72
     1
  1
\A1;750
  0
POINT
  5
45
100
AcDbEntity
  8
DEFPOINTS
  6
BYBLOCK
 62
     0
100
AcDbPoint
 10
2596.182687
 20
-5028.542274
 30
0.0
  0
POINT
  5
46
100
AcDbEntity
  8
DEFPOINTS
  6
BYBLOCK
 62
     0
100
AcDbPoint
 10
3346.176687
 20
-5018.542274
 30
0.0
  0
POINT
  5
47
100
AcDbEntity
  8
DEFPOINTS
  6
BYBLOCK
 62
     0
100
AcDbPoint
 10
3346.176687
 20
-5138.542274
 30
0.0
  0
ENDBLK
  5
49
100
AcDbEntity
  8
0
100
AcDbBlockEnd
  0
BLOCK
  5
B6
100
AcDbEntity
  8
0
100
AcDbBlockBegin
  2
*D5
 70
     1
 10
0.0
 20
0.0
 30
0.0
  3
*D5
  1

  0
LINE
  5
AB
100
AcDbEntity
  8
0
  6
BYBLOCK
100
AcDbLine
 10
3116.177687
 20
-5021.542274
 30
0.0
 11
3116.177687
 21
-5084.542274
 31
0.0
  0
LINE
  5
AC
100
AcDbEntity
  8
0
  6
BYBLOCK
100
AcDbLine
 10
3076.179687
 20
-5021.542274
 30
0.0
 11
3076.179687
 21
-5084.542274
 31
0.0
  0
LINE
  5
AD
100
AcDbEntity
  8
0
  6
BYBLOCK
100
AcDbLine
 10
3131.177687
 20
-5078.542274
 30
0.0
 11
3146.177687
 21
-5078.542274
 31
0.0
  0
LINE
  5
AE
100
AcDbEntity
  8
0
  6
BYBLOCK
100
AcDbLine
 10
3061.179687
 20
-5078.542274
 30
0.0
 11
3046.179687
 21
-5078.542274
 31
0.0
  0
LINE
  5
AF
100
AcDbEntity
  8
0
  6
BYBLOCK
100
AcDbLine
 10
3116.177687
 20
-5078.542274
 30
0.0
 11
3076.179687
 21
-5078.542274
 31
0.0
  0
SOLID
  5
B0
100
AcDbEntity
  8
0
  6
BYBLOCK
100
AcDbTrace
 10
3131.177687
 20
-5076.042274
 30
0.0
 11
3131.177687
 21
-5081.042274
 31
0.0
 12
3116.177687
 22
-5078.542274
 32
0.0
 13
3116.177687
 23
-5078.542274
 33
0.0
  0
SOLID
  5
B1
100
AcDbEntity
  8
0
  6
BYBLOCK
100
AcDbTrace
 10
3061.179687
 20
-5076.042274
 30
0.0
 11
3061.179687
 21
-5081.042274
 31
0.0
 12
3076.179687
 22
-5078.542274
 32
0.0
 13
3076.179687
 23
-5078.542274
 33
0.0
  0
MTEXT
  5
B2
100
AcDbEntity
  8
0
  6
BYBLOCK
 62
     5
100
AcDbMText
 10
3096.178687
 20
-5062.882274
 30
0.0
 40
19.32
 41
0.0
 71
     5
 72
     1
  1
\A1;40
  0
POINT
  5
B3
100
AcDbEntity
  8
DEFPOINTS
  6
BYBLOCK
 62
     0
100
AcDbPoint
 10
3116.177687
 20
-5018.542274
 30
0.0
  0
POINT
  5
B4
100
AcDbEntity
  8
DEFPOINTS
  6
BYBLOCK
 62
     0
100
AcDbPoint
 10
3076.179687
 20
-5018.542274
 30
0.0
  0
POINT
  5
B5
100
AcDbEntity
  8
DEFPOINTS
  6
BYBLOCK
 62
     0
100
AcDbPoint
 10
3076.179687
 20
-5078.542274
 30
0.0
  0
ENDBLK
  5
B7
100
AcDbEntity
  8
0
100
AcDbBlockEnd
  0
BLOCK
  5
60
100
AcDbEntity
  8
0
100
AcDbBlockBegin
  2
*D6
 70
     1
 10
0.0
 20
0.0
 30
0.0
  3
*D6
  1

  0
LINE
  5
54
100
AcDbEntity
  8
0
  6
BYBLOCK
100
AcDbLine
 10
2724.181687
 20
-4919.542274
 30
0.0
 11
2869.741572
 21
-4919.542274
 31
0.0
  0
LINE
  5
55
100
AcDbEntity
  8
0
  6
BYBLOCK
100
AcDbLine
 10
2794.181687
 20
-4912.542274
 30
0.0
 11
2869.741572
 21
-4912.542274
 31
0.0
  0
LINE
  5
56
100
AcDbEntity
  8
0
  6
BYBLOCK
100
AcDbLine
 10
2863.741572
 20
-4934.542274
 30
0.0
 11
2863.741572
 21
-4949.542274
 31
0.0
  0
LINE
  5
57
100
AcDbEntity
  8
0
  6
BYBLOCK
100
AcDbLine
 10
2863.741572
 20
-4897.542274
 30
0.0
 11
2863.741572
 21
-4882.542274
 31
0.0
  0
MTEXT
  5
58
100
AcDbEntity
  8
0
  6
BYBLOCK
 62
     5
100
AcDbMText
 10
2847.991572
 20
-4935.594677
 30
0.0
 40
19.32
 41
0.0
 71
     5
 72
     1
  1
\A1;7
 11
0.0
 21
1.0
 31
0.0
  0
LINE
  5
59
100
AcDbEntity
  8
0
  6
BYBLOCK
100
AcDbLine
 10
2863.741572
 20
-4919.542274
 30
0.0
 11
2863.741572
 21
-4912.542274
 31
0.0
  0
LINE
  5
5A
100
AcDbEntity
  8
0
  6
BYBLOCK
100
AcDbLine
 10
2863.741572
 20
-4919.542274
 30
0.0
 11
2863.741572
 21
-4912.542274
 31
0.0
  0
SOLID
  5
5B
100
AcDbEntity
  8
0
  6
BYBLOCK
100
AcDbTrace
 10
2861.241572
 20
-4934.542274
 30
0.0
 11
2866.241572
 21
-4934.542274
 31
0.0
 12
2863.741572
 22
-4919.542274
 32
0.0
 13
2863.741572
 23
-4919.542274
 33
0.0
  0
SOLID
  5
5C
100
AcDbEntity
  8
0
  6
BYBLOCK
100
AcDbTrace
 10
2861.241572
 20
-4897.542274
 30
0.0
 11
2866.241572
 21
-4897.542274
 31
0.0
 12
2863.741572
 22
-4912.542274
 32
0.0
 13
2863.741572
 23
-4912.542274
 33
0.0
  0
POINT
  5
5D
100
AcDbEntity
  8
DEFPOINTS
  6
BYBLOCK
 62
     0
100
AcDbPoint
 10
2721.181687
 20
-4919.542274
 30
0.0
  0
POINT
  5
5E
100
AcDbEntity
  8
DEFPOINTS
  6
BYBLOCK
 62
     0
100
AcDbPoint
 10
2791.181687
 20
-4912.542274
 30
0.0
  0
POINT
  5
5F
100
AcDbEntity
  8
DEFPOINTS
  6
BYBLOCK
 62
     0
100
AcDbPoint
 10
2863.741572
 20
-4912.542274
 30
0.0
  0
ENDBLK
  5
61
100
AcDbEntity
  8
0
100
AcDbBlockEnd
  0
BLOCK
  5
A7
100
AcDbEntity
  8
0
100
AcDbBlockBegin
  2
*D7
 70
     1
 10
0.0
 20
0.0
 30
0.0
  3
*D7
  1

  0
LINE
  5
9C
100
AcDbEntity
  8
0
  6
BYBLOCK
100
AcDbLine
 10
2886.215459
 20
-4967.647126
 30
0.0
 11
2913.785639
 21
-4866.121631
 31
0.0
  0
LINE
  5
9D
100
AcDbEntity
  8
0
  6
BYBLOCK
100
AcDbLine
 10
2880.427558
 20
-4966.075368
 30
0.0
 11
2907.997739
 21
-4864.549874
 31
0.0
  0
LINE
  5
9E
100
AcDbEntity
  8
0
  6
BYBLOCK
100
AcDbLine
 10
2926.688972
 20
-4875.842948
 30
0.0
 11
2941.164713
 21
-4879.773969
 31
0.0
  0
LINE
  5
9F
100
AcDbEntity
  8
0
  6
BYBLOCK
100
AcDbLine
 10
2891.949589
 20
-4866.409149
 30
0.0
 11
2877.473848
 21
-4862.478129
 31
0.0
  0
LINE
  5
A0
100
AcDbEntity
  8
0
  6
BYBLOCK
100
AcDbLine
 10
2912.213231
 20
-4871.911928
 30
0.0
 11
2906.42533
 21
-4870.34017
 31
0.0
  0
SOLID
  5
A1
100
AcDbEntity
  8
0
  6
BYBLOCK
100
AcDbTrace
 10
2927.344142
 20
-4873.430325
 30
0.0
 11
2926.033802
 21
-4878.255572
 31
0.0
 12
2912.213231
 22
-4871.911928
 32
0.0
 13
2912.213231
 23
-4871.911928
 33
0.0
  0
SOLID
  5
A2
100
AcDbEntity
  8
0
  6
BYBLOCK
100
AcDbTrace
 10
2892.604759
 20
-4863.996526
 30
0.0
 11
2891.294419
 21
-4868.821773
 31
0.0
 12
2906.42533
 22
-4870.34017
 32
0.0
 13
2906.42533
 23
-4870.34017
 33
0.0
  0
MTEXT
  5
A3
100
AcDbEntity
  8
0
  6
BYBLOCK
 62
     5
100
AcDbMText
 10
2913.423266
 20
-4856.013375
 30
0.0
 40
19.32
 41
0.0
 71
     5
 72
     1
  1
\A1;6
 11
0.965049
 21
-0.262068
 31
0.0
  0
POINT
  5
A4
100
AcDbEntity
  8
DEFPOINTS
  6
BYBLOCK
 62
     0
100
AcDbPoint
 10
2885.429254
 20
-4970.542274
 30
0.0
  0
POINT
  5
A5
100
AcDbEntity
  8
DEFPOINTS
  6
BYBLOCK
 62
     0
100
AcDbPoint
 10
2879.641354
 20
-4968.970517
 30
0.0
  0
POINT
  5
A6
100
AcDbEntity
  8
DEFPOINTS
  6
BYBLOCK
 62
     0
100
AcDbPoint
 10
2906.42533
 20
-4870.34017
 30
0.0
  0
ENDBLK
  5
A8
100
AcDbEntity
  8
0
100
AcDbBlockEnd
  0
BLOCK
  5
F2
100
AcDbEntity
  8
0
100
AcDbBlockBegin
  2
*D8
 70
     1
 10
0.0
 20
0.0
 30
0.0
  3
*D8
  1

  0
LINE
  5
E9
100
AcDbEntity
  8
0
  6
BYBLOCK
100
AcDbLine
 10
3294.177687
 20
-4912.542274
 30
0.0
 11
3402.190859
 21
-4912.542274
 31
0.0
  0
LINE
  5
EA
100
AcDbEntity
  8
0
  6
BYBLOCK
100
AcDbLine
 10
3309.92812
 20
-4970.542274
 30
0.0
 11
3402.190859
 21
-4970.542274
 31
0.0
  0
LINE
  5
EB
100
AcDbEntity
  8
0
  6
BYBLOCK
100
AcDbLine
 10
3396.190859
 20
-4927.542274
 30
0.0
 11
3396.190859
 21
-4955.542274
 31
0.0
  0
SOLID
  5
EC
100
AcDbEntity
  8
0
  6
BYBLOCK
100
AcDbTrace
 10
3393.690859
 20
-4927.542274
 30
0.0
 11
3398.690859
 21
-4927.542274
 31
0.0
 12
3396.190859
 22
-4912.542274
 32
0.0
 13
3396.190859
 23
-4912.542274
 33
0.0
  0
SOLID
  5
ED
100
AcDbEntity
  8
0
  6
BYBLOCK
100
AcDbTrace
 10
3393.690859
 20
-4955.542274
 30
0.0
 11
3398.690859
 21
-4955.542274
 31
0.0
 12
3396.190859
 22
-4970.542274
 32
0.0
 13
3396.190859
 23
-4970.542274
 33
0.0
  0
MTEXT
  5
EE
100
AcDbEntity
  8
0
  6
BYBLOCK
 62
     5
100
AcDbMText
 10
3380.530859
 20
-4941.542274
 30
0.0
 40
19.32
 41
0.0
 71
     5
 72
     1
  1
\A1;58
 11
0.0
 21
1.0
 31
0.0
  0
POINT
  5
EF
100
AcDbEntity
  8
DEFPOINTS
  6
BYBLOCK
 62
     0
100
AcDbPoint
 10
3291.177687
 20
-4912.542274
 30
0.0
  0
POINT
  5
F0
100
AcDbEntity
  8
DEFPOINTS
  6
BYBLOCK
 62
     0
100
AcDbPoint
 10
3306.92812
 20
-4970.542274
 30
0.0
  0
POINT
  5
F1
100
AcDbEntity
  8
DEFPOINTS
  6
BYBLOCK
 62
     0
100
AcDbPoint
 10
3396.190859
 20
-4970.542274
 30
0.0
  0
ENDBLK
  5
F3
100
AcDbEntity
  8
0
100
AcDbBlockEnd
  0
BLOCK
  5
E5
100
AcDbEntity
  8
0
100
AcDbBlockBegin
  2
*D9
 70
     1
 10
0.0
 20
0.0
 30
0.0
  3
*D9
  1

  0
LINE
  5
D9
100
AcDbEntity
  8
0
  6
BYBLOCK
100
AcDbLine
 10
3309.92812
 20
-4970.542274
 30
0.0
 11
3402.190859
 21
-4970.542274
 31
0.0
  0
LINE
  5
DA
100
AcDbEntity
  8
0
  6
BYBLOCK
100
AcDbLine
 10
3318.31532
 20
-4978.542274
 30
0.0
 11
3402.190859
 21
-4978.542274
 31
0.0
  0
LINE
  5
DB
100
AcDbEntity
  8
0
  6
BYBLOCK
100
AcDbLine
 10
3396.190859
 20
-4955.542274
 30
0.0
 11
3396.190859
 21
-4940.542274
 31
0.0
  0
LINE
  5
DC
100
AcDbEntity
  8
0
  6
BYBLOCK
100
AcDbLine
 10
3396.190859
 20
-4993.542274
 30
0.0
 11
3396.190859
 21
-5008.542274
 31
0.0
  0
MTEXT
  5
DD
100
AcDbEntity
  8
0
  6
BYBLOCK
 62
     5
100
AcDbMText
 10
3414.474156
 20
-4974.542274
 30
0.0
 40
19.32
 41
0.0
 71
     5
 72
     1
  1
\A1;8
 11
0.0
 21
1.0
 31
0.0
  0
LINE
  5
DE
100
AcDbEntity
  8
0
  6
BYBLOCK
100
AcDbLine
 10
3396.190859
 20
-4970.542274
 30
0.0
 11
3396.190859
 21
-4978.542274
 31
0.0
  0
LINE
  5
DF
100
AcDbEntity
  8
0
  6
BYBLOCK
100
AcDbLine
 10
3396.190859
 20
-4970.542274
 30
0.0
 11
3396.190859
 21
-4978.542274
 31
0.0
  0
SOLID
  5
E0
100
AcDbEntity
  8
0
  6
BYBLOCK
100
AcDbTrace
 10
3393.690859
 20
-4955.542274
 30
0.0
 11
3398.690859
 21
-4955.542274
 31
0.0
 12
3396.190859
 22
-4970.542274
 32
0.0
 13
3396.190859
 23
-4970.542274
 33
0.0
  0
SOLID
  5
E1
100
AcDbEntity
  8
0
  6
BYBLOCK
100
AcDbTrace
 10
3393.690859
 20
-4993.542274
 30
0.0
 11
3398.690859
 21
-4993.542274
 31
0.0
 12
3396.190859
 22
-4978.542274
 32
0.0
 13
3396.190859
 23
-4978.542274
 33
0.0
  0
POINT
  5
E2
100
AcDbEntity
  8
DEFPOINTS
  6
BYBLOCK
 62
     0
100
AcDbPoint
 10
3306.92812
 20
-4970.542274
 30
0.0
  0
POINT
  5
E3
100
AcDbEntity
  8
DEFPOINTS
  6
BYBLOCK
 62
     0
100
AcDbPoint
 10
3315.31532
 20
-4978.542274
 30
0.0
  0
POINT
  5
E4
100
AcDbEntity
  8
DEFPOINTS
  6
BYBLOCK
 62
     0
100
AcDbPoint
 10
3396.190859
 20
-4978.542274
 30
0.0
  0
ENDBLK
  5
E6
100
AcDbEntity
  8
0
100
AcDbBlockEnd
  0
BLOCK
  5
D5
100
AcDbEntity
  8
0
100
AcDbBlockBegin
  2
*D10
 70
     1
 10
0.0
 20
0.0
 30
0.0
  3
*D10
  1

  0
LINE
  5
CA
100
AcDbEntity
  8
0
  6
BYBLOCK
100
AcDbLine
 10
3318.31532
 20
-4978.542274
 30
0.0
 11
3402.190859
 21
-4978.542274
 31
0.0
  0
LINE
  5
CB
100
AcDbEntity
  8
0
  6
BYBLOCK
100
AcDbLine
 10
3369.175687
 20
-5018.542274
 30
0.0
 11
3402.190859
 21
-5018.542274
 31
0.0
  0
LINE
  5
CC
100
AcDbEntity
  8
0
  6
BYBLOCK
100
AcDbLine
 10
3396.190859
 20
-4963.542274
 30
0.0
 11
3396.190859
 21
-4948.542274
 31
0.0
  0
LINE
  5
CD
100
AcDbEntity
  8
0
  6
BYBLOCK
100
AcDbLine
 10
3396.190859
 20
-5033.542274
 30
0.0
 11
3396.190859
 21
-5048.542274
 31
0.0
  0
LINE
  5
CE
100
AcDbEntity
  8
0
  6
BYBLOCK
100
AcDbLine
 10
3396.190859
 20
-4978.542274
 30
0.0
 11
3396.190859
 21
-5018.542274
 31
0.0
  0
SOLID
  5
CF
100
AcDbEntity
  8
0
  6
BYBLOCK
100
AcDbTrace
 10
3393.690859
 20
-4963.542274
 30
0.0
 11
3398.690859
 21
-4963.542274
 31
0.0
 12
3396.190859
 22
-4978.542274
 32
0.0
 13
3396.190859
 23
-4978.542274
 33
0.0
  0
SOLID
  5
D0
100
AcDbEntity
  8
0
  6
BYBLOCK
100
AcDbTrace
 10
3393.690859
 20
-5033.542274
 30
0.0
 11
3398.690859
 21
-5033.542274
 31
0.0
 12
3396.190859
 22
-5018.542274
 32
0.0
 13
3396.190859
 23
-5018.542274
 33
0.0
  0
MTEXT
  5
D1
100
AcDbEntity
  8
0
  6
BYBLOCK
 62
     5
100
AcDbMText
 10
3380.530859
 20
-4998.542274
 30
0.0
 40
19.32
 41
0.0
 71
     5
 72
     1
  1
\A1;40
 11
0.0
 21
1.0
 31
0.0
  0
POINT
  5
D2
100
AcDbEntity
  8
DEFPOINTS
  6
BYBLOCK
 62
     0
100
AcDbPoint
 10
3315.31532
 20
-4978.542274
 30
0.0
  0
POINT
  5
D3
100
AcDbEntity
  8
DEFPOINTS
  6
BYBLOCK
 62
     0
100
AcDbPoint
 10
3366.175687
 20
-5018.542274
 30
0.0
  0
POINT
  5
D4
100
AcDbEntity
  8
DEFPOINTS
  6
BYBLOCK
 62
     0
100
AcDbPoint
 10
3396.190859
 20
-5018.542274
 30
0.0
  0
ENDBLK
  5
D6
100
AcDbEntity
  8
0
100
AcDbBlockEnd
  0
BLOCK
  5
C6
100
AcDbEntity
  8
0
100
AcDbBlockBegin
  2
*D11
 70
     1
 10
0.0
 20
0.0
 30
0.0
  3
*D11
  1

  0
LINE
  5
BD
100
AcDbEntity
  8
0
  6
BYBLOCK
100
AcDbLine
 10
3294.177687
 20
-4912.542274
 30
0.0
 11
3466.220815
 21
-4912.542274
 31
0.0
  0
LINE
  5
BE
100
AcDbEntity
  8
0
  6
BYBLOCK
100
AcDbLine
 10
3369.175687
 20
-5018.542274
 30
0.0
 11
3466.220815
 21
-5018.542274
 31
0.0
  0
LINE
  5
BF
100
AcDbEntity
  8
0
  6
BYBLOCK
100
AcDbLine
 10
3460.220815
 20
-4927.542274
 30
0.0
 11
3460.220815
 21
-5003.542274
 31
0.0
  0
SOLID
  5
C0
100
AcDbEntity
  8
0
  6
BYBLOCK
100
AcDbTrace
 10
3457.720815
 20
-4927.542274
 30
0.0
 11
3462.720815
 21
-4927.542274
 31
0.0
 12
3460.220815
 22
-4912.542274
 32
0.0
 13
3460.220815
 23
-4912.542274
 33
0.0
  0
SOLID
  5
C1
100
AcDbEntity
  8
0
  6
BYBLOCK
100
AcDbTrace
 10
3457.720815
 20
-5003.542274
 30
0.0
 11
3462.720815
 21
-5003.542274
 31
0.0
 12
3460.220815
 22
-5018.542274
 32
0.0
 13
3460.220815
 23
-5018.542274
 33
0.0
  0
MTEXT
  5
C2
100
AcDbEntity
  8
0
  6
BYBLOCK
 62
     5
100
AcDbMText
 10
3444.560815
 20
-4965.542274
 30
0.0
 40
19.32
 41
0.0
 71
     5
 72
     1
  1
\A1;106
 11
0.0
 21
1.0
 31
0.0
  0
POINT
  5
C3
100
AcDbEntity
  8
DEFPOINTS
  6
BYBLOCK
 62
     0
100
AcDbPoint
 10
3291.177687
 20
-4912.542274
 30
0.0
  0
POINT
  5
C4
100
AcDbEntity
  8
DEFPOINTS
  6
BYBLOCK
 62
     0
100
AcDbPoint
 10
3366.175687
 20
-5018.542274
 30
0.0
  0
POINT
  5
C5
100
AcDbEntity
  8
DEFPOINTS
  6
BYBLOCK
 62
     0
100
AcDbPoint
 10
3460.220815
 20
-5018.542274
 30
0.0
  0
ENDBLK
  5
C7
100
AcDbEntity
  8
0
100
AcDbBlockEnd
  0
BLOCK
  5
3A
100
AcDbEntity
  8
0
100
AcDbBlockBegin
  2
*D12
 70
     1
 10
0.0
 20
0.0
 30
0.0
  3
*D12
  1

  0
LINE
  5
30
100
AcDbEntity
  8
0
  6
BYBLOCK
100
AcDbLine
 10
3137.598092
 20
-4968.471655
 30
0.0
 11
3182.03527
 21
-4926.085942
 31
0.0
  0
ARC
  5
31
100
AcDbEntity
  8
0
  6
BYBLOCK
100
AcDbCircle
 10
3127.040055
 20
-4978.542274
 30
0.0
 40
70.000924
100
AcDbArc
 50
12.301117
 51
31.345341
  0
SOLID
  5
32
100
AcDbEntity
  8
0
  6
BYBLOCK
100
AcDbTrace
 10
3197.919467
 20
-4963.360764
 30
0.0
 11
3192.948248
 21
-4963.896471
 31
0.0
 12
3197.040979
 22
-4978.542274
 32
0.0
 13
3197.040979
 23
-4978.542274
 33
0.0
  0
SOLID
  5
33
100
AcDbEntity
  8
0
  6
BYBLOCK
100
AcDbTrace
 10
3184.840673
 20
-4943.649897
 30
0.0
 11
3188.807658
 21
-4940.606374
 31
0.0
 12
3177.693596
 22
-4930.227181
 32
0.0
 13
3177.693596
 23
-4930.227181
 33
0.0
  0
MTEXT
  5
34
100
AcDbEntity
  8
0
  6
BYBLOCK
 62
     5
100
AcDbMText
 10
3216.582704
 20
-4961.25979
 30
0.0
 40
19.32
 41
0.0
 71
     5
 72
     1
  1
\A1;43,65°
 11
0.189511
 21
-0.981879
 31
0.0
  0
POINT
  5
35
100
AcDbEntity
  8
DEFPOINTS
  6
BYBLOCK
 62
     0
100
AcDbPoint
 10
3188.206321
 20
-4944.50087
 30
0.0
  0
POINT
  5
36
100
AcDbEntity
  8
DEFPOINTS
  6
BYBLOCK
 62
     0
100
AcDbPoint
 10
3135.427254
 20
-4970.542274
 30
0.0
  0
POINT
  5
37
100
AcDbEntity
  8
DEFPOINTS
  6
BYBLOCK
 62
     0
100
AcDbPoint
 10
3127.040055
 20
-4978.542274
 30
0.0
  0
POINT
  5
38
100
AcDbEntity
  8
DEFPOINTS
  6
BYBLOCK
 62
     0
100
AcDbPoint
 10
3209.254828
 20
-4978.542274
 30
0.0
  0
POINT
  5
39
100
AcDbEntity
  8
DEFPOINTS
  6
BYBLOCK
 62
     0
100
AcDbPoint
 10
3127.040055
 20
-4978.542274
 30
0.0
  0
ENDBLK
  5
3B
100
AcDbEntity
  8
0
100
AcDbBlockEnd
  0
BLOCK
  5
2C
100
AcDbEntity
  8
0
100
AcDbBlockBegin
  2
*D13
 70
     1
 10
0.0
 20
0.0
 30
0.0
  3
*D13
  1

  0
LINE
  5
20
100
AcDbEntity
  8
0
  6
BYBLOCK
100
AcDbLine
 10
3119.177687
 20
-5018.542274
 30
0.0
 11
3270.393217
 21
-5018.542274
 31
0.0
  0
LINE
  5
21
100
AcDbEntity
  8
0
  6
BYBLOCK
100
AcDbLine
 10
3127.826259
 20
-4975.647126
 30
0.0
 11
3156.592648
 21
-4869.716669
 31
0.0
  0
ARC
  5
22
100
AcDbEntity
  8
0
  6
BYBLOCK
100
AcDbCircle
 10
3116.177687
 20
-5018.542274
 30
0.0
 40
148.21553
100
AcDbArc
 50
5.801038
 51
69.006155
  0
SOLID
  5
23
100
AcDbEntity
  8
0
  6
BYBLOCK
100
AcDbTrace
 10
3266.130985
 20
-5003.434986
 30
0.0
 11
3261.13739
 21
-5003.687996
 31
0.0
 12
3264.393217
 22
-5018.542274
 32
0.0
 13
3264.393217
 23
-5018.542274
 33
0.0
  0
SOLID
  5
24
100
AcDbEntity
  8
0
  6
BYBLOCK
100
AcDbTrace
 10
3168.502104
 20
-4882.541831
 30
0.0
 11
3170.054933
 21
-4877.789071
 31
0.0
 12
3155.02024
 22
-4875.506966
 32
0.0
 13
3155.02024
 23
-4875.506966
 33
0.0
  0
MTEXT
  5
25
100
AcDbEntity
  8
0
  6
BYBLOCK
 62
     5
100
AcDbMText
 10
3278.346358
 20
-4967.533081
 30
0.0
 40
19.32
 41
0.0
 71
     5
 72
     1
  1
\A1;74,81°
 11
0.300051
 21
-0.953923
 31
0.0
  0
POINT
  5
26
100
AcDbEntity
  8
DEFPOINTS
  6
BYBLOCK
 62
     0
100
AcDbPoint
 10
3211.70327
 20
-4905.216609
 30
0.0
  0
POINT
  5
28
100
AcDbEntity
  8
DEFPOINTS
  6
BYBLOCK
 62
     0
100
AcDbPoint
 10
3127.040055
 20
-4978.542274
 30
0.0
  0
POINT
  5
29
100
AcDbEntity
  8
DEFPOINTS
  6
BYBLOCK
 62
     0
100
AcDbPoint
 10
3116.177687
 20
-5018.542274
 30
0.0
  0
POINT
  5
2A
100
AcDbEntity
  8
DEFPOINTS
  6
BYBLOCK
 62
     0
100
AcDbPoint
 10
3076.179687
 20
-5018.542274
 30
0.0
  0
POINT
  5
2B
100
AcDbEntity
  8
DEFPOINTS
  6
BYBLOCK
 62
     0
100
AcDbPoint
 10
3116.177687
 20
-5018.542274
 30
0.0
  0
ENDBLK
  5
2D
100
AcDbEntity
  8
0
100
AcDbBlockEnd
  0
ENDSEC
  0
SECTION
  2
ENTITIES
  0
DIMENSION
  5
1E
100
AcDbEntity
  8
KOTY-UPLNE
100
AcDbDimension
  2
*D13
 10
672.850297
 20
-255.884928
 30
0.0
 11
835.018967
 21
-204.875734
 31
0.0
 12
-2443.32739
 22
4762.657346
 32
0.0
 70
   130
  1
74,81%%D
  3
UPLNE
100
AcDb2LineAngularDimension
 13
672.850297
 23
-255.884928
 33
0.0
 14
632.852297
 24
-255.884928
 34
0.0
 15
683.712665
 25
-215.884928
 35
0.0
 16
768.37588
 26
-142.559263
 36
0.0
1001
ACAD
1000
DSTYLE
1002
{
1070
    40
1040
3.0
1070
   147
1040
2.0
1002
}
  0
DIMENSION
  5
2E
100
AcDbEntity
  8
KOTY-UPLNE
100
AcDbDimension
  2
*D12
 10
683.712665
 20
-215.884928
 30
0.0
 11
773.255314
 21
-198.602444
 31
0.0
 12
-2443.32739
 22
4762.657346
 32
0.0
 70
   130
  1
43,65%%D
  3
UPLNE
100
AcDb2LineAngularDimension
 13
683.712665
 23
-215.884928
 33
0.0
 14
765.927438
 24
-215.884928
 34
0.0
 15
692.099864
 25
-207.884928
 35
0.0
 16
744.878931
 26
-181.843523
 36
0.0
1001
ACAD
1000
DSTYLE
1002
{
1070
    40
1040
3.0
1070
   147
1040
2.0
1002
}
  0
LINE
  5
3C
100
AcDbEntity
  8
KOTY-UPLNE
100
AcDbLine
 10
683.712665
 20
-215.884928
 30
0.0
 11
765.927438
 21
-215.884928
 31
0.0
  0
DIMENSION
  5
3D
100
AcDbEntity
  8
KOTY-UPLNE
100
AcDbDimension
  2
*D4
 10
902.849297
 20
-375.884928
 30
0.0
 11
527.852297
 21
-360.224928
 31
0.0
 12
-2443.32739
 22
4762.657346
 32
0.0
  3
UPLNE
100
AcDbAlignedDimension
 13
152.855297
 23
-265.884928
 33
0.0
 14
902.849297
 24
-255.884928
 34
0.0
100
AcDbRotatedDimension
1001
ACAD
1000
DSTYLE
1002
{
1070
    40
1040
3.0
1070
   147
1040
2.0
1002
}
  0
MTEXT
  5
4A
100
AcDbEntity
  8
KOTY-UPLNE
  6
BYBLOCK
 62
     5
100
AcDbMText
 10
669.486575
 20
-85.198963
 30
0.0
 40
16.5
 41
0.0
 71
     5
 72
     1
  1
všechna zaoblení R=5
  0
LWPOLYLINE
  5
4B
100
AcDbEntity
  8
TRAPEZ-VELKY
100
AcDbPolyline
 90
       73
 70
     0
 43
5.0
 10
926.780474
 20
-241.404928
 10
923.850258
 20
-252.195268
 42
-0.338516
 10
919.025011
 20
-255.884928
 10
902.849297
 20
-255.884928
 10
886.673583
 20
-255.884928
 42
-0.338516
 10
881.848336
 20
-252.195268
 10
872.353299
 20
-217.230379
 42
0.136808
 10
870.979085
 20
-214.922657
 10
864.609575
 20
-208.847199
 42
-0.136808
 10
863.23536
 20
-206.539477
 10
848.852258
 20
-153.574588
 42
0.338516
 10
844.027011
 20
-149.884928
 10
789.695877
 20
-149.884928
 42
0.178667
 10
786.447322
 20
-151.084022
 10
781.098852
 20
-155.655247
 42
-0.369116
 10
774.601742
 20
-155.655247
 10
769.253272
 20
-151.084022
 42
0.178667
 10
766.004717
 20
-149.884928
 10
711.673583
 20
-149.884928
 42
0.338516
 10
706.848336
 20
-153.574588
 10
692.465234
 20
-206.539477
 42
-0.136808
 10
691.091019
 20
-208.847199
 10
684.72151
 20
-214.922657
 42
0.136808
 10
683.347295
 20
-217.230379
 10
673.852258
 20
-252.195268
 42
-0.338516
 10
669.027011
 20
-255.884928
 10
636.675583
 20
-255.884928
 42
-0.338516
 10
631.850336
 20
-252.195268
 10
622.355299
 20
-217.230379
 42
0.136808
 10
620.981085
 20
-214.922657
 10
614.611575
 20
-208.847199
 42
-0.136808
 10
613.23736
 20
-206.539477
 10
598.854258
 20
-153.574588
 42
0.338516
 10
594.029011
 20
-149.884928
 10
539.697877
 20
-149.884928
 42
0.178667
 10
536.449322
 20
-151.084022
 10
531.100852
 20
-155.655247
 42
-0.369116
 10
524.603742
 20
-155.655247
 10
519.255272
 20
-151.084022
 42
0.178667
 10
516.006717
 20
-149.884928
 10
461.675583
 20
-149.884928
 42
0.338516
 10
456.850336
 20
-153.574588
 10
442.467234
 20
-206.539477
 42
-0.136808
 10
441.093019
 20
-208.847199
 10
434.72351
 20
-214.922657
 42
0.136808
 10
433.349295
 20
-217.230379
 10
423.854258
 20
-252.195268
 42
-0.338516
 10
419.029011
 20
-255.884928
 10
402.853297
 20
-255.884928
 10
386.677583
 20
-255.884928
 42
-0.338516
 10
381.852336
 20
-252.195268
 10
372.357299
 20
-217.230379
 42
0.136808
 10
370.983085
 20
-214.922657
 10
364.613575
 20
-208.847199
 42
-0.136808
 10
363.23936
 20
-206.539477
 10
348.856258
 20
-153.574588
 42
0.338516
 10
344.031011
 20
-149.884928
 10
289.699877
 20
-149.884928
 42
0.178667
 10
286.451322
 20
-151.084022
 10
281.102852
 20
-155.655247
 42
-0.369116
 10
274.605742
 20
-155.655247
 10
269.257272
 20
-151.084022
 42
0.178667
 10
266.008717
 20
-149.884928
 10
211.677583
 20
-149.884928
 42
0.338516
 10
206.852336
 20
-153.574588
 10
192.469234
 20
-206.539477
 42
-0.136808
 10
191.095019
 20
-208.847199
 10
184.72551
 20
-214.922657
 42
0.136808
 10
183.351295
 20
-217.230379
 10
173.856258
 20
-252.195268
 42
-0.338516
 10
169.031011
 20
-255.884928
 10
152.855297
 20
-255.884928
 10
147.855297
 20
-255.884928
  0
MTEXT
  5
4D
100
AcDbEntity
  8
POPIS
100
AcDbMText
 10
661.730741
 20
-42.124031
 30
0.0
 40
40.0
 41
1.0
 71
     5
 72
     1
  1
TR 106/250
  7
STYLE1
  0
LWPOLYLINE
  5
50
100
AcDbEntity
  8
RAMEC
100
AcDbPolyline
 90
        4
 70
     1
 43
0.0
 10
0.0
 20
0.0
 10
0.0
 20
-425.001233
 10
1349.672502
 20
-425.001233
 10
1349.672502
 20
0.0
  0
DIMENSION
  5
52
100
AcDbEntity
  8
KOTY-UPLNE
100
AcDbDimension
  2
*D6
 10
420.414181
 20
-149.884928
 30
0.0
 11
404.664181
 21
-172.937331
 31
0.0
 12
-2443.32739
 22
4762.657346
 32
0.0
 70
   128
  3
UPLNE
100
AcDbAlignedDimension
 13
277.854297
 23
-156.884928
 33
0.0
 14
347.854297
 24
-149.884928
 34
0.0
 50
90.0
100
AcDbRotatedDimension
1001
ACAD
1000
DSTYLE
1002
{
1070
    40
1040
3.0
1070
   147
1040
2.0
1002
}
  0
DIMENSION
  5
62
100
AcDbEntity
  8
KOTY-UPLNE
100
AcDbDimension
  2
*D3
 10
402.853297
 20
-315.884928
 30
0.0
 11
277.854297
 21
-300.224928
 31
0.0
 12
-2443.32739
 22
4762.657346
 32
0.0
  3
UPLNE
100
AcDbAlignedDimension
 13
152.855297
 23
-255.884928
 33
0.0
 14
402.853297
 24
-255.884928
 34
0.0
100
AcDbRotatedDimension
1001
ACAD
1000
DSTYLE
1002
{
1070
    40
1040
3.0
1070
   147
1040
2.0
1002
}
  0
DIMENSION
  5
6F
100
AcDbEntity
  8
KOTY-UPLNE
100
AcDbDimension
  2
*D2
 10
382.854297
 20
-111.073246
 30
0.0
 11
365.354297
 21
-95.413246
 31
0.0
 12
-2443.32739
 22
4762.657346
 32
0.0
  3
UPLNE
100
AcDbAlignedDimension
 13
347.854297
 23
-149.884928
 33
0.0
 14
382.854297
 24
-255.884928
 34
0.0
100
AcDbRotatedDimension
1001
ACAD
1000
DSTYLE
1002
{
1070
    40
1040
3.0
1070
   147
1040
2.0
1002
}
  0
DIMENSION
  5
7E
100
AcDbEntity
  8
KOTY-UPLNE
100
AcDbDimension
  2
*D1
 10
347.854297
 20
-111.073246
 30
0.0
 11
277.854297
 21
-95.413246
 31
0.0
 12
-2443.32739
 22
4762.657346
 32
0.0
  3
UPLNE
100
AcDbAlignedDimension
 13
207.854297
 23
-149.884928
 33
0.0
 14
347.854297
 24
-149.884928
 34
0.0
100
AcDbRotatedDimension
1001
ACAD
1000
DSTYLE
1002
{
1070
    40
1040
3.0
1070
   147
1040
2.0
1002
}
  0
DIMENSION
  5
8B
100
AcDbEntity
  8
KOTY-UPLNE
100
AcDbDimension
  2
*D0
 10
207.854297
 20
-111.073246
 30
0.0
 11
190.354297
 21
-95.413246
 31
0.0
 12
-2443.32739
 22
4762.657346
 32
0.0
  3
UPLNE
100
AcDbAlignedDimension
 13
172.854297
 23
-255.884928
 33
0.0
 14
207.854297
 24
-149.884928
 34
0.0
100
AcDbRotatedDimension
1001
ACAD
1000
DSTYLE
1002
{
1070
    40
1040
3.0
1070
   147
1040
2.0
1002
}
  0
DIMENSION
  5
9A
100
AcDbEntity
  8
KOTY-UPLNE
100
AcDbDimension
  2
*D7
 10
463.09794
 20
-107.682824
 30
0.0
 11
470.095876
 21
-93.356029
 31
0.0
 12
-2443.32739
 22
4762.657346
 32
0.0
 70
     1
  3
UPLNE
100
AcDbAlignedDimension
 13
442.101864
 23
-207.884928
 33
0.0
 14
436.313963
 24
-206.31317
 34
0.0
1001
ACAD
1000
DSTYLE
1002
{
1070
    40
1040
3.0
1070
   147
1040
2.0
1002
}
  0
DIMENSION
  5
A9
100
AcDbEntity
  8
KOTY-UPLNE
100
AcDbDimension
  2
*D5
 10
632.852297
 20
-315.884928
 30
0.0
 11
652.851297
 21
-300.224928
 31
0.0
 12
-2443.32739
 22
4762.657346
 32
0.0
  3
UPLNE
100
AcDbAlignedDimension
 13
672.850297
 23
-255.884928
 33
0.0
 14
632.852297
 24
-255.884928
 34
0.0
100
AcDbRotatedDimension
1001
ACAD
1000
DSTYLE
1002
{
1070
    40
1040
3.0
1070
   147
1040
2.0
1002
}
  0
MTEXT
  5
B8
100
AcDbEntity
  8
POZICE
100
AcDbMText
 10
736.790599
 20
-317.426497
 30
0.0
 40
41.73
 41
1.0
 71
     5
 72
     1
  1
B
  7
STYLE1
  0
MTEXT
  5
BA
100
AcDbEntity
  8
POZICE
100
AcDbMText
 10
655.855941
 20
-161.02296
 30
0.0
 40
41.73
 41
1.0
 71
     5
 72
     1
  1
A
  7
STYLE1
  0
DIMENSION
  5
BB
100
AcDbEntity
  8
KOTY-UPLNE
100
AcDbDimension
  2
*D11
 10
1016.893425
 20
-255.884928
 30
0.0
 11
1001.233425
 21
-202.884928
 31
0.0
 12
-2443.32739
 22
4762.657346
 32
0.0
  3
UPLNE
100
AcDbAlignedDimension
 13
847.850297
 23
-149.884928
 33
0.0
 14
922.848297
 24
-255.884928
 34
0.0
 50
90.0
100
AcDbRotatedDimension
1001
ACAD
1000
DSTYLE
1002
{
1070
    40
1040
3.0
1070
   147
1040
2.0
1002
}
  0
DIMENSION
  5
C8
100
AcDbEntity
  8
KOTY-UPLNE
100
AcDbDimension
  2
*D10
 10
952.863468
 20
-255.884928
 30
0.0
 11
937.203468
 21
-235.884928
 31
0.0
 12
-2443.32739
 22
4762.657346
 32
0.0
  3
UPLNE
100
AcDbAlignedDimension
 13
871.98793
 23
-215.884928
 33
0.0
 14
922.848297
 24
-255.884928
 34
0.0
 50
90.0
100
AcDbRotatedDimension
1001
ACAD
1000
DSTYLE
1002
{
1070
    40
1040
3.0
1070
   147
1040
2.0
1002
}
  0
DIMENSION
  5
D7
100
AcDbEntity
  8
KOTY-UPLNE
100
AcDbDimension
  2
*D9
 10
952.863468
 20
-215.884928
 30
0.0
 11
971.146766
 21
-211.884928
 31
0.0
 12
-2443.32739
 22
4762.657346
 32
0.0
 70
   128
  3
UPLNE
100
AcDbAlignedDimension
 13
863.60073
 23
-207.884928
 33
0.0
 14
871.98793
 24
-215.884928
 34
0.0
 50
90.0
100
AcDbRotatedDimension
1001
ACAD
1000
DSTYLE
1002
{
1070
    40
1040
3.0
1070
   147
1040
2.0
1002
}
  0
DIMENSION
  5
E7
100
AcDbEntity
  8
KOTY-UPLNE
100
AcDbDimension
  2
*D8
 10
952.863468
 20
-207.884928
 30
0.0
 11
937.203468
 21
-178.884928
 31
0.0
 12
-2443.32739
 22
4762.657346
 32
0.0
  3
UPLNE
100
AcDbAlignedDimension
 13
847.850297
 23
-149.884928
 33
0.0
 14
863.60073
 24
-207.884928
 34
0.0
 50
90.0
100
AcDbRotatedDimension
1001
ACAD
1000
DSTYLE
1002
{
1070
    40
1040
3.0
1070
   147
1040
2.0
1002
}
  0
ENDSEC
  0
SECTION
  2
OBJECTS
  0
DICTIONARY
  5
1A
100
AcDbDictionary
  3
ACAD_GROUP
350
18
  3
ACAD_MLINESTYLE
350
19
  0
DICTIONARY
  5
18
102
{ACAD_REACTORS
330
1A
102
}
100
AcDbDictionary
  0
DICTIONARY
  5
19
102
{ACAD_REACTORS
330
1A
102
}
100
AcDbDictionary
  3
STANDARD
350
1C
  0
MLINESTYLE
  5
1C
102
{ACAD_REACTORS
330
19
102
}
100
AcDbMlineStyle
  2
STANDARD
 70
     0
  3

 62
   256
 51
90.0
 52
90.0
 71
     2
 49
0.5
 62
   256
  6
BYLAYER
 49
-0.5
 62
   256
  6
BYLAYER
  0
ENDSEC
  0
EOF
