  0
SECTION
  2
HEADER
  9
$ACADVER
  1
AC1014
  9
$ACADMAINTVER
 70
     0
  9
$DWGCODEPAGE
  3
ANSI_1250
  9
$INSBASE
 10
0.0
 20
0.0
 30
0.0
  9
$EXTMIN
 10
0.0
 20
-425.001233
 30
0.0
  9
$EXTMAX
 10
1349.672502
 20
0.0
 30
0.0
  9
$LIMMIN
 10
-1000.0
 20
-1000.0
  9
$LIMMAX
 10
1000.0
 20
1000.0
  9
$ORTHOMODE
 70
     0
  9
$REGENMODE
 70
     1
  9
$FILLMODE
 70
     1
  9
$QTEXTMODE
 70
     0
  9
$MIRRTEXT
 70
     0
  9
$DRAGMODE
 70
     2
  9
$LTSCALE
 40
3.0
  9
$OSMODE
 70
    32
  9
$ATTMODE
 70
     1
  9
$TEXTSIZE
 40
50.0
  9
$TRACEWID
 40
0.05
  9
$TEXTSTYLE
  7
STANDARD
  9
$CLAYER
  8
KOTY-UPLNE
  9
$CELTYPE
  6
BYLAYER
  9
$CECOLOR
 62
   256
  9
$CELTSCALE
 40
1.0
  9
$DELOBJ
 70
     1
  9
$DISPSILH
 70
     0
  9
$DIMSCALE
 40
3.0
  9
$DIMASZ
 40
5.0
  9
$DIMEXO
 40
1.0
  9
$DIMDLI
 40
0.0
  9
$DIMRND
 40
1.0
  9
$DIMDLE
 40
1.0
  9
$DIMEXE
 40
2.0
  9
$DIMTP
 40
0.0
  9
$DIMTM
 40
0.0
  9
$DIMTXT
 40
6.44
  9
$DIMCEN
 40
1.0
  9
$DIMTSZ
 40
0.0
  9
$DIMTOL
 70
     0
  9
$DIMLIM
 70
     0
  9
$DIMTIH
 70
     0
  9
$DIMTOH
 70
     0
  9
$DIMSE1
 70
     0
  9
$DIMSE2
 70
     0
  9
$DIMTAD
 70
     3
  9
$DIMZIN
 70
     0
  9
$DIMBLK
  1

  9
$DIMASO
 70
     1
  9
$DIMSHO
 70
     0
  9
$DIMPOST
  1

  9
$DIMAPOST
  1

  9
$DIMALT
 70
     0
  9
$DIMALTD
 70
     2
  9
$DIMALTF
 40
25.4
  9
$DIMLFAC
 40
1.0
  9
$DIMTOFL
 70
     1
  9
$DIMTVP
 40
0.0
  9
$DIMTIX
 70
     1
  9
$DIMSOXD
 70
     0
  9
$DIMSAH
 70
     0
  9
$DIMBLK1
  1

  9
$DIMBLK2
  1

  9
$DIMSTYLE
  2
UPLNE
  9
$DIMCLRD
 70
   256
  9
$DIMCLRE
 70
   256
  9
$DIMCLRT
 70
     5
  9
$DIMTFAC
 40
1.0
  9
$DIMGAP
 40
2.0
  9
$DIMJUST
 70
     0
  9
$DIMSD1
 70
     0
  9
$DIMSD2
 70
     0
  9
$DIMTOLJ
 70
     1
  9
$DIMTZIN
 70
     0
  9
$DIMALTZ
 70
     0
  9
$DIMALTTZ
 70
     0
  9
$DIMFIT
 70
     5
  9
$DIMUPT
 70
     0
  9
$DIMUNIT
 70
     2
  9
$DIMDEC
 70
     0
  9
$DIMTDEC
 70
     0
  9
$DIMALTU
 70
     2
  9
$DIMALTTD
 70
     2
  9
$DIMTXSTY
  7
STANDARD
  9
$DIMAUNIT
 70
     0
  9
$LUNITS
 70
     2
  9
$LUPREC
 70
     2
  9
$SKETCHINC
 40
0.1
  9
$FILLETRAD
 40
5.0
  9
$AUNITS
 70
     0
  9
$AUPREC
 70
     2
  9
$MENU
  1
acad
  9
$ELEVATION
 40
0.0
  9
$PELEVATION
 40
0.0
  9
$THICKNESS
 40
0.0
  9
$LIMCHECK
 70
     0
  9
$BLIPMODE
 70
     1
  9
$CHAMFERA
 40
0.0
  9
$CHAMFERB
 40
0.0
  9
$CHAMFERC
 40
0.0
  9
$CHAMFERD
 40
0.0
  9
$SKPOLY
 70
     0
  9
$TDCREATE
 40
2448722.252204629
  9
$TDUPDATE
 40
2452465.896244791
  9
$TDINDWG
 40
2.5464252315
  9
$TDUSRTIMER
 40
2.5464252315
  9
$USRTIMER
 70
     1
  9
$ANGBASE
 50
0.0
  9
$ANGDIR
 70
     0
  9
$PDMODE
 70
     0
  9
$PDSIZE
 40
0.0
  9
$PLINEWID
 40
0.0
  9
$COORDS
 70
     2
  9
$SPLFRAME
 70
     0
  9
$SPLINETYPE
 70
     6
  9
$SPLINESEGS
 70
     8
  9
$ATTDIA
 70
     0
  9
$ATTREQ
 70
     1
  9
$HANDLING
 70
     1
  9
$HANDSEED
  5
152
  9
$SURFTAB1
 70
     6
  9
$SURFTAB2
 70
     6
  9
$SURFTYPE
 70
     6
  9
$SURFU
 70
     6
  9
$SURFV
 70
     6
  9
$UCSNAME
  2

  9
$UCSORG
 10
0.0
 20
0.0
 30
0.0
  9
$UCSXDIR
 10
1.0
 20
0.0
 30
0.0
  9
$UCSYDIR
 10
0.0
 20
1.0
 30
0.0
  9
$PUCSNAME
  2

  9
$PUCSORG
 10
0.0
 20
0.0
 30
0.0
  9
$PUCSXDIR
 10
1.0
 20
0.0
 30
0.0
  9
$PUCSYDIR
 10
0.0
 20
1.0
 30
0.0
  9
$USERI1
 70
     1
  9
$USERI2
 70
     0
  9
$USERI3
 70
     0
  9
$USERI4
 70
     0
  9
$USERI5
 70
     0
  9
$USERR1
 40
0.0
  9
$USERR2
 40
0.0
  9
$USERR3
 40
0.0
  9
$USERR4
 40
0.0
  9
$USERR5
 40
0.0
  9
$WORLDVIEW
 70
     1
  9
$SHADEDGE
 70
     3
  9
$SHADEDIF
 70
    70
  9
$TILEMODE
 70
     1
  9
$MAXACTVP
 70
    16
  9
$PINSBASE
 10
0.0
 20
0.0
 30
0.0
  9
$PLIMCHECK
 70
     0
  9
$PEXTMIN
 10
1.000000E+20
 20
1.000000E+20
 30
1.000000E+20
  9
$PEXTMAX
 10
-1.000000E+20
 20
-1.000000E+20
 30
-1.000000E+20
  9
$PLIMMIN
 10
0.0
 20
0.0
  9
$PLIMMAX
 10
12.0
 20
9.0
  9
$UNITMODE
 70
     0
  9
$VISRETAIN
 70
     0
  9
$PLINEGEN
 70
     0
  9
$PSLTSCALE
 70
     0
  9
$TREEDEPTH
 70
  3020
  9
$PICKSTYLE
 70
     0
  9
$CMLSTYLE
  2
STANDARD
  9
$CMLJUST
 70
     0
  9
$CMLSCALE
 40
1.0
  9
$PROXYGRAPHICS
 70
     1
  9
$MEASUREMENT
 70
     0
  0
ENDSEC
  0
SECTION
  2
CLASSES
  0
CLASS
  1
LWPOLYLINE
  2
AcDbPolyline
  3
"AutoCAD"
 90
        0
280
     0
281
     1
  0
CLASS
  1
DICTIONARYVAR
  2
AcDbDictionaryVar
  3
"AutoCAD"
 90
        0
280
     0
281
     0
  0
ENDSEC
  0
SECTION
  2
TABLES
  0
TABLE
  2
VPORT
  5
12
100
AcDbSymbolTable
 70
     2
  0
VPORT
  5
151
100
AcDbSymbolTableRecord
100
AcDbViewportTableRecord
  2
*ACTIVE
 70
     0
 10
0.0
 20
0.0
 11
1.0
 21
1.0
 12
814.836056
 22
-286.643337
 13
0.0
 23
0.0
 14
1.0
 24
1.0
 15
600.0
 25
600.0
 16
0.0
 26
0.0
 36
1.0
 17
0.0
 27
0.0
 37
0.0
 40
813.080948
 41
2.224444
 42
50.0
 43
0.0
 44
0.0
 50
0.0
 51
0.0
 71
     0
 72
   100
 73
     1
 74
     0
 75
     0
 76
     0
 77
     0
 78
     0
  0
ENDTAB
  0
TABLE
  2
LTYPE
  5
D
100
AcDbSymbolTable
 70
     1
  0
LTYPE
  5
E
100
AcDbSymbolTableRecord
100
AcDbLinetypeTableRecord
  2
BYBLOCK
 70
     0
  3

 72
    65
 73
     0
 40
0.0
  0
LTYPE
  5
F
100
AcDbSymbolTableRecord
100
AcDbLinetypeTableRecord
  2
BYLAYER
 70
     0
  3

 72
    65
 73
     0
 40
0.0
  0
LTYPE
  5
5
100
AcDbSymbolTableRecord
100
AcDbLinetypeTableRecord
  2
CONTINUOUS
 70
     0
  3
Solid line
 72
    65
 73
     0
 40
0.0
  0
ENDTAB
  0
TABLE
  2
LAYER
  5
A
100
AcDbSymbolTable
 70
     7
  0
LAYER
  5
4
100
AcDbSymbolTableRecord
100
AcDbLayerTableRecord
  2
0
 70
     0
 62
     7
  6
CONTINUOUS
  0
LAYER
  5
1B
100
AcDbSymbolTableRecord
100
AcDbLayerTableRecord
  2
KOTY-UPLNE
 70
     0
 62
     7
  6
CONTINUOUS
  0
LAYER
  5
42
100
AcDbSymbolTableRecord
100
AcDbLayerTableRecord
  2
RAMEC
 70
     0
 62
     5
  6
CONTINUOUS
  0
LAYER
  5
D4
100
AcDbSymbolTableRecord
100
AcDbLayerTableRecord
  2
POZICE
 70
     0
 62
     1
  6
CONTINUOUS
  0
LAYER
  5
3F
100
AcDbSymbolTableRecord
100
AcDbLayerTableRecord
  2
POPIS
 70
     0
 62
     1
  6
CONTINUOUS
  0
LAYER
  5
29
100
AcDbSymbolTableRecord
100
AcDbLayerTableRecord
  2
DEFPOINTS
 70
     0
 62
     7
  6
CONTINUOUS
  0
LAYER
  5
3D
100
AcDbSymbolTableRecord
100
AcDbLayerTableRecord
  2
TRAPEZ-VELKY
 70
     0
 62
     7
  6
CONTINUOUS
  0
ENDTAB
  0
TABLE
  2
STYLE
  5
B
100
AcDbSymbolTable
 70
     2
  0
STYLE
  5
C
100
AcDbSymbolTableRecord
100
AcDbTextStyleTableRecord
  2
STANDARD
 70
     0
 40
0.0
 41
0.9
 50
0.0
 71
     0
 42
50.0
  3
simplex.shx
  4

  0
STYLE
  5
40
100
AcDbSymbolTableRecord
100
AcDbTextStyleTableRecord
  2
STYLE1
 70
     0
 40
0.0
 41
0.9
 50
0.0
 71
     0
 42
50.0
  3
simplex.shx
  4

  0
ENDTAB
  0
TABLE
  2
VIEW
  5
10
100
AcDbSymbolTable
 70
     0
  0
ENDTAB
  0
TABLE
  2
UCS
  5
11
100
AcDbSymbolTable
 70
     0
  0
ENDTAB
  0
TABLE
  2
APPID
  5
14
100
AcDbSymbolTable
 70
     1
  0
APPID
  5
15
100
AcDbSymbolTableRecord
100
AcDbRegAppTableRecord
  2
ACAD
 70
     0
  0
ENDTAB
  0
TABLE
  2
DIMSTYLE
  5
16
100
AcDbSymbolTable
 70
     1
  0
DIMSTYLE
105
1D
102
{ACAD_REACTORS
330
79
330
6C
330
B5
330
C4
330
5F
330
2F
330
A5
330
10F
330
FF
330
13E
330
EF
330
E2
330
D5
330
12E
330
11F
330
50
330
43
330
1E
330
97
330
88
102
}
100
AcDbSymbolTableRecord
100
AcDbDimStyleTableRecord
  2
UPLNE
 70
     0
  3

  4

  5

  6

  7

 40
5.0
 41
5.0
 42
1.0
 43
0.0
 44
2.0
 45
1.0
 46
1.0
 47
0.0
 48
0.0
140
6.44
141
1.0
142
0.0
143
25.4
144
1.0
145
0.0
146
1.0
147
1.0
 71
     0
 72
     0
 73
     0
 74
     0
 75
     0
 76
     0
 77
     3
 78
     0
170
     0
171
     2
172
     1
173
     0
174
     1
175
     0
176
   256
177
   256
178
     5
270
     2
271
     0
272
     0
273
     2
274
     2
340
C
275
     0
280
     0
281
     0
282
     0
283
     1
284
     0
285
     0
286
     0
287
     5
288
     0
  0
ENDTAB
  0
TABLE
  2
BLOCK_RECORD
  5
1
100
AcDbSymbolTable
 70
    20
  0
BLOCK_RECORD
  5
2
100
AcDbSymbolTableRecord
100
AcDbBlockTableRecord
  2
*MODEL_SPACE
  0
BLOCK_RECORD
  5
7
100
AcDbSymbolTableRecord
100
AcDbBlockTableRecord
  2
*PAPER_SPACE
  0
BLOCK_RECORD
  5
7A
100
AcDbSymbolTableRecord
100
AcDbBlockTableRecord
  2
*D0
  0
BLOCK_RECORD
  5
6D
100
AcDbSymbolTableRecord
100
AcDbBlockTableRecord
  2
*D1
  0
BLOCK_RECORD
  5
B6
100
AcDbSymbolTableRecord
100
AcDbBlockTableRecord
  2
*D2
  0
BLOCK_RECORD
  5
C5
100
AcDbSymbolTableRecord
100
AcDbBlockTableRecord
  2
*D3
  0
BLOCK_RECORD
  5
60
100
AcDbSymbolTableRecord
100
AcDbBlockTableRecord
  2
*D4
  0
BLOCK_RECORD
  5
30
100
AcDbSymbolTableRecord
100
AcDbBlockTableRecord
  2
*D5
  0
BLOCK_RECORD
  5
A6
100
AcDbSymbolTableRecord
100
AcDbBlockTableRecord
  2
*D6
  0
BLOCK_RECORD
  5
110
100
AcDbSymbolTableRecord
100
AcDbBlockTableRecord
  2
*D7
  0
BLOCK_RECORD
  5
100
100
AcDbSymbolTableRecord
100
AcDbBlockTableRecord
  2
*D8
  0
BLOCK_RECORD
  5
13F
100
AcDbSymbolTableRecord
100
AcDbBlockTableRecord
  2
*D9
  0
BLOCK_RECORD
  5
F0
100
AcDbSymbolTableRecord
100
AcDbBlockTableRecord
  2
*D10
  0
BLOCK_RECORD
  5
E3
100
AcDbSymbolTableRecord
100
AcDbBlockTableRecord
  2
*D11
  0
BLOCK_RECORD
  5
D6
100
AcDbSymbolTableRecord
100
AcDbBlockTableRecord
  2
*D12
  0
BLOCK_RECORD
  5
12F
100
AcDbSymbolTableRecord
100
AcDbBlockTableRecord
  2
*D13
  0
BLOCK_RECORD
  5
120
100
AcDbSymbolTableRecord
100
AcDbBlockTableRecord
  2
*D14
  0
BLOCK_RECORD
  5
51
100
AcDbSymbolTableRecord
100
AcDbBlockTableRecord
  2
*D15
  0
BLOCK_RECORD
  5
44
100
AcDbSymbolTableRecord
100
AcDbBlockTableRecord
  2
*D16
  0
BLOCK_RECORD
  5
1F
100
AcDbSymbolTableRecord
100
AcDbBlockTableRecord
  2
*D17
  0
BLOCK_RECORD
  5
98
100
AcDbSymbolTableRecord
100
AcDbBlockTableRecord
  2
*D18
  0
BLOCK_RECORD
  5
89
100
AcDbSymbolTableRecord
100
AcDbBlockTableRecord
  2
*D19
  0
ENDTAB
  0
ENDSEC
  0
SECTION
  2
BLOCKS
  0
BLOCK
  5
3
100
AcDbEntity
  8
0
100
AcDbBlockBegin
  2
*MODEL_SPACE
 70
     0
 10
0.0
 20
0.0
 30
0.0
  3
*MODEL_SPACE
  1

  0
ENDBLK
  5
6
100
AcDbEntity
  8
0
100
AcDbBlockEnd
  0
BLOCK
  5
8
100
AcDbEntity
 67
     1
  8
0
100
AcDbBlockBegin
  2
*PAPER_SPACE
 70
     0
 10
0.0
 20
0.0
 30
0.0
  3
*PAPER_SPACE
  1

  0
ENDBLK
  5
9
100
AcDbEntity
 67
     1
  8
0
100
AcDbBlockEnd
  0
BLOCK
  5
86
100
AcDbEntity
  8
0
100
AcDbBlockBegin
  2
*D0
 70
     1
 10
0.0
 20
0.0
 30
0.0
  3
*D0
  1

  0
LINE
  5
7B
100
AcDbEntity
  8
0
  6
BYBLOCK
100
AcDbLine
 10
2615.682687
 20
-4415.542274
 30
0.0
 11
2615.682687
 21
-4267.730592
 31
0.0
  0
LINE
  5
7C
100
AcDbEntity
  8
0
  6
BYBLOCK
100
AcDbLine
 10
2664.182687
 20
-4309.542274
 30
0.0
 11
2664.182687
 21
-4267.730592
 31
0.0
  0
LINE
  5
7D
100
AcDbEntity
  8
0
  6
BYBLOCK
100
AcDbLine
 10
2600.682687
 20
-4273.730592
 30
0.0
 11
2585.682687
 21
-4273.730592
 31
0.0
  0
LINE
  5
7E
100
AcDbEntity
  8
0
  6
BYBLOCK
100
AcDbLine
 10
2679.182687
 20
-4273.730592
 30
0.0
 11
2694.182687
 21
-4273.730592
 31
0.0
  0
LINE
  5
7F
100
AcDbEntity
  8
0
  6
BYBLOCK
100
AcDbLine
 10
2615.682687
 20
-4273.730592
 30
0.0
 11
2664.182687
 21
-4273.730592
 31
0.0
  0
SOLID
  5
80
100
AcDbEntity
  8
0
  6
BYBLOCK
100
AcDbTrace
 10
2600.682687
 20
-4271.230592
 30
0.0
 11
2600.682687
 21
-4276.230592
 31
0.0
 12
2615.682687
 22
-4273.730592
 32
0.0
 13
2615.682687
 23
-4273.730592
 33
0.0
  0
SOLID
  5
81
100
AcDbEntity
  8
0
  6
BYBLOCK
100
AcDbTrace
 10
2679.182687
 20
-4271.230592
 30
0.0
 11
2679.182687
 21
-4276.230592
 31
0.0
 12
2664.182687
 22
-4273.730592
 32
0.0
 13
2664.182687
 23
-4273.730592
 33
0.0
  0
MTEXT
  5
82
100
AcDbEntity
  8
0
  6
BYBLOCK
 62
     5
100
AcDbMText
 10
2639.932687
 20
-4256.230592
 30
0.0
 40
19.32
 41
0.0
 71
     5
 72
     1
  1
\A1;48,5
  0
POINT
  5
83
100
AcDbEntity
  8
DEFPOINTS
  6
BYBLOCK
 62
     0
100
AcDbPoint
 10
2615.682687
 20
-4418.542274
 30
0.0
  0
POINT
  5
84
100
AcDbEntity
  8
DEFPOINTS
  6
BYBLOCK
 62
     0
100
AcDbPoint
 10
2664.182687
 20
-4312.542274
 30
0.0
  0
POINT
  5
85
100
AcDbEntity
  8
DEFPOINTS
  6
BYBLOCK
 62
     0
100
AcDbPoint
 10
2664.182687
 20
-4273.730592
 30
0.0
  0
ENDBLK
  5
87
100
AcDbEntity
  8
0
100
AcDbBlockEnd
  0
BLOCK
  5
77
100
AcDbEntity
  8
0
100
AcDbBlockBegin
  2
*D1
 70
     1
 10
0.0
 20
0.0
 30
0.0
  3
*D1
  1

  0
LINE
  5
6E
100
AcDbEntity
  8
0
  6
BYBLOCK
100
AcDbLine
 10
2664.182687
 20
-4309.542274
 30
0.0
 11
2664.182687
 21
-4267.730592
 31
0.0
  0
LINE
  5
6F
100
AcDbEntity
  8
0
  6
BYBLOCK
100
AcDbLine
 10
2873.182687
 20
-4309.542274
 30
0.0
 11
2873.182687
 21
-4267.730592
 31
0.0
  0
LINE
  5
70
100
AcDbEntity
  8
0
  6
BYBLOCK
100
AcDbLine
 10
2679.182687
 20
-4273.730592
 30
0.0
 11
2858.182687
 21
-4273.730592
 31
0.0
  0
SOLID
  5
71
100
AcDbEntity
  8
0
  6
BYBLOCK
100
AcDbTrace
 10
2679.182687
 20
-4271.230592
 30
0.0
 11
2679.182687
 21
-4276.230592
 31
0.0
 12
2664.182687
 22
-4273.730592
 32
0.0
 13
2664.182687
 23
-4273.730592
 33
0.0
  0
SOLID
  5
72
100
AcDbEntity
  8
0
  6
BYBLOCK
100
AcDbTrace
 10
2858.182687
 20
-4271.230592
 30
0.0
 11
2858.182687
 21
-4276.230592
 31
0.0
 12
2873.182687
 22
-4273.730592
 32
0.0
 13
2873.182687
 23
-4273.730592
 33
0.0
  0
MTEXT
  5
73
100
AcDbEntity
  8
0
  6
BYBLOCK
 62
     5
100
AcDbMText
 10
2768.682687
 20
-4258.070592
 30
0.0
 40
19.32
 41
0.0
 71
     5
 72
     1
  1
\A1;209
  0
POINT
  5
74
100
AcDbEntity
  8
DEFPOINTS
  6
BYBLOCK
 62
     0
100
AcDbPoint
 10
2664.182687
 20
-4312.542274
 30
0.0
  0
POINT
  5
75
100
AcDbEntity
  8
DEFPOINTS
  6
BYBLOCK
 62
     0
100
AcDbPoint
 10
2873.182687
 20
-4312.542274
 30
0.0
  0
POINT
  5
76
100
AcDbEntity
  8
DEFPOINTS
  6
BYBLOCK
 62
     0
100
AcDbPoint
 10
2873.182687
 20
-4273.730592
 30
0.0
  0
ENDBLK
  5
78
100
AcDbEntity
  8
0
100
AcDbBlockEnd
  0
BLOCK
  5
C2
100
AcDbEntity
  8
0
100
AcDbBlockBegin
  2
*D2
 70
     1
 10
0.0
 20
0.0
 30
0.0
  3
*D2
  1

  0
LINE
  5
B7
100
AcDbEntity
  8
0
  6
BYBLOCK
100
AcDbLine
 10
2873.182687
 20
-4309.542274
 30
0.0
 11
2873.182687
 21
-4267.730592
 31
0.0
  0
LINE
  5
B8
100
AcDbEntity
  8
0
  6
BYBLOCK
100
AcDbLine
 10
2921.682687
 20
-4415.542274
 30
0.0
 11
2921.682687
 21
-4267.730592
 31
0.0
  0
LINE
  5
B9
100
AcDbEntity
  8
0
  6
BYBLOCK
100
AcDbLine
 10
2858.182687
 20
-4273.730592
 30
0.0
 11
2843.182687
 21
-4273.730592
 31
0.0
  0
LINE
  5
BA
100
AcDbEntity
  8
0
  6
BYBLOCK
100
AcDbLine
 10
2936.682687
 20
-4273.730592
 30
0.0
 11
2951.682687
 21
-4273.730592
 31
0.0
  0
LINE
  5
BB
100
AcDbEntity
  8
0
  6
BYBLOCK
100
AcDbLine
 10
2873.182687
 20
-4273.730592
 30
0.0
 11
2921.682687
 21
-4273.730592
 31
0.0
  0
SOLID
  5
BC
100
AcDbEntity
  8
0
  6
BYBLOCK
100
AcDbTrace
 10
2858.182687
 20
-4271.230592
 30
0.0
 11
2858.182687
 21
-4276.230592
 31
0.0
 12
2873.182687
 22
-4273.730592
 32
0.0
 13
2873.182687
 23
-4273.730592
 33
0.0
  0
SOLID
  5
BD
100
AcDbEntity
  8
0
  6
BYBLOCK
100
AcDbTrace
 10
2936.682687
 20
-4271.230592
 30
0.0
 11
2936.682687
 21
-4276.230592
 31
0.0
 12
2921.682687
 22
-4273.730592
 32
0.0
 13
2921.682687
 23
-4273.730592
 33
0.0
  0
MTEXT
  5
BE
100
AcDbEntity
  8
0
  6
BYBLOCK
 62
     5
100
AcDbMText
 10
2897.432687
 20
-4256.230592
 30
0.0
 40
19.32
 41
0.0
 71
     5
 72
     1
  1
\A1;48,5
  0
POINT
  5
BF
100
AcDbEntity
  8
DEFPOINTS
  6
BYBLOCK
 62
     0
100
AcDbPoint
 10
2873.182687
 20
-4312.542274
 30
0.0
  0
POINT
  5
C0
100
AcDbEntity
  8
DEFPOINTS
  6
BYBLOCK
 62
     0
100
AcDbPoint
 10
2921.682687
 20
-4418.542274
 30
0.0
  0
POINT
  5
C1
100
AcDbEntity
  8
DEFPOINTS
  6
BYBLOCK
 62
     0
100
AcDbPoint
 10
2921.682687
 20
-4273.730592
 30
0.0
  0
ENDBLK
  5
C3
100
AcDbEntity
  8
0
100
AcDbBlockEnd
  0
BLOCK
  5
D1
100
AcDbEntity
  8
0
100
AcDbBlockBegin
  2
*D3
 70
     1
 10
0.0
 20
0.0
 30
0.0
  3
*D3
  1

  0
LINE
  5
C6
100
AcDbEntity
  8
0
  6
BYBLOCK
100
AcDbLine
 10
3305.682687
 20
-4421.542274
 30
0.0
 11
3305.682687
 21
-4484.542274
 31
0.0
  0
LINE
  5
C7
100
AcDbEntity
  8
0
  6
BYBLOCK
100
AcDbLine
 10
3266.682687
 20
-4421.542274
 30
0.0
 11
3266.682687
 21
-4484.542274
 31
0.0
  0
LINE
  5
C8
100
AcDbEntity
  8
0
  6
BYBLOCK
100
AcDbLine
 10
3320.682687
 20
-4478.542274
 30
0.0
 11
3335.682687
 21
-4478.542274
 31
0.0
  0
LINE
  5
C9
100
AcDbEntity
  8
0
  6
BYBLOCK
100
AcDbLine
 10
3251.682687
 20
-4478.542274
 30
0.0
 11
3236.682687
 21
-4478.542274
 31
0.0
  0
LINE
  5
CA
100
AcDbEntity
  8
0
  6
BYBLOCK
100
AcDbLine
 10
3305.682687
 20
-4478.542274
 30
0.0
 11
3266.682687
 21
-4478.542274
 31
0.0
  0
SOLID
  5
CB
100
AcDbEntity
  8
0
  6
BYBLOCK
100
AcDbTrace
 10
3320.682687
 20
-4476.042274
 30
0.0
 11
3320.682687
 21
-4481.042274
 31
0.0
 12
3305.682687
 22
-4478.542274
 32
0.0
 13
3305.682687
 23
-4478.542274
 33
0.0
  0
SOLID
  5
CC
100
AcDbEntity
  8
0
  6
BYBLOCK
100
AcDbTrace
 10
3251.682687
 20
-4476.042274
 30
0.0
 11
3251.682687
 21
-4481.042274
 31
0.0
 12
3266.682687
 22
-4478.542274
 32
0.0
 13
3266.682687
 23
-4478.542274
 33
0.0
  0
MTEXT
  5
CD
100
AcDbEntity
  8
0
  6
BYBLOCK
 62
     5
100
AcDbMText
 10
3286.182687
 20
-4462.882274
 30
0.0
 40
19.32
 41
0.0
 71
     5
 72
     1
  1
\A1;39
  0
POINT
  5
CE
100
AcDbEntity
  8
DEFPOINTS
  6
BYBLOCK
 62
     0
100
AcDbPoint
 10
3305.682687
 20
-4418.542274
 30
0.0
  0
POINT
  5
CF
100
AcDbEntity
  8
DEFPOINTS
  6
BYBLOCK
 62
     0
100
AcDbPoint
 10
3266.682687
 20
-4418.542274
 30
0.0
  0
POINT
  5
D0
100
AcDbEntity
  8
DEFPOINTS
  6
BYBLOCK
 62
     0
100
AcDbPoint
 10
3266.682687
 20
-4478.542274
 30
0.0
  0
ENDBLK
  5
D2
100
AcDbEntity
  8
0
100
AcDbBlockEnd
  0
BLOCK
  5
6A
100
AcDbEntity
  8
0
100
AcDbBlockBegin
  2
*D4
 70
     1
 10
0.0
 20
0.0
 30
0.0
  3
*D4
  1

  0
LINE
  5
61
100
AcDbEntity
  8
0
  6
BYBLOCK
100
AcDbLine
 10
2941.182687
 20
-4421.542274
 30
0.0
 11
2941.182687
 21
-4484.542274
 31
0.0
  0
LINE
  5
62
100
AcDbEntity
  8
0
  6
BYBLOCK
100
AcDbLine
 10
2596.182687
 20
-4421.542274
 30
0.0
 11
2596.182687
 21
-4484.542274
 31
0.0
  0
LINE
  5
63
100
AcDbEntity
  8
0
  6
BYBLOCK
100
AcDbLine
 10
2926.182687
 20
-4478.542274
 30
0.0
 11
2611.182687
 21
-4478.542274
 31
0.0
  0
SOLID
  5
64
100
AcDbEntity
  8
0
  6
BYBLOCK
100
AcDbTrace
 10
2926.182687
 20
-4476.042274
 30
0.0
 11
2926.182687
 21
-4481.042274
 31
0.0
 12
2941.182687
 22
-4478.542274
 32
0.0
 13
2941.182687
 23
-4478.542274
 33
0.0
  0
SOLID
  5
65
100
AcDbEntity
  8
0
  6
BYBLOCK
100
AcDbTrace
 10
2611.182687
 20
-4476.042274
 30
0.0
 11
2611.182687
 21
-4481.042274
 31
0.0
 12
2596.182687
 22
-4478.542274
 32
0.0
 13
2596.182687
 23
-4478.542274
 33
0.0
  0
MTEXT
  5
66
100
AcDbEntity
  8
0
  6
BYBLOCK
 62
     5
100
AcDbMText
 10
2768.682687
 20
-4462.882274
 30
0.0
 40
19.32
 41
0.0
 71
     5
 72
     1
  1
\A1;345
  0
POINT
  5
67
100
AcDbEntity
  8
DEFPOINTS
  6
BYBLOCK
 62
     0
100
AcDbPoint
 10
2941.182687
 20
-4418.542274
 30
0.0
  0
POINT
  5
68
100
AcDbEntity
  8
DEFPOINTS
  6
BYBLOCK
 62
     0
100
AcDbPoint
 10
2596.182687
 20
-4418.542274
 30
0.0
  0
POINT
  5
69
100
AcDbEntity
  8
DEFPOINTS
  6
BYBLOCK
 62
     0
100
AcDbPoint
 10
2596.182687
 20
-4478.542274
 30
0.0
  0
ENDBLK
  5
6B
100
AcDbEntity
  8
0
100
AcDbBlockEnd
  0
BLOCK
  5
3A
100
AcDbEntity
  8
0
100
AcDbBlockBegin
  2
*D5
 70
     1
 10
0.0
 20
0.0
 30
0.0
  3
*D5
  1

  0
LINE
  5
31
100
AcDbEntity
  8
0
  6
BYBLOCK
100
AcDbLine
 10
2596.182687
 20
-4421.542274
 30
0.0
 11
2596.182687
 21
-4544.542274
 31
0.0
  0
LINE
  5
32
100
AcDbEntity
  8
0
  6
BYBLOCK
100
AcDbLine
 10
3631.182687
 20
-4426.542274
 30
0.0
 11
3631.182687
 21
-4544.542274
 31
0.0
  0
LINE
  5
33
100
AcDbEntity
  8
0
  6
BYBLOCK
100
AcDbLine
 10
2611.182687
 20
-4538.542274
 30
0.0
 11
3616.182687
 21
-4538.542274
 31
0.0
  0
SOLID
  5
34
100
AcDbEntity
  8
0
  6
BYBLOCK
100
AcDbTrace
 10
2611.182687
 20
-4536.042274
 30
0.0
 11
2611.182687
 21
-4541.042274
 31
0.0
 12
2596.182687
 22
-4538.542274
 32
0.0
 13
2596.182687
 23
-4538.542274
 33
0.0
  0
SOLID
  5
35
100
AcDbEntity
  8
0
  6
BYBLOCK
100
AcDbTrace
 10
3616.182687
 20
-4536.042274
 30
0.0
 11
3616.182687
 21
-4541.042274
 31
0.0
 12
3631.182687
 22
-4538.542274
 32
0.0
 13
3631.182687
 23
-4538.542274
 33
0.0
  0
MTEXT
  5
36
100
AcDbEntity
  8
0
  6
BYBLOCK
 62
     5
100
AcDbMText
 10
3113.682687
 20
-4522.882274
 30
0.0
 40
19.32
 41
0.0
 71
     5
 72
     1
  1
\A1;1035
  0
POINT
  5
37
100
AcDbEntity
  8
DEFPOINTS
  6
BYBLOCK
 62
     0
100
AcDbPoint
 10
2596.182687
 20
-4418.542274
 30
0.0
  0
POINT
  5
38
100
AcDbEntity
  8
DEFPOINTS
  6
BYBLOCK
 62
     0
100
AcDbPoint
 10
3631.182687
 20
-4423.542274
 30
0.0
  0
POINT
  5
39
100
AcDbEntity
  8
DEFPOINTS
  6
BYBLOCK
 62
     0
100
AcDbPoint
 10
3631.182687
 20
-4538.542274
 30
0.0
  0
ENDBLK
  5
3B
100
AcDbEntity
  8
0
100
AcDbBlockEnd
  0
BLOCK
  5
B3
100
AcDbEntity
  8
0
100
AcDbBlockBegin
  2
*D6
 70
     1
 10
0.0
 20
0.0
 30
0.0
  3
*D6
  1

  0
LINE
  5
A7
100
AcDbEntity
  8
0
  6
BYBLOCK
100
AcDbLine
 10
2814.682687
 20
-4319.74768
 30
0.0
 11
2961.150971
 21
-4319.74768
 31
0.0
  0
LINE
  5
A8
100
AcDbEntity
  8
0
  6
BYBLOCK
100
AcDbLine
 10
2876.182687
 20
-4312.542274
 30
0.0
 11
2961.150971
 21
-4312.542274
 31
0.0
  0
LINE
  5
A9
100
AcDbEntity
  8
0
  6
BYBLOCK
100
AcDbLine
 10
2955.150971
 20
-4334.74768
 30
0.0
 11
2955.150971
 21
-4349.74768
 31
0.0
  0
LINE
  5
AA
100
AcDbEntity
  8
0
  6
BYBLOCK
100
AcDbLine
 10
2955.150971
 20
-4297.542274
 30
0.0
 11
2955.150971
 21
-4282.542274
 31
0.0
  0
MTEXT
  5
AB
100
AcDbEntity
  8
0
  6
BYBLOCK
 62
     5
100
AcDbMText
 10
2939.400971
 20
-4341.249486
 30
0.0
 40
19.32
 41
0.0
 71
     5
 72
     1
  1
\A1;7
 11
0.0
 21
1.0
 31
0.0
  0
LINE
  5
AC
100
AcDbEntity
  8
0
  6
BYBLOCK
100
AcDbLine
 10
2955.150971
 20
-4319.74768
 30
0.0
 11
2955.150971
 21
-4312.542274
 31
0.0
  0
LINE
  5
AD
100
AcDbEntity
  8
0
  6
BYBLOCK
100
AcDbLine
 10
2955.150971
 20
-4319.74768
 30
0.0
 11
2955.150971
 21
-4312.542274
 31
0.0
  0
SOLID
  5
AE
100
AcDbEntity
  8
0
  6
BYBLOCK
100
AcDbTrace
 10
2952.650971
 20
-4334.74768
 30
0.0
 11
2957.650971
 21
-4334.74768
 31
0.0
 12
2955.150971
 22
-4319.74768
 32
0.0
 13
2955.150971
 23
-4319.74768
 33
0.0
  0
SOLID
  5
AF
100
AcDbEntity
  8
0
  6
BYBLOCK
100
AcDbTrace
 10
2952.650971
 20
-4297.542274
 30
0.0
 11
2957.650971
 21
-4297.542274
 31
0.0
 12
2955.150971
 22
-4312.542274
 32
0.0
 13
2955.150971
 23
-4312.542274
 33
0.0
  0
POINT
  5
B0
100
AcDbEntity
  8
DEFPOINTS
  6
BYBLOCK
 62
     0
100
AcDbPoint
 10
2811.682687
 20
-4319.74768
 30
0.0
  0
POINT
  5
B1
100
AcDbEntity
  8
DEFPOINTS
  6
BYBLOCK
 62
     0
100
AcDbPoint
 10
2873.182687
 20
-4312.542274
 30
0.0
  0
POINT
  5
B2
100
AcDbEntity
  8
DEFPOINTS
  6
BYBLOCK
 62
     0
100
AcDbPoint
 10
2955.150971
 20
-4312.542274
 30
0.0
  0
ENDBLK
  5
B4
100
AcDbEntity
  8
0
100
AcDbBlockEnd
  0
BLOCK
  5
11D
100
AcDbEntity
  8
0
100
AcDbBlockBegin
  2
*D7
 70
     1
 10
0.0
 20
0.0
 30
0.0
  3
*D7
  1

  0
LINE
  5
111
100
AcDbEntity
  8
0
  6
BYBLOCK
100
AcDbLine
 10
3566.182687
 20
-4312.542274
 30
0.0
 11
3672.571033
 21
-4312.542274
 31
0.0
  0
LINE
  5
112
100
AcDbEntity
  8
0
  6
BYBLOCK
100
AcDbLine
 10
3572.424258
 20
-4331.542274
 30
0.0
 11
3672.571033
 21
-4331.542274
 31
0.0
  0
LINE
  5
113
100
AcDbEntity
  8
0
  6
BYBLOCK
100
AcDbLine
 10
3666.571033
 20
-4297.542274
 30
0.0
 11
3666.571033
 21
-4282.542274
 31
0.0
  0
LINE
  5
114
100
AcDbEntity
  8
0
  6
BYBLOCK
100
AcDbLine
 10
3666.571033
 20
-4346.542274
 30
0.0
 11
3666.571033
 21
-4361.542274
 31
0.0
  0
MTEXT
  5
115
100
AcDbEntity
  8
0
  6
BYBLOCK
 62
     5
100
AcDbMText
 10
3650.821033
 20
-4287.57797
 30
0.0
 40
19.32
 41
0.0
 71
     5
 72
     1
  1
\A1;19
 11
0.0
 21
1.0
 31
0.0
  0
LINE
  5
116
100
AcDbEntity
  8
0
  6
BYBLOCK
100
AcDbLine
 10
3666.571033
 20
-4312.542274
 30
0.0
 11
3666.571033
 21
-4331.542274
 31
0.0
  0
LINE
  5
117
100
AcDbEntity
  8
0
  6
BYBLOCK
100
AcDbLine
 10
3666.571033
 20
-4312.542274
 30
0.0
 11
3666.571033
 21
-4331.542274
 31
0.0
  0
SOLID
  5
118
100
AcDbEntity
  8
0
  6
BYBLOCK
100
AcDbTrace
 10
3664.071033
 20
-4297.542274
 30
0.0
 11
3669.071033
 21
-4297.542274
 31
0.0
 12
3666.571033
 22
-4312.542274
 32
0.0
 13
3666.571033
 23
-4312.542274
 33
0.0
  0
SOLID
  5
119
100
AcDbEntity
  8
0
  6
BYBLOCK
100
AcDbTrace
 10
3664.071033
 20
-4346.542274
 30
0.0
 11
3669.071033
 21
-4346.542274
 31
0.0
 12
3666.571033
 22
-4331.542274
 32
0.0
 13
3666.571033
 23
-4331.542274
 33
0.0
  0
POINT
  5
11A
100
AcDbEntity
  8
DEFPOINTS
  6
BYBLOCK
 62
     0
100
AcDbPoint
 10
3563.182687
 20
-4312.542274
 30
0.0
  0
POINT
  5
11B
100
AcDbEntity
  8
DEFPOINTS
  6
BYBLOCK
 62
     0
100
AcDbPoint
 10
3569.424258
 20
-4331.542274
 30
0.0
  0
POINT
  5
11C
100
AcDbEntity
  8
DEFPOINTS
  6
BYBLOCK
 62
     0
100
AcDbPoint
 10
3666.571033
 20
-4331.542274
 30
0.0
  0
ENDBLK
  5
11E
100
AcDbEntity
  8
0
100
AcDbBlockEnd
  0
BLOCK
  5
10D
100
AcDbEntity
  8
0
100
AcDbBlockBegin
  2
*D8
 70
     1
 10
0.0
 20
0.0
 30
0.0
  3
*D8
  1

  0
LINE
  5
101
100
AcDbEntity
  8
0
  6
BYBLOCK
100
AcDbLine
 10
3572.424258
 20
-4331.542274
 30
0.0
 11
3672.571033
 21
-4331.542274
 31
0.0
  0
LINE
  5
102
100
AcDbEntity
  8
0
  6
BYBLOCK
100
AcDbLine
 10
3583.205605
 20
-4343.542274
 30
0.0
 11
3672.571033
 21
-4343.542274
 31
0.0
  0
LINE
  5
103
100
AcDbEntity
  8
0
  6
BYBLOCK
100
AcDbLine
 10
3666.571033
 20
-4316.542274
 30
0.0
 11
3666.571033
 21
-4301.542274
 31
0.0
  0
LINE
  5
104
100
AcDbEntity
  8
0
  6
BYBLOCK
100
AcDbLine
 10
3666.571033
 20
-4358.542274
 30
0.0
 11
3666.571033
 21
-4373.542274
 31
0.0
  0
MTEXT
  5
105
100
AcDbEntity
  8
0
  6
BYBLOCK
 62
     5
100
AcDbMText
 10
3686.926315
 20
-4332.304213
 30
0.0
 40
19.32
 41
0.0
 71
     5
 72
     1
  1
\A1;12
 11
0.0
 21
1.0
 31
0.0
  0
LINE
  5
106
100
AcDbEntity
  8
0
  6
BYBLOCK
100
AcDbLine
 10
3666.571033
 20
-4331.542274
 30
0.0
 11
3666.571033
 21
-4343.542274
 31
0.0
  0
LINE
  5
107
100
AcDbEntity
  8
0
  6
BYBLOCK
100
AcDbLine
 10
3666.571033
 20
-4331.542274
 30
0.0
 11
3666.571033
 21
-4343.542274
 31
0.0
  0
SOLID
  5
108
100
AcDbEntity
  8
0
  6
BYBLOCK
100
AcDbTrace
 10
3664.071033
 20
-4316.542274
 30
0.0
 11
3669.071033
 21
-4316.542274
 31
0.0
 12
3666.571033
 22
-4331.542274
 32
0.0
 13
3666.571033
 23
-4331.542274
 33
0.0
  0
SOLID
  5
109
100
AcDbEntity
  8
0
  6
BYBLOCK
100
AcDbTrace
 10
3664.071033
 20
-4358.542274
 30
0.0
 11
3669.071033
 21
-4358.542274
 31
0.0
 12
3666.571033
 22
-4343.542274
 32
0.0
 13
3666.571033
 23
-4343.542274
 33
0.0
  0
POINT
  5
10A
100
AcDbEntity
  8
DEFPOINTS
  6
BYBLOCK
 62
     0
100
AcDbPoint
 10
3569.424258
 20
-4331.542274
 30
0.0
  0
POINT
  5
10B
100
AcDbEntity
  8
DEFPOINTS
  6
BYBLOCK
 62
     0
100
AcDbPoint
 10
3580.205605
 20
-4343.542274
 30
0.0
  0
POINT
  5
10C
100
AcDbEntity
  8
DEFPOINTS
  6
BYBLOCK
 62
     0
100
AcDbPoint
 10
3666.571033
 20
-4343.542274
 30
0.0
  0
ENDBLK
  5
10E
100
AcDbEntity
  8
0
100
AcDbBlockEnd
  0
BLOCK
  5
14C
100
AcDbEntity
  8
0
100
AcDbBlockBegin
  2
*D9
 70
     1
 10
0.0
 20
0.0
 30
0.0
  3
*D9
  1

  0
LINE
  5
140
100
AcDbEntity
  8
0
  6
BYBLOCK
100
AcDbLine
 10
3614.682687
 20
-4418.542274
 30
0.0
 11
3672.571033
 21
-4418.542274
 31
0.0
  0
LINE
  5
141
100
AcDbEntity
  8
0
  6
BYBLOCK
100
AcDbLine
 10
3608.441117
 20
-4399.542274
 30
0.0
 11
3672.571033
 21
-4399.542274
 31
0.0
  0
LINE
  5
142
100
AcDbEntity
  8
0
  6
BYBLOCK
100
AcDbLine
 10
3666.571033
 20
-4433.542274
 30
0.0
 11
3666.571033
 21
-4448.542274
 31
0.0
  0
LINE
  5
143
100
AcDbEntity
  8
0
  6
BYBLOCK
100
AcDbLine
 10
3666.571033
 20
-4384.542274
 30
0.0
 11
3666.571033
 21
-4369.542274
 31
0.0
  0
MTEXT
  5
144
100
AcDbEntity
  8
0
  6
BYBLOCK
 62
     5
100
AcDbMText
 10
3650.821033
 20
-4440.460427
 30
0.0
 40
19.32
 41
0.0
 71
     5
 72
     1
  1
\A1;19
 11
0.0
 21
1.0
 31
0.0
  0
LINE
  5
145
100
AcDbEntity
  8
0
  6
BYBLOCK
100
AcDbLine
 10
3666.571033
 20
-4418.542274
 30
0.0
 11
3666.571033
 21
-4399.542274
 31
0.0
  0
LINE
  5
146
100
AcDbEntity
  8
0
  6
BYBLOCK
100
AcDbLine
 10
3666.571033
 20
-4418.542274
 30
0.0
 11
3666.571033
 21
-4399.542274
 31
0.0
  0
SOLID
  5
147
100
AcDbEntity
  8
0
  6
BYBLOCK
100
AcDbTrace
 10
3664.071033
 20
-4433.542274
 30
0.0
 11
3669.071033
 21
-4433.542274
 31
0.0
 12
3666.571033
 22
-4418.542274
 32
0.0
 13
3666.571033
 23
-4418.542274
 33
0.0
  0
SOLID
  5
148
100
AcDbEntity
  8
0
  6
BYBLOCK
100
AcDbTrace
 10
3664.071033
 20
-4384.542274
 30
0.0
 11
3669.071033
 21
-4384.542274
 31
0.0
 12
3666.571033
 22
-4399.542274
 32
0.0
 13
3666.571033
 23
-4399.542274
 33
0.0
  0
POINT
  5
149
100
AcDbEntity
  8
DEFPOINTS
  6
BYBLOCK
 62
     0
100
AcDbPoint
 10
3611.682687
 20
-4418.542274
 30
0.0
  0
POINT
  5
14A
100
AcDbEntity
  8
DEFPOINTS
  6
BYBLOCK
 62
     0
100
AcDbPoint
 10
3605.441117
 20
-4399.542274
 30
0.0
  0
POINT
  5
14B
100
AcDbEntity
  8
DEFPOINTS
  6
BYBLOCK
 62
     0
100
AcDbPoint
 10
3666.571033
 20
-4399.542274
 30
0.0
  0
ENDBLK
  5
14D
100
AcDbEntity
  8
0
100
AcDbBlockEnd
  0
BLOCK
  5
FD
100
AcDbEntity
  8
0
100
AcDbBlockBegin
  2
*D10
 70
     1
 10
0.0
 20
0.0
 30
0.0
  3
*D10
  1

  0
LINE
  5
F1
100
AcDbEntity
  8
0
  6
BYBLOCK
100
AcDbLine
 10
3608.441117
 20
-4399.542274
 30
0.0
 11
3672.571033
 21
-4399.542274
 31
0.0
  0
LINE
  5
F2
100
AcDbEntity
  8
0
  6
BYBLOCK
100
AcDbLine
 10
3597.659769
 20
-4387.542274
 30
0.0
 11
3672.571033
 21
-4387.542274
 31
0.0
  0
LINE
  5
F3
100
AcDbEntity
  8
0
  6
BYBLOCK
100
AcDbLine
 10
3666.571033
 20
-4414.542274
 30
0.0
 11
3666.571033
 21
-4429.542274
 31
0.0
  0
LINE
  5
F4
100
AcDbEntity
  8
0
  6
BYBLOCK
100
AcDbLine
 10
3666.571033
 20
-4372.542274
 30
0.0
 11
3666.571033
 21
-4357.542274
 31
0.0
  0
MTEXT
  5
F5
100
AcDbEntity
  8
0
  6
BYBLOCK
 62
     5
100
AcDbMText
 10
3685.297868
 20
-4401.426608
 30
0.0
 40
19.32
 41
0.0
 71
     5
 72
     1
  1
\A1;12
 11
0.0
 21
1.0
 31
0.0
  0
LINE
  5
F6
100
AcDbEntity
  8
0
  6
BYBLOCK
100
AcDbLine
 10
3666.571033
 20
-4399.542274
 30
0.0
 11
3666.571033
 21
-4387.542274
 31
0.0
  0
LINE
  5
F7
100
AcDbEntity
  8
0
  6
BYBLOCK
100
AcDbLine
 10
3666.571033
 20
-4399.542274
 30
0.0
 11
3666.571033
 21
-4387.542274
 31
0.0
  0
SOLID
  5
F8
100
AcDbEntity
  8
0
  6
BYBLOCK
100
AcDbTrace
 10
3664.071033
 20
-4414.542274
 30
0.0
 11
3669.071033
 21
-4414.542274
 31
0.0
 12
3666.571033
 22
-4399.542274
 32
0.0
 13
3666.571033
 23
-4399.542274
 33
0.0
  0
SOLID
  5
F9
100
AcDbEntity
  8
0
  6
BYBLOCK
100
AcDbTrace
 10
3664.071033
 20
-4372.542274
 30
0.0
 11
3669.071033
 21
-4372.542274
 31
0.0
 12
3666.571033
 22
-4387.542274
 32
0.0
 13
3666.571033
 23
-4387.542274
 33
0.0
  0
POINT
  5
FA
100
AcDbEntity
  8
DEFPOINTS
  6
BYBLOCK
 62
     0
100
AcDbPoint
 10
3605.441117
 20
-4399.542274
 30
0.0
  0
POINT
  5
FB
100
AcDbEntity
  8
DEFPOINTS
  6
BYBLOCK
 62
     0
100
AcDbPoint
 10
3594.659769
 20
-4387.542274
 30
0.0
  0
POINT
  5
FC
100
AcDbEntity
  8
DEFPOINTS
  6
BYBLOCK
 62
     0
100
AcDbPoint
 10
3666.571033
 20
-4387.542274
 30
0.0
  0
ENDBLK
  5
FE
100
AcDbEntity
  8
0
100
AcDbBlockEnd
  0
BLOCK
  5
ED
100
AcDbEntity
  8
0
100
AcDbBlockBegin
  2
*D11
 70
     1
 10
0.0
 20
0.0
 30
0.0
  3
*D11
  1

  0
LINE
  5
E4
100
AcDbEntity
  8
0
  6
BYBLOCK
100
AcDbLine
 10
3583.205605
 20
-4343.542274
 30
0.0
 11
3672.571033
 21
-4343.542274
 31
0.0
  0
LINE
  5
E5
100
AcDbEntity
  8
0
  6
BYBLOCK
100
AcDbLine
 10
3597.659769
 20
-4387.542274
 30
0.0
 11
3672.571033
 21
-4387.542274
 31
0.0
  0
LINE
  5
E6
100
AcDbEntity
  8
0
  6
BYBLOCK
100
AcDbLine
 10
3666.571033
 20
-4358.542274
 30
0.0
 11
3666.571033
 21
-4372.542274
 31
0.0
  0
SOLID
  5
E7
100
AcDbEntity
  8
0
  6
BYBLOCK
100
AcDbTrace
 10
3664.071033
 20
-4358.542274
 30
0.0
 11
3669.071033
 21
-4358.542274
 31
0.0
 12
3666.571033
 22
-4343.542274
 32
0.0
 13
3666.571033
 23
-4343.542274
 33
0.0
  0
SOLID
  5
E8
100
AcDbEntity
  8
0
  6
BYBLOCK
100
AcDbTrace
 10
3664.071033
 20
-4372.542274
 30
0.0
 11
3669.071033
 21
-4372.542274
 31
0.0
 12
3666.571033
 22
-4387.542274
 32
0.0
 13
3666.571033
 23
-4387.542274
 33
0.0
  0
MTEXT
  5
E9
100
AcDbEntity
  8
0
  6
BYBLOCK
 62
     5
100
AcDbMText
 10
3650.911033
 20
-4365.542274
 30
0.0
 40
19.32
 41
0.0
 71
     5
 72
     1
  1
\A1;44
 11
0.0
 21
1.0
 31
0.0
  0
POINT
  5
EA
100
AcDbEntity
  8
DEFPOINTS
  6
BYBLOCK
 62
     0
100
AcDbPoint
 10
3580.205605
 20
-4343.542274
 30
0.0
  0
POINT
  5
EB
100
AcDbEntity
  8
DEFPOINTS
  6
BYBLOCK
 62
     0
100
AcDbPoint
 10
3594.659769
 20
-4387.542274
 30
0.0
  0
POINT
  5
EC
100
AcDbEntity
  8
DEFPOINTS
  6
BYBLOCK
 62
     0
100
AcDbPoint
 10
3666.571033
 20
-4387.542274
 30
0.0
  0
ENDBLK
  5
EE
100
AcDbEntity
  8
0
100
AcDbBlockEnd
  0
BLOCK
  5
E0
100
AcDbEntity
  8
0
100
AcDbBlockBegin
  2
*D12
 70
     1
 10
0.0
 20
0.0
 30
0.0
  3
*D12
  1

  0
LINE
  5
D7
100
AcDbEntity
  8
0
  6
BYBLOCK
100
AcDbLine
 10
3566.182687
 20
-4312.542274
 30
0.0
 11
3739.678449
 21
-4312.542274
 31
0.0
  0
LINE
  5
D8
100
AcDbEntity
  8
0
  6
BYBLOCK
100
AcDbLine
 10
3645.571033
 20
-4418.542274
 30
0.0
 11
3739.678449
 21
-4418.542274
 31
0.0
  0
LINE
  5
D9
100
AcDbEntity
  8
0
  6
BYBLOCK
100
AcDbLine
 10
3733.678449
 20
-4327.542274
 30
0.0
 11
3733.678449
 21
-4403.542274
 31
0.0
  0
SOLID
  5
DA
100
AcDbEntity
  8
0
  6
BYBLOCK
100
AcDbTrace
 10
3731.178449
 20
-4327.542274
 30
0.0
 11
3736.178449
 21
-4327.542274
 31
0.0
 12
3733.678449
 22
-4312.542274
 32
0.0
 13
3733.678449
 23
-4312.542274
 33
0.0
  0
SOLID
  5
DB
100
AcDbEntity
  8
0
  6
BYBLOCK
100
AcDbTrace
 10
3731.178449
 20
-4403.542274
 30
0.0
 11
3736.178449
 21
-4403.542274
 31
0.0
 12
3733.678449
 22
-4418.542274
 32
0.0
 13
3733.678449
 23
-4418.542274
 33
0.0
  0
MTEXT
  5
DC
100
AcDbEntity
  8
0
  6
BYBLOCK
 62
     5
100
AcDbMText
 10
3718.018449
 20
-4365.542274
 30
0.0
 40
19.32
 41
0.0
 71
     5
 72
     1
  1
\A1;106
 11
0.0
 21
1.0
 31
0.0
  0
POINT
  5
DD
100
AcDbEntity
  8
DEFPOINTS
  6
BYBLOCK
 62
     0
100
AcDbPoint
 10
3563.182687
 20
-4312.542274
 30
0.0
  0
POINT
  5
DE
100
AcDbEntity
  8
DEFPOINTS
  6
BYBLOCK
 62
     0
100
AcDbPoint
 10
3642.571033
 20
-4418.542274
 30
0.0
  0
POINT
  5
DF
100
AcDbEntity
  8
DEFPOINTS
  6
BYBLOCK
 62
     0
100
AcDbPoint
 10
3733.678449
 20
-4418.542274
 30
0.0
  0
ENDBLK
  5
E1
100
AcDbEntity
  8
0
100
AcDbBlockEnd
  0
BLOCK
  5
13A
100
AcDbEntity
  8
0
100
AcDbBlockBegin
  2
*D13
 70
     1
 10
0.0
 20
0.0
 30
0.0
  3
*D13
  1

  0
LINE
  5
130
100
AcDbEntity
  8
0
  6
BYBLOCK
100
AcDbLine
 10
3324.710582
 20
-4385.310668
 30
0.0
 11
3367.194062
 21
-4338.025136
 31
0.0
  0
ARC
  5
131
100
AcDbEntity
  8
0
  6
BYBLOCK
100
AcDbCircle
 10
3311.924258
 20
-4399.542274
 30
0.0
 40
76.698909
100
AcDbArc
 50
11.223266
 51
36.838763
  0
SOLID
  5
132
100
AcDbEntity
  8
0
  6
BYBLOCK
100
AcDbTrace
 10
3389.644411
 20
-4384.369698
 30
0.0
 11
3384.668373
 21
-4384.858623
 31
0.0
 12
3388.623167
 22
-4399.542274
 32
0.0
 13
3388.623167
 23
-4399.542274
 33
0.0
  0
SOLID
  5
133
100
AcDbEntity
  8
0
  6
BYBLOCK
100
AcDbTrace
 10
3371.463728
 20
-4355.243657
 30
0.0
 11
3375.153037
 21
-4351.868899
 31
0.0
 12
3363.184108
 22
-4342.488349
 32
0.0
 13
3363.184108
 23
-4342.488349
 33
0.0
  0
MTEXT
  5
134
100
AcDbEntity
  8
0
  6
BYBLOCK
 62
     5
100
AcDbMText
 10
3397.958491
 20
-4361.18155
 30
0.0
 40
19.32
 41
0.0
 71
     5
 72
     1
  1
\A1;48,06°
 11
0.407231
 21
-0.913325
 31
0.0
  0
POINT
  5
135
100
AcDbEntity
  8
DEFPOINTS
  6
BYBLOCK
 62
     0
100
AcDbPoint
 10
3385.644347
 20
-4378.374585
 30
0.0
  0
POINT
  5
136
100
AcDbEntity
  8
DEFPOINTS
  6
BYBLOCK
 62
     0
100
AcDbPoint
 10
3322.705605
 20
-4387.542274
 30
0.0
  0
POINT
  5
137
100
AcDbEntity
  8
DEFPOINTS
  6
BYBLOCK
 62
     0
100
AcDbPoint
 10
3311.924258
 20
-4399.542274
 30
0.0
  0
POINT
  5
138
100
AcDbEntity
  8
DEFPOINTS
  6
BYBLOCK
 62
     0
100
AcDbPoint
 10
3396.526789
 20
-4399.542274
 30
0.0
  0
POINT
  5
139
100
AcDbEntity
  8
DEFPOINTS
  6
BYBLOCK
 62
     0
100
AcDbPoint
 10
3311.924258
 20
-4399.542274
 30
0.0
  0
ENDBLK
  5
13B
100
AcDbEntity
  8
0
100
AcDbBlockEnd
  0
BLOCK
  5
12C
100
AcDbEntity
  8
0
100
AcDbBlockBegin
  2
*D14
 70
     1
 10
0.0
 20
0.0
 30
0.0
  3
*D14
  1

  0
LINE
  5
121
100
AcDbEntity
  8
0
  6
BYBLOCK
100
AcDbLine
 10
3308.682687
 20
-4418.542274
 30
0.0
 11
3492.23149
 21
-4418.542274
 31
0.0
  0
LINE
  5
122
100
AcDbEntity
  8
0
  6
BYBLOCK
100
AcDbLine
 10
3312.860544
 20
-4396.692122
 30
0.0
 11
3363.903679
 21
-4241.311431
 31
0.0
  0
ARC
  5
123
100
AcDbEntity
  8
0
  6
BYBLOCK
100
AcDbCircle
 10
3305.682687
 20
-4418.542274
 30
0.0
 40
180.548803
100
AcDbArc
 50
4.761505
 51
67.052951
  0
SOLID
  5
124
100
AcDbEntity
  8
0
  6
BYBLOCK
100
AcDbTrace
 10
3488.106232
 20
-4403.451372
 30
0.0
 11
3483.110548
 21
-4403.659072
 31
0.0
 12
3486.23149
 22
-4418.542274
 32
0.0
 13
3486.23149
 23
-4418.542274
 33
0.0
  0
SOLID
  5
125
100
AcDbEntity
  8
0
  6
BYBLOCK
100
AcDbTrace
 10
3375.196875
 20
-4254.621766
 30
0.0
 11
3376.95333
 21
-4249.940434
 31
0.0
 12
3362.031107
 22
-4247.011735
 32
0.0
 13
3362.031107
 23
-4247.011735
 33
0.0
  0
MTEXT
  5
126
100
AcDbEntity
  8
0
  6
BYBLOCK
 62
     5
100
AcDbMText
 10
3503.188369
 20
-4368.085214
 30
0.0
 40
19.32
 41
0.0
 71
     5
 72
     1
  1
\A1;71,81°
 11
0.247522
 21
-0.968882
 31
0.0
  0
POINT
  5
127
100
AcDbEntity
  8
DEFPOINTS
  6
BYBLOCK
 62
     0
100
AcDbPoint
 10
3426.782804
 20
-4284.629497
 30
0.0
  0
POINT
  5
128
100
AcDbEntity
  8
DEFPOINTS
  6
BYBLOCK
 62
     0
100
AcDbPoint
 10
3305.682687
 20
-4418.542274
 30
0.0
  0
POINT
  5
129
100
AcDbEntity
  8
DEFPOINTS
  6
BYBLOCK
 62
     0
100
AcDbPoint
 10
3311.924258
 20
-4399.542274
 30
0.0
  0
POINT
  5
12A
100
AcDbEntity
  8
DEFPOINTS
  6
BYBLOCK
 62
     0
100
AcDbPoint
 10
3305.682687
 20
-4418.542274
 30
0.0
  0
POINT
  5
12B
100
AcDbEntity
  8
DEFPOINTS
  6
BYBLOCK
 62
     0
100
AcDbPoint
 10
3286.182687
 20
-4418.542274
 30
0.0
  0
ENDBLK
  5
12D
100
AcDbEntity
  8
0
100
AcDbBlockEnd
  0
BLOCK
  5
5D
100
AcDbEntity
  8
0
100
AcDbBlockBegin
  2
*D15
 70
     1
 10
0.0
 20
0.0
 30
0.0
  3
*D15
  1

  0
LINE
  5
52
100
AcDbEntity
  8
0
  6
BYBLOCK
100
AcDbLine
 10
3009.182687
 20
-4315.542274
 30
0.0
 11
3009.182687
 21
-4484.542274
 31
0.0
  0
LINE
  5
53
100
AcDbEntity
  8
0
  6
BYBLOCK
100
AcDbLine
 10
3070.682687
 20
-4322.74768
 30
0.0
 11
3070.682687
 21
-4484.542274
 31
0.0
  0
LINE
  5
54
100
AcDbEntity
  8
0
  6
BYBLOCK
100
AcDbLine
 10
2994.182687
 20
-4478.542274
 30
0.0
 11
2979.182687
 21
-4478.542274
 31
0.0
  0
LINE
  5
55
100
AcDbEntity
  8
0
  6
BYBLOCK
100
AcDbLine
 10
3085.682687
 20
-4478.542274
 30
0.0
 11
3100.682687
 21
-4478.542274
 31
0.0
  0
LINE
  5
56
100
AcDbEntity
  8
0
  6
BYBLOCK
100
AcDbLine
 10
3009.182687
 20
-4478.542274
 30
0.0
 11
3070.682687
 21
-4478.542274
 31
0.0
  0
SOLID
  5
57
100
AcDbEntity
  8
0
  6
BYBLOCK
100
AcDbTrace
 10
2994.182687
 20
-4476.042274
 30
0.0
 11
2994.182687
 21
-4481.042274
 31
0.0
 12
3009.182687
 22
-4478.542274
 32
0.0
 13
3009.182687
 23
-4478.542274
 33
0.0
  0
SOLID
  5
58
100
AcDbEntity
  8
0
  6
BYBLOCK
100
AcDbTrace
 10
3085.682687
 20
-4476.042274
 30
0.0
 11
3085.682687
 21
-4481.042274
 31
0.0
 12
3070.682687
 22
-4478.542274
 32
0.0
 13
3070.682687
 23
-4478.542274
 33
0.0
  0
MTEXT
  5
59
100
AcDbEntity
  8
0
  6
BYBLOCK
 62
     5
100
AcDbMText
 10
3039.932687
 20
-4461.042274
 30
0.0
 40
19.32
 41
0.0
 71
     5
 72
     1
  1
\A1;61,5
  0
POINT
  5
5A
100
AcDbEntity
  8
DEFPOINTS
  6
BYBLOCK
 62
     0
100
AcDbPoint
 10
3009.182687
 20
-4312.542274
 30
0.0
  0
POINT
  5
5B
100
AcDbEntity
  8
DEFPOINTS
  6
BYBLOCK
 62
     0
100
AcDbPoint
 10
3070.682687
 20
-4319.74768
 30
0.0
  0
POINT
  5
5C
100
AcDbEntity
  8
DEFPOINTS
  6
BYBLOCK
 62
     0
100
AcDbPoint
 10
3070.682687
 20
-4478.542274
 30
0.0
  0
ENDBLK
  5
5E
100
AcDbEntity
  8
0
100
AcDbBlockEnd
  0
BLOCK
  5
4E
100
AcDbEntity
  8
0
100
AcDbBlockBegin
  2
*D16
 70
     1
 10
0.0
 20
0.0
 30
0.0
  3
*D16
  1

  0
LINE
  5
45
100
AcDbEntity
  8
0
  6
BYBLOCK
100
AcDbLine
 10
3070.682687
 20
-4322.74768
 30
0.0
 11
3070.682687
 21
-4484.542274
 31
0.0
  0
LINE
  5
46
100
AcDbEntity
  8
0
  6
BYBLOCK
100
AcDbLine
 10
3156.682687
 20
-4322.74768
 30
0.0
 11
3156.682687
 21
-4484.542274
 31
0.0
  0
LINE
  5
47
100
AcDbEntity
  8
0
  6
BYBLOCK
100
AcDbLine
 10
3085.682687
 20
-4478.542274
 30
0.0
 11
3141.682687
 21
-4478.542274
 31
0.0
  0
SOLID
  5
48
100
AcDbEntity
  8
0
  6
BYBLOCK
100
AcDbTrace
 10
3085.682687
 20
-4476.042274
 30
0.0
 11
3085.682687
 21
-4481.042274
 31
0.0
 12
3070.682687
 22
-4478.542274
 32
0.0
 13
3070.682687
 23
-4478.542274
 33
0.0
  0
SOLID
  5
49
100
AcDbEntity
  8
0
  6
BYBLOCK
100
AcDbTrace
 10
3141.682687
 20
-4476.042274
 30
0.0
 11
3141.682687
 21
-4481.042274
 31
0.0
 12
3156.682687
 22
-4478.542274
 32
0.0
 13
3156.682687
 23
-4478.542274
 33
0.0
  0
MTEXT
  5
4A
100
AcDbEntity
  8
0
  6
BYBLOCK
 62
     5
100
AcDbMText
 10
3113.682687
 20
-4462.882274
 30
0.0
 40
19.32
 41
0.0
 71
     5
 72
     1
  1
\A1;86
  0
POINT
  5
4B
100
AcDbEntity
  8
DEFPOINTS
  6
BYBLOCK
 62
     0
100
AcDbPoint
 10
3070.682687
 20
-4319.74768
 30
0.0
  0
POINT
  5
4C
100
AcDbEntity
  8
DEFPOINTS
  6
BYBLOCK
 62
     0
100
AcDbPoint
 10
3156.682687
 20
-4319.74768
 30
0.0
  0
POINT
  5
4D
100
AcDbEntity
  8
DEFPOINTS
  6
BYBLOCK
 62
     0
100
AcDbPoint
 10
3156.682687
 20
-4478.542274
 30
0.0
  0
ENDBLK
  5
4F
100
AcDbEntity
  8
0
100
AcDbBlockEnd
  0
BLOCK
  5
2C
100
AcDbEntity
  8
0
100
AcDbBlockBegin
  2
*D17
 70
     1
 10
0.0
 20
0.0
 30
0.0
  3
*D17
  1

  0
LINE
  5
20
100
AcDbEntity
  8
0
  6
BYBLOCK
100
AcDbLine
 10
3156.682687
 20
-4322.74768
 30
0.0
 11
3156.682687
 21
-4484.542274
 31
0.0
  0
LINE
  5
21
100
AcDbEntity
  8
0
  6
BYBLOCK
100
AcDbLine
 10
3218.182687
 20
-4315.542274
 30
0.0
 11
3218.182687
 21
-4484.542274
 31
0.0
  0
LINE
  5
22
100
AcDbEntity
  8
0
  6
BYBLOCK
100
AcDbLine
 10
3141.682687
 20
-4478.542274
 30
0.0
 11
3126.682687
 21
-4478.542274
 31
0.0
  0
LINE
  5
23
100
AcDbEntity
  8
0
  6
BYBLOCK
100
AcDbLine
 10
3233.182687
 20
-4478.542274
 30
0.0
 11
3248.182687
 21
-4478.542274
 31
0.0
  0
LINE
  5
24
100
AcDbEntity
  8
0
  6
BYBLOCK
100
AcDbLine
 10
3156.682687
 20
-4478.542274
 30
0.0
 11
3218.182687
 21
-4478.542274
 31
0.0
  0
SOLID
  5
25
100
AcDbEntity
  8
0
  6
BYBLOCK
100
AcDbTrace
 10
3141.682687
 20
-4476.042274
 30
0.0
 11
3141.682687
 21
-4481.042274
 31
0.0
 12
3156.682687
 22
-4478.542274
 32
0.0
 13
3156.682687
 23
-4478.542274
 33
0.0
  0
SOLID
  5
26
100
AcDbEntity
  8
0
  6
BYBLOCK
100
AcDbTrace
 10
3233.182687
 20
-4476.042274
 30
0.0
 11
3233.182687
 21
-4481.042274
 31
0.0
 12
3218.182687
 22
-4478.542274
 32
0.0
 13
3218.182687
 23
-4478.542274
 33
0.0
  0
MTEXT
  5
27
100
AcDbEntity
  8
0
  6
BYBLOCK
 62
     5
100
AcDbMText
 10
3187.432687
 20
-4461.042274
 30
0.0
 40
19.32
 41
0.0
 71
     5
 72
     1
  1
\A1;61,5
  0
POINT
  5
28
100
AcDbEntity
  8
DEFPOINTS
  6
BYBLOCK
 62
     0
100
AcDbPoint
 10
3156.682687
 20
-4319.74768
 30
0.0
  0
POINT
  5
2A
100
AcDbEntity
  8
DEFPOINTS
  6
BYBLOCK
 62
     0
100
AcDbPoint
 10
3218.182687
 20
-4312.542274
 30
0.0
  0
POINT
  5
2B
100
AcDbEntity
  8
DEFPOINTS
  6
BYBLOCK
 62
     0
100
AcDbPoint
 10
3218.182687
 20
-4478.542274
 30
0.0
  0
ENDBLK
  5
2D
100
AcDbEntity
  8
0
100
AcDbBlockEnd
  0
BLOCK
  5
A3
100
AcDbEntity
  8
0
100
AcDbBlockBegin
  2
*D18
 70
     1
 10
0.0
 20
0.0
 30
0.0
  3
*D18
  1

  0
LINE
  5
99
100
AcDbEntity
  8
0
  6
BYBLOCK
100
AcDbLine
 10
3003.877402
 20
-4328.692122
 30
0.0
 11
3018.092792
 21
-4285.418974
 31
0.0
  0
LINE
  5
9A
100
AcDbEntity
  8
0
  6
BYBLOCK
100
AcDbLine
 10
2997.704271
 20
-4326.664225
 30
0.0
 11
3011.919661
 21
-4283.391077
 31
0.0
  0
LINE
  5
9B
100
AcDbEntity
  8
0
  6
BYBLOCK
100
AcDbLine
 10
3030.470983
 20
-4295.800707
 30
0.0
 11
3044.721746
 21
-4300.482136
 31
0.0
  0
LINE
  5
9C
100
AcDbEntity
  8
0
  6
BYBLOCK
100
AcDbLine
 10
2995.796327
 20
-4284.409954
 30
0.0
 11
2981.545565
 21
-4279.728525
 31
0.0
  0
LINE
  5
9D
100
AcDbEntity
  8
0
  6
BYBLOCK
100
AcDbLine
 10
3016.220221
 20
-4291.119279
 30
0.0
 11
3010.04709
 21
-4289.091382
 31
0.0
  0
SOLID
  5
9E
100
AcDbEntity
  8
0
  6
BYBLOCK
100
AcDbTrace
 10
3031.251221
 20
-4293.42558
 30
0.0
 11
3029.690745
 21
-4298.175834
 31
0.0
 12
3016.220221
 22
-4291.119279
 32
0.0
 13
3016.220221
 23
-4291.119279
 33
0.0
  0
SOLID
  5
9F
100
AcDbEntity
  8
0
  6
BYBLOCK
100
AcDbTrace
 10
2996.576565
 20
-4282.034827
 30
0.0
 11
2995.016089
 21
-4286.785081
 31
0.0
 12
3010.04709
 22
-4289.091382
 32
0.0
 13
3010.04709
 23
-4289.091382
 33
0.0
  0
POINT
  5
A0
100
AcDbEntity
  8
DEFPOINTS
  6
BYBLOCK
 62
     0
100
AcDbPoint
 10
3002.941117
 20
-4331.542274
 30
0.0
  0
POINT
  5
A1
100
AcDbEntity
  8
DEFPOINTS
  6
BYBLOCK
 62
     0
100
AcDbPoint
 10
2996.767985
 20
-4329.514378
 30
0.0
  0
POINT
  5
A2
100
AcDbEntity
  8
DEFPOINTS
  6
BYBLOCK
 62
     0
100
AcDbPoint
 10
3010.04709
 20
-4289.091382
 30
0.0
  0
ENDBLK
  5
A4
100
AcDbEntity
  8
0
100
AcDbBlockEnd
  0
BLOCK
  5
95
100
AcDbEntity
  8
0
100
AcDbBlockBegin
  2
*D19
 70
     1
 10
0.0
 20
0.0
 30
0.0
  3
*D19
  1

  0
LINE
  5
8A
100
AcDbEntity
  8
0
  6
BYBLOCK
100
AcDbLine
 10
2997.704271
 20
-4326.664225
 30
0.0
 11
3011.919661
 21
-4283.391077
 31
0.0
  0
LINE
  5
8B
100
AcDbEntity
  8
0
  6
BYBLOCK
100
AcDbLine
 10
2967.860544
 20
-4396.692122
 30
0.0
 11
3005.74653
 21
-4281.363181
 31
0.0
  0
LINE
  5
8C
100
AcDbEntity
  8
0
  6
BYBLOCK
100
AcDbLine
 10
3024.297852
 20
-4293.772811
 30
0.0
 11
3038.548614
 21
-4298.454239
 31
0.0
  0
LINE
  5
8D
100
AcDbEntity
  8
0
  6
BYBLOCK
100
AcDbLine
 10
2989.623196
 20
-4282.382057
 30
0.0
 11
2975.372434
 21
-4277.700629
 31
0.0
  0
LINE
  5
8E
100
AcDbEntity
  8
0
  6
BYBLOCK
100
AcDbLine
 10
3010.04709
 20
-4289.091382
 30
0.0
 11
3003.873958
 21
-4287.063486
 31
0.0
  0
SOLID
  5
8F
100
AcDbEntity
  8
0
  6
BYBLOCK
100
AcDbTrace
 10
3025.07809
 20
-4291.397683
 30
0.0
 11
3023.517614
 21
-4296.147938
 31
0.0
 12
3010.04709
 22
-4289.091382
 32
0.0
 13
3010.04709
 23
-4289.091382
 33
0.0
  0
SOLID
  5
90
100
AcDbEntity
  8
0
  6
BYBLOCK
100
AcDbTrace
 10
2990.403434
 20
-4280.00693
 30
0.0
 11
2988.842958
 21
-4284.757184
 31
0.0
 12
3003.873958
 22
-4287.063486
 32
0.0
 13
3003.873958
 23
-4287.063486
 33
0.0
  0
MTEXT
  5
91
100
AcDbEntity
  8
0
  6
BYBLOCK
 62
     5
100
AcDbMText
 10
3012.422191
 20
-4271.451544
 30
0.0
 40
19.32
 41
0.0
 71
     5
 72
     1
  1
\A1;2x6,5
 11
0.950051
 21
-0.312095
 31
0.0
  0
POINT
  5
92
100
AcDbEntity
  8
DEFPOINTS
  6
BYBLOCK
 62
     0
100
AcDbPoint
 10
2996.767985
 20
-4329.514378
 30
0.0
  0
POINT
  5
93
100
AcDbEntity
  8
DEFPOINTS
  6
BYBLOCK
 62
     0
100
AcDbPoint
 10
2966.924258
 20
-4399.542274
 30
0.0
  0
POINT
  5
94
100
AcDbEntity
  8
DEFPOINTS
  6
BYBLOCK
 62
     0
100
AcDbPoint
 10
3003.873958
 20
-4287.063486
 30
0.0
  0
ENDBLK
  5
96
100
AcDbEntity
  8
0
100
AcDbBlockEnd
  0
ENDSEC
  0
SECTION
  2
ENTITIES
  0
DIMENSION
  5
1E
100
AcDbEntity
  8
KOTY-UPLNE
100
AcDbDimension
  2
*D17
 10
774.855297
 20
-315.884928
 30
0.0
 11
744.105297
 21
-298.384928
 31
0.0
 12
-2443.32739
 22
4162.657346
 32
0.0
  1
61,5
  3
UPLNE
100
AcDbAlignedDimension
 13
713.355297
 23
-157.090334
 33
0.0
 14
774.855297
 24
-149.884928
 34
0.0
100
AcDbRotatedDimension
1001
ACAD
1000
DSTYLE
1002
{
1070
    40
1040
3.0
1070
   147
1040
2.0
1002
}
  0
MTEXT
  5
2E
100
AcDbEntity
  8
KOTY-UPLNE
  6
BYBLOCK
 62
     5
100
AcDbMText
 10
726.844496
 20
-85.198963
 30
0.0
 40
16.5
 41
0.0
 71
     5
 72
     1
  1
všechna zaoblení R=2
  0
DIMENSION
  5
2F
100
AcDbEntity
  8
KOTY-UPLNE
100
AcDbDimension
  2
*D5
 10
1187.855297
 20
-375.884928
 30
0.0
 11
670.355297
 21
-360.224928
 31
0.0
 12
-2443.32739
 22
4162.657346
 32
0.0
  3
UPLNE
100
AcDbAlignedDimension
 13
152.855297
 23
-255.884928
 33
0.0
 14
1187.855297
 24
-260.884928
 34
0.0
100
AcDbRotatedDimension
1001
ACAD
1000
DSTYLE
1002
{
1070
    40
1040
3.0
1070
   147
1040
2.0
1002
}
  0
LWPOLYLINE
  5
3C
100
AcDbEntity
  8
TRAPEZ-VELKY
100
AcDbPolyline
 90
      115
 70
     0
 43
5.0
 10
1192.855297
 20
-255.884928
 10
1171.975655
 20
-255.884928
 42
-0.324025
 10
1167.225401
 20
-252.445404
 10
1162.441894
 20
-237.883904
 42
0.104012
 10
1161.410984
 20
-236.102752
 10
1152.035122
 20
-225.667104
 42
-0.104012
 10
1151.004212
 20
-223.885952
 10
1137.206383
 20
-181.883904
 42
0.104012
 10
1136.175473
 20
-180.102752
 10
1126.799611
 20
-169.667104
 42
-0.104012
 10
1125.7687
 20
-167.885952
 10
1120.985194
 20
-153.324452
 42
0.324025
 10
1116.234939
 20
-149.884928
 10
1074.960661
 20
-149.884928
 42
0.109218
 10
1072.852944
 20
-150.350887
 10
1060.463014
 20
-156.11053
 42
-0.221073
 10
1056.247581
 20
-156.11053
 10
1043.85765
 20
-150.350887
 42
0.109218
 10
1041.749933
 20
-149.884928
 10
988.960661
 20
-149.884928
 42
0.109218
 10
986.852944
 20
-150.350887
 10
974.463014
 20
-156.11053
 42
-0.221073
 10
970.247581
 20
-156.11053
 10
957.85765
 20
-150.350887
 42
0.109218
 10
955.749933
 20
-149.884928
 10
914.475655
 20
-149.884928
 42
0.324025
 10
909.725401
 20
-153.324452
 10
904.941894
 20
-167.885952
 42
-0.104012
 10
903.910984
 20
-169.667104
 10
894.535122
 20
-180.102752
 42
0.104012
 10
893.504212
 20
-181.883904
 10
879.706383
 20
-223.885952
 42
-0.104012
 10
878.675473
 20
-225.667104
 10
869.299611
 20
-236.102752
 42
0.104012
 10
868.2687
 20
-237.883904
 10
863.485194
 20
-252.445404
 42
-0.324025
 10
858.734939
 20
-255.884928
 10
842.855297
 20
-255.884928
 10
826.975655
 20
-255.884928
 42
-0.324025
 10
822.225401
 20
-252.445404
 10
817.441894
 20
-237.883904
 42
0.104012
 10
816.410984
 20
-236.102752
 10
807.035122
 20
-225.667104
 42
-0.104012
 10
806.004212
 20
-223.885952
 10
792.206383
 20
-181.883904
 42
0.104012
 10
791.175473
 20
-180.102752
 10
781.799611
 20
-169.667104
 42
-0.104012
 10
780.7687
 20
-167.885952
 10
775.985194
 20
-153.324452
 42
0.324025
 10
771.234939
 20
-149.884928
 10
729.960661
 20
-149.884928
 42
0.109218
 10
727.852944
 20
-150.350887
 10
715.463014
 20
-156.11053
 42
-0.221073
 10
711.247581
 20
-156.11053
 10
698.85765
 20
-150.350887
 42
0.109218
 10
696.749933
 20
-149.884928
 10
643.960661
 20
-149.884928
 42
0.109218
 10
641.852944
 20
-150.350887
 10
629.463014
 20
-156.11053
 42
-0.221073
 10
625.247581
 20
-156.11053
 10
612.85765
 20
-150.350887
 42
0.109218
 10
610.749933
 20
-149.884928
 10
569.475655
 20
-149.884928
 42
0.324025
 10
564.725401
 20
-153.324452
 10
559.941894
 20
-167.885952
 42
-0.104012
 10
558.910984
 20
-169.667104
 10
549.535122
 20
-180.102752
 42
0.104012
 10
548.504212
 20
-181.883904
 10
534.706383
 20
-223.885952
 42
-0.104012
 10
533.675473
 20
-225.667104
 10
524.299611
 20
-236.102752
 42
0.104012
 10
523.2687
 20
-237.883904
 10
518.485194
 20
-252.445404
 42
-0.324025
 10
513.734939
 20
-255.884928
 10
497.855297
 20
-255.884928
 10
481.975655
 20
-255.884928
 42
-0.324025
 10
477.225401
 20
-252.445404
 10
472.441894
 20
-237.883904
 42
0.104012
 10
471.410984
 20
-236.102752
 10
462.035122
 20
-225.667104
 42
-0.104012
 10
461.004212
 20
-223.885952
 10
447.206383
 20
-181.883904
 42
0.104012
 10
446.175473
 20
-180.102752
 10
436.799611
 20
-169.667104
 42
-0.104012
 10
435.7687
 20
-167.885952
 10
430.985194
 20
-153.324452
 42
0.324025
 10
426.234939
 20
-149.884928
 10
384.960661
 20
-149.884928
 42
0.109218
 10
382.852944
 20
-150.350887
 10
370.463014
 20
-156.11053
 42
-0.221073
 10
366.247581
 20
-156.11053
 10
353.85765
 20
-150.350887
 42
0.109218
 10
351.749933
 20
-149.884928
 10
298.960661
 20
-149.884928
 42
0.109218
 10
296.852944
 20
-150.350887
 10
284.463014
 20
-156.11053
 42
-0.221073
 10
280.247581
 20
-156.11053
 10
267.85765
 20
-150.350887
 42
0.109218
 10
265.749933
 20
-149.884928
 10
224.475655
 20
-149.884928
 42
0.324025
 10
219.725401
 20
-153.324452
 10
214.941894
 20
-167.885952
 42
-0.104012
 10
213.910984
 20
-169.667104
 10
204.535122
 20
-180.102752
 42
0.104012
 10
203.504212
 20
-181.883904
 10
189.706383
 20
-223.885952
 42
-0.104012
 10
188.675473
 20
-225.667104
 10
179.299611
 20
-236.102752
 42
0.104012
 10
178.2687
 20
-237.883904
 10
173.485194
 20
-252.445404
 42
-0.324025
 10
168.734939
 20
-255.884928
 10
152.855297
 20
-255.884928
 10
136.975655
 20
-255.884928
 42
-0.324025
 10
132.225401
 20
-252.445404
 10
129.860018
 20
-245.244928
  0
MTEXT
  5
3E
100
AcDbEntity
  8
POPIS
100
AcDbMText
 10
661.730741
 20
-42.124031
 30
0.0
 40
40.0
 41
1.0
 71
     5
 72
     1
  1
TR 105/345
  7
STYLE1
  0
LWPOLYLINE
  5
41
100
AcDbEntity
  8
RAMEC
100
AcDbPolyline
 90
        4
 70
     1
 43
0.0
 10
0.0
 20
0.0
 10
0.0
 20
-425.001233
 10
1349.672502
 20
-425.001233
 10
1349.672502
 20
0.0
  0
DIMENSION
  5
43
100
AcDbEntity
  8
KOTY-UPLNE
100
AcDbDimension
  2
*D16
 10
713.355297
 20
-315.884928
 30
0.0
 11
670.355297
 21
-300.224928
 31
0.0
 12
-2443.32739
 22
4162.657346
 32
0.0
  3
UPLNE
100
AcDbAlignedDimension
 13
627.355297
 23
-157.090334
 33
0.0
 14
713.355297
 24
-157.090334
 34
0.0
100
AcDbRotatedDimension
1001
ACAD
1000
DSTYLE
1002
{
1070
    40
1040
3.0
1070
   147
1040
2.0
1002
}
  0
DIMENSION
  5
50
100
AcDbEntity
  8
KOTY-UPLNE
100
AcDbDimension
  2
*D15
 10
627.355297
 20
-315.884928
 30
0.0
 11
596.605297
 21
-298.384928
 31
0.0
 12
-2443.32739
 22
4162.657346
 32
0.0
  1
61,5
  3
UPLNE
100
AcDbAlignedDimension
 13
565.855297
 23
-149.884928
 33
0.0
 14
627.355297
 24
-157.090334
 34
0.0
100
AcDbRotatedDimension
1001
ACAD
1000
DSTYLE
1002
{
1070
    40
1040
3.0
1070
   147
1040
2.0
1002
}
  0
DIMENSION
  5
5F
100
AcDbEntity
  8
KOTY-UPLNE
100
AcDbDimension
  2
*D4
 10
152.855297
 20
-315.884928
 30
0.0
 11
325.355297
 21
-300.224928
 31
0.0
 12
-2443.32739
 22
4162.657346
 32
0.0
  3
UPLNE
100
AcDbAlignedDimension
 13
497.855297
 23
-255.884928
 33
0.0
 14
152.855297
 24
-255.884928
 34
0.0
100
AcDbRotatedDimension
1001
ACAD
1000
DSTYLE
1002
{
1070
    40
1040
3.0
1070
   147
1040
2.0
1002
}
  0
DIMENSION
  5
6C
100
AcDbEntity
  8
KOTY-UPLNE
100
AcDbDimension
  2
*D1
 10
429.855297
 20
-111.073246
 30
0.0
 11
325.355297
 21
-95.413246
 31
0.0
 12
-2443.32739
 22
4162.657346
 32
0.0
  3
UPLNE
100
AcDbAlignedDimension
 13
220.855297
 23
-149.884928
 33
0.0
 14
429.855297
 24
-149.884928
 34
0.0
100
AcDbRotatedDimension
1001
ACAD
1000
DSTYLE
1002
{
1070
    40
1040
3.0
1070
   147
1040
2.0
1002
}
  0
DIMENSION
  5
79
100
AcDbEntity
  8
KOTY-UPLNE
100
AcDbDimension
  2
*D0
 10
220.855297
 20
-111.073246
 30
0.0
 11
196.605297
 21
-93.573246
 31
0.0
 12
-2443.32739
 22
4162.657346
 32
0.0
  1
48,5
  3
UPLNE
100
AcDbAlignedDimension
 13
172.355297
 23
-255.884928
 33
0.0
 14
220.855297
 24
-149.884928
 34
0.0
100
AcDbRotatedDimension
1001
ACAD
1000
DSTYLE
1002
{
1070
    40
1040
3.0
1070
   147
1040
2.0
1002
}
  0
DIMENSION
  5
88
100
AcDbEntity
  8
KOTY-UPLNE
100
AcDbDimension
  2
*D19
 10
560.546568
 20
-124.406139
 30
0.0
 11
569.0948
 21
-108.794198
 31
0.0
 12
-2443.32739
 22
4162.657346
 32
0.0
  1
2x6,5
  3
UPLNE
100
AcDbAlignedDimension
 13
553.440595
 23
-166.857032
 33
0.0
 14
523.596868
 24
-236.884928
 34
0.0
 50
341.814456
100
AcDbRotatedDimension
1001
ACAD
1000
DSTYLE
1002
{
1070
    40
1040
3.0
1070
   147
1040
2.0
1002
}
  0
DIMENSION
  5
97
100
AcDbEntity
  8
KOTY-UPLNE
100
AcDbDimension
  2
*D18
 10
566.7197
 20
-126.434036
 30
0.0
 11
569.806265
 21
-127.447984
 31
0.0
 12
-2443.32739
 22
4162.657346
 32
0.0
 70
     1
  1
 
  3
UPLNE
100
AcDbAlignedDimension
 13
559.613726
 23
-168.884928
 33
0.0
 14
553.440595
 24
-166.857032
 34
0.0
1001
ACAD
1000
DSTYLE
1002
{
1070
    40
1040
3.0
1070
   147
1040
2.0
1002
}
  0
DIMENSION
  5
A5
100
AcDbEntity
  8
KOTY-UPLNE
100
AcDbDimension
  2
*D6
 10
511.823581
 20
-149.884928
 30
0.0
 11
496.073581
 21
-178.59214
 31
0.0
 12
-2443.32739
 22
4162.657346
 32
0.0
 70
   128
  3
UPLNE
100
AcDbAlignedDimension
 13
368.355297
 23
-157.090334
 33
0.0
 14
429.855297
 24
-149.884928
 34
0.0
 50
90.0
100
AcDbRotatedDimension
1001
ACAD
1000
DSTYLE
1002
{
1070
    40
1040
3.0
1070
   147
1040
2.0
1002
}
  0
DIMENSION
  5
B5
100
AcDbEntity
  8
KOTY-UPLNE
100
AcDbDimension
  2
*D2
 10
478.355297
 20
-111.073246
 30
0.0
 11
454.105297
 21
-93.573246
 31
0.0
 12
-2443.32739
 22
4162.657346
 32
0.0
  1
48,5
  3
UPLNE
100
AcDbAlignedDimension
 13
429.855297
 23
-149.884928
 33
0.0
 14
478.355297
 24
-255.884928
 34
0.0
100
AcDbRotatedDimension
1001
ACAD
1000
DSTYLE
1002
{
1070
    40
1040
3.0
1070
   147
1040
2.0
1002
}
  0
DIMENSION
  5
C4
100
AcDbEntity
  8
KOTY-UPLNE
100
AcDbDimension
  2
*D3
 10
823.355297
 20
-315.884928
 30
0.0
 11
842.855297
 21
-300.224928
 31
0.0
 12
-2443.32739
 22
4162.657346
 32
0.0
  3
UPLNE
100
AcDbAlignedDimension
 13
862.355297
 23
-255.884928
 33
0.0
 14
823.355297
 24
-255.884928
 34
0.0
100
AcDbRotatedDimension
1001
ACAD
1000
DSTYLE
1002
{
1070
    40
1040
3.0
1070
   147
1040
2.0
1002
}
  0
MTEXT
  5
D3
100
AcDbEntity
  8
POZICE
100
AcDbMText
 10
920.375683
 20
-316.123085
 30
0.0
 40
41.73
 41
1.0
 71
     5
 72
     1
  1
B
  7
STYLE1
  0
DIMENSION
  5
D5
100
AcDbEntity
  8
KOTY-UPLNE
100
AcDbDimension
  2
*D12
 10
1290.351059
 20
-255.884928
 30
0.0
 11
1274.691059
 21
-202.884928
 31
0.0
 12
-2443.32739
 22
4162.657346
 32
0.0
  3
UPLNE
100
AcDbAlignedDimension
 13
1119.855297
 23
-149.884928
 33
0.0
 14
1199.243643
 24
-255.884928
 34
0.0
 50
90.0
100
AcDbRotatedDimension
1001
ACAD
1000
DSTYLE
1002
{
1070
    40
1040
3.0
1070
   147
1040
2.0
1002
}
  0
DIMENSION
  5
E2
100
AcDbEntity
  8
KOTY-UPLNE
100
AcDbDimension
  2
*D11
 10
1223.243643
 20
-224.884928
 30
0.0
 11
1207.583643
 21
-202.884928
 31
0.0
 12
-2443.32739
 22
4162.657346
 32
0.0
  3
UPLNE
100
AcDbAlignedDimension
 13
1136.878215
 23
-180.884928
 33
0.0
 14
1151.332379
 24
-224.884928
 34
0.0
 50
90.0
100
AcDbRotatedDimension
1001
ACAD
1000
DSTYLE
1002
{
1070
    40
1040
3.0
1070
   147
1040
2.0
1002
}
  0
DIMENSION
  5
EF
100
AcDbEntity
  8
KOTY-UPLNE
100
AcDbDimension
  2
*D10
 10
1223.243643
 20
-224.884928
 30
0.0
 11
1241.970478
 21
-238.769262
 31
0.0
 12
-2443.32739
 22
4162.657346
 32
0.0
 70
   128
  3
UPLNE
100
AcDbAlignedDimension
 13
1162.113726
 23
-236.884928
 33
0.0
 14
1151.332379
 24
-224.884928
 34
0.0
 50
90.0
100
AcDbRotatedDimension
1001
ACAD
1000
DSTYLE
1002
{
1070
    40
1040
3.0
1070
   147
1040
2.0
1002
}
  0
DIMENSION
  5
FF
100
AcDbEntity
  8
KOTY-UPLNE
100
AcDbDimension
  2
*D8
 10
1223.243643
 20
-180.884928
 30
0.0
 11
1243.598925
 21
-169.646867
 31
0.0
 12
-2443.32739
 22
4162.657346
 32
0.0
 70
   128
  3
UPLNE
100
AcDbAlignedDimension
 13
1126.096868
 23
-168.884928
 33
0.0
 14
1136.878215
 24
-180.884928
 34
0.0
 50
90.0
100
AcDbRotatedDimension
1001
ACAD
1000
DSTYLE
1002
{
1070
    40
1040
3.0
1070
   147
1040
2.0
1002
}
  0
DIMENSION
  5
10F
100
AcDbEntity
  8
KOTY-UPLNE
100
AcDbDimension
  2
*D7
 10
1223.243643
 20
-168.884928
 30
0.0
 11
1207.493643
 21
-124.920623
 31
0.0
 12
-2443.32739
 22
4162.657346
 32
0.0
 70
   128
  3
UPLNE
100
AcDbAlignedDimension
 13
1119.855297
 23
-149.884928
 33
0.0
 14
1126.096868
 24
-168.884928
 34
0.0
 50
90.0
100
AcDbRotatedDimension
1001
ACAD
1000
DSTYLE
1002
{
1070
    40
1040
3.0
1070
   147
1040
2.0
1002
}
  0
DIMENSION
  5
11F
100
AcDbEntity
  8
KOTY-UPLNE
100
AcDbDimension
  2
*D14
 10
842.855297
 20
-255.884928
 30
0.0
 11
1059.860979
 21
-205.427868
 31
0.0
 12
-2443.32739
 22
4162.657346
 32
0.0
 70
   130
  1
71,81%%D
  3
UPLNE
100
AcDb2LineAngularDimension
 13
868.596868
 23
-236.884928
 33
0.0
 14
862.355297
 24
-255.884928
 34
0.0
 15
862.355297
 25
-255.884928
 35
0.0
 16
983.455414
 26
-121.972151
 36
0.0
1001
ACAD
1000
DSTYLE
1002
{
1070
    40
1040
3.0
1070
   147
1040
2.0
1002
}
  0
DIMENSION
  5
12E
100
AcDbEntity
  8
KOTY-UPLNE
100
AcDbDimension
  2
*D13
 10
868.596868
 20
-236.884928
 30
0.0
 11
954.6311
 21
-198.524204
 31
0.0
 12
-2443.32739
 22
4162.657346
 32
0.0
 70
     2
  1
48,06%%D
  3
UPLNE
100
AcDb2LineAngularDimension
 13
868.596868
 23
-236.884928
 33
0.0
 14
953.199399
 24
-236.884928
 34
0.0
 15
879.378215
 25
-224.884928
 35
0.0
 16
942.316957
 26
-215.717239
 36
0.0
1001
ACAD
1000
DSTYLE
1002
{
1070
    40
1040
3.0
1070
   147
1040
2.0
1002
}
  0
MTEXT
  5
13C
100
AcDbEntity
  8
POZICE
100
AcDbMText
 10
842.751421
 20
-152.924674
 30
0.0
 40
41.73
 41
1.0
 71
     5
 72
     1
  1
A
  7
STYLE1
  0
LINE
  5
13D
100
AcDbEntity
  8
KOTY-UPLNE
100
AcDbLine
 10
868.596868
 20
-236.884928
 30
0.0
 11
953.199399
 21
-236.884928
 31
0.0
  0
DIMENSION
  5
13E
100
AcDbEntity
  8
KOTY-UPLNE
100
AcDbDimension
  2
*D9
 10
1223.243643
 20
-236.884928
 30
0.0
 11
1207.493643
 21
-277.803081
 31
0.0
 12
-2443.32739
 22
4162.657346
 32
0.0
 70
   128
  3
UPLNE
100
AcDbAlignedDimension
 13
1168.355297
 23
-255.884928
 33
0.0
 14
1162.113726
 24
-236.884928
 34
0.0
 50
90.0
100
AcDbRotatedDimension
1001
ACAD
1000
DSTYLE
1002
{
1070
    40
1040
3.0
1070
   147
1040
2.0
1002
}
  0
ENDSEC
  0
SECTION
  2
OBJECTS
  0
DICTIONARY
  5
1A
100
AcDbDictionary
  3
ACAD_GROUP
350
18
  3
ACAD_MLINESTYLE
350
19
  0
DICTIONARY
  5
18
102
{ACAD_REACTORS
330
1A
102
}
100
AcDbDictionary
  0
DICTIONARY
  5
19
102
{ACAD_REACTORS
330
1A
102
}
100
AcDbDictionary
  3
STANDARD
350
1C
  0
MLINESTYLE
  5
1C
102
{ACAD_REACTORS
330
19
102
}
100
AcDbMlineStyle
  2
STANDARD
 70
     0
  3

 62
   256
 51
90.0
 52
90.0
 71
     2
 49
0.5
 62
   256
  6
BYLAYER
 49
-0.5
 62
   256
  6
BYLAYER
  0
ENDSEC
  0
EOF
