  0
SECTION
  2
HEADER
  9
$ACADVER
  1
AC1014
  9
$ACADMAINTVER
 70
     0
  9
$DWGCODEPAGE
  3
ANSI_1250
  9
$INSBASE
 10
0.0
 20
0.0
 30
0.0
  9
$EXTMIN
 10
0.0
 20
-419.001233
 30
0.0
  9
$EXTMAX
 10
1349.672502
 20
0.0
 30
0.0
  9
$LIMMIN
 10
-1000.0
 20
-1000.0
  9
$LIMMAX
 10
1000.0
 20
1000.0
  9
$ORTHOMODE
 70
     0
  9
$REGENMODE
 70
     1
  9
$FILLMODE
 70
     1
  9
$QTEXTMODE
 70
     0
  9
$MIRRTEXT
 70
     0
  9
$DRAGMODE
 70
     2
  9
$LTSCALE
 40
3.0
  9
$OSMODE
 70
    32
  9
$ATTMODE
 70
     1
  9
$TEXTSIZE
 40
50.0
  9
$TRACEWID
 40
0.05
  9
$TEXTSTYLE
  7
STANDARD
  9
$CLAYER
  8
KOTY-UPLNE
  9
$CELTYPE
  6
BYLAYER
  9
$CECOLOR
 62
   256
  9
$CELTSCALE
 40
1.0
  9
$DELOBJ
 70
     1
  9
$DISPSILH
 70
     0
  9
$DIMSCALE
 40
3.0
  9
$DIMASZ
 40
5.0
  9
$DIMEXO
 40
1.0
  9
$DIMDLI
 40
0.0
  9
$DIMRND
 40
1.0
  9
$DIMDLE
 40
1.0
  9
$DIMEXE
 40
2.0
  9
$DIMTP
 40
0.0
  9
$DIMTM
 40
0.0
  9
$DIMTXT
 40
6.44
  9
$DIMCEN
 40
1.0
  9
$DIMTSZ
 40
0.0
  9
$DIMTOL
 70
     0
  9
$DIMLIM
 70
     0
  9
$DIMTIH
 70
     0
  9
$DIMTOH
 70
     0
  9
$DIMSE1
 70
     0
  9
$DIMSE2
 70
     0
  9
$DIMTAD
 70
     3
  9
$DIMZIN
 70
     0
  9
$DIMBLK
  1

  9
$DIMASO
 70
     1
  9
$DIMSHO
 70
     0
  9
$DIMPOST
  1

  9
$DIMAPOST
  1

  9
$DIMALT
 70
     0
  9
$DIMALTD
 70
     2
  9
$DIMALTF
 40
25.4
  9
$DIMLFAC
 40
1.0
  9
$DIMTOFL
 70
     1
  9
$DIMTVP
 40
0.0
  9
$DIMTIX
 70
     1
  9
$DIMSOXD
 70
     0
  9
$DIMSAH
 70
     0
  9
$DIMBLK1
  1

  9
$DIMBLK2
  1

  9
$DIMSTYLE
  2
UPLNE
  9
$DIMCLRD
 70
   256
  9
$DIMCLRE
 70
   256
  9
$DIMCLRT
 70
     5
  9
$DIMTFAC
 40
1.0
  9
$DIMGAP
 40
2.0
  9
$DIMJUST
 70
     0
  9
$DIMSD1
 70
     0
  9
$DIMSD2
 70
     0
  9
$DIMTOLJ
 70
     1
  9
$DIMTZIN
 70
     0
  9
$DIMALTZ
 70
     0
  9
$DIMALTTZ
 70
     0
  9
$DIMFIT
 70
     5
  9
$DIMUPT
 70
     0
  9
$DIMUNIT
 70
     2
  9
$DIMDEC
 70
     0
  9
$DIMTDEC
 70
     0
  9
$DIMALTU
 70
     2
  9
$DIMALTTD
 70
     2
  9
$DIMTXSTY
  7
STANDARD
  9
$DIMAUNIT
 70
     0
  9
$LUNITS
 70
     2
  9
$LUPREC
 70
     2
  9
$SKETCHINC
 40
0.1
  9
$FILLETRAD
 40
5.0
  9
$AUNITS
 70
     0
  9
$AUPREC
 70
     2
  9
$MENU
  1
acad
  9
$ELEVATION
 40
0.0
  9
$PELEVATION
 40
0.0
  9
$THICKNESS
 40
0.0
  9
$LIMCHECK
 70
     0
  9
$BLIPMODE
 70
     1
  9
$CHAMFERA
 40
0.0
  9
$CHAMFERB
 40
0.0
  9
$CHAMFERC
 40
0.0
  9
$CHAMFERD
 40
0.0
  9
$SKPOLY
 70
     0
  9
$TDCREATE
 40
2448722.252204629
  9
$TDUPDATE
 40
2452465.895967013
  9
$TDINDWG
 40
2.5464290509
  9
$TDUSRTIMER
 40
2.5464290509
  9
$USRTIMER
 70
     1
  9
$ANGBASE
 50
0.0
  9
$ANGDIR
 70
     0
  9
$PDMODE
 70
     0
  9
$PDSIZE
 40
0.0
  9
$PLINEWID
 40
0.0
  9
$COORDS
 70
     2
  9
$SPLFRAME
 70
     0
  9
$SPLINETYPE
 70
     6
  9
$SPLINESEGS
 70
     8
  9
$ATTDIA
 70
     0
  9
$ATTREQ
 70
     1
  9
$HANDLING
 70
     1
  9
$HANDSEED
  5
109
  9
$SURFTAB1
 70
     6
  9
$SURFTAB2
 70
     6
  9
$SURFTYPE
 70
     6
  9
$SURFU
 70
     6
  9
$SURFV
 70
     6
  9
$UCSNAME
  2

  9
$UCSORG
 10
0.0
 20
0.0
 30
0.0
  9
$UCSXDIR
 10
1.0
 20
0.0
 30
0.0
  9
$UCSYDIR
 10
0.0
 20
1.0
 30
0.0
  9
$PUCSNAME
  2

  9
$PUCSORG
 10
0.0
 20
0.0
 30
0.0
  9
$PUCSXDIR
 10
1.0
 20
0.0
 30
0.0
  9
$PUCSYDIR
 10
0.0
 20
1.0
 30
0.0
  9
$USERI1
 70
     1
  9
$USERI2
 70
     0
  9
$USERI3
 70
     0
  9
$USERI4
 70
     0
  9
$USERI5
 70
     0
  9
$USERR1
 40
0.0
  9
$USERR2
 40
0.0
  9
$USERR3
 40
0.0
  9
$USERR4
 40
0.0
  9
$USERR5
 40
0.0
  9
$WORLDVIEW
 70
     1
  9
$SHADEDGE
 70
     3
  9
$SHADEDIF
 70
    70
  9
$TILEMODE
 70
     1
  9
$MAXACTVP
 70
    16
  9
$PINSBASE
 10
0.0
 20
0.0
 30
0.0
  9
$PLIMCHECK
 70
     0
  9
$PEXTMIN
 10
1.000000E+20
 20
1.000000E+20
 30
1.000000E+20
  9
$PEXTMAX
 10
-1.000000E+20
 20
-1.000000E+20
 30
-1.000000E+20
  9
$PLIMMIN
 10
0.0
 20
0.0
  9
$PLIMMAX
 10
12.0
 20
9.0
  9
$UNITMODE
 70
     0
  9
$VISRETAIN
 70
     0
  9
$PLINEGEN
 70
     0
  9
$PSLTSCALE
 70
     0
  9
$TREEDEPTH
 70
  3020
  9
$PICKSTYLE
 70
     0
  9
$CMLSTYLE
  2
STANDARD
  9
$CMLJUST
 70
     0
  9
$CMLSCALE
 40
1.0
  9
$PROXYGRAPHICS
 70
     1
  9
$MEASUREMENT
 70
     0
  0
ENDSEC
  0
SECTION
  2
CLASSES
  0
CLASS
  1
LWPOLYLINE
  2
AcDbPolyline
  3
"AutoCAD"
 90
        0
280
     0
281
     1
  0
CLASS
  1
DICTIONARYVAR
  2
AcDbDictionaryVar
  3
"AutoCAD"
 90
        0
280
     0
281
     0
  0
ENDSEC
  0
SECTION
  2
TABLES
  0
TABLE
  2
VPORT
  5
12
100
AcDbSymbolTable
 70
     2
  0
VPORT
  5
108
100
AcDbSymbolTableRecord
100
AcDbViewportTableRecord
  2
*ACTIVE
 70
     0
 10
0.0
 20
0.0
 11
1.0
 21
1.0
 12
688.482978
 22
-196.290875
 13
0.0
 23
0.0
 14
1.0
 24
1.0
 15
600.0
 25
600.0
 16
0.0
 26
0.0
 36
1.0
 17
0.0
 27
0.0
 37
0.0
 40
692.743344
 41
2.224444
 42
50.0
 43
0.0
 44
0.0
 50
0.0
 51
0.0
 71
     0
 72
   100
 73
     1
 74
     0
 75
     0
 76
     0
 77
     0
 78
     0
  0
ENDTAB
  0
TABLE
  2
LTYPE
  5
D
100
AcDbSymbolTable
 70
     1
  0
LTYPE
  5
E
100
AcDbSymbolTableRecord
100
AcDbLinetypeTableRecord
  2
BYBLOCK
 70
     0
  3

 72
    65
 73
     0
 40
0.0
  0
LTYPE
  5
F
100
AcDbSymbolTableRecord
100
AcDbLinetypeTableRecord
  2
BYLAYER
 70
     0
  3

 72
    65
 73
     0
 40
0.0
  0
LTYPE
  5
5
100
AcDbSymbolTableRecord
100
AcDbLinetypeTableRecord
  2
CONTINUOUS
 70
     0
  3
Solid line
 72
    65
 73
     0
 40
0.0
  0
ENDTAB
  0
TABLE
  2
LAYER
  5
A
100
AcDbSymbolTable
 70
     7
  0
LAYER
  5
4
100
AcDbSymbolTableRecord
100
AcDbLayerTableRecord
  2
0
 70
     0
 62
     7
  6
CONTINUOUS
  0
LAYER
  5
1B
100
AcDbSymbolTableRecord
100
AcDbLayerTableRecord
  2
KOTY-UPLNE
 70
     0
 62
     7
  6
CONTINUOUS
  0
LAYER
  5
61
100
AcDbSymbolTableRecord
100
AcDbLayerTableRecord
  2
RAMEC
 70
     0
 62
     5
  6
CONTINUOUS
  0
LAYER
  5
C9
100
AcDbSymbolTableRecord
100
AcDbLayerTableRecord
  2
POZICE
 70
     0
 62
     1
  6
CONTINUOUS
  0
LAYER
  5
5E
100
AcDbSymbolTableRecord
100
AcDbLayerTableRecord
  2
POPIS
 70
     0
 62
     1
  6
CONTINUOUS
  0
LAYER
  5
27
100
AcDbSymbolTableRecord
100
AcDbLayerTableRecord
  2
DEFPOINTS
 70
     0
 62
     7
  6
CONTINUOUS
  0
LAYER
  5
5C
100
AcDbSymbolTableRecord
100
AcDbLayerTableRecord
  2
TRAPEZ-VELKY
 70
     0
 62
     7
  6
CONTINUOUS
  0
ENDTAB
  0
TABLE
  2
STYLE
  5
B
100
AcDbSymbolTable
 70
     2
  0
STYLE
  5
C
100
AcDbSymbolTableRecord
100
AcDbTextStyleTableRecord
  2
STANDARD
 70
     0
 40
0.0
 41
0.9
 50
0.0
 71
     0
 42
50.0
  3
simplex.shx
  4

  0
STYLE
  5
5F
100
AcDbSymbolTableRecord
100
AcDbTextStyleTableRecord
  2
STYLE1
 70
     0
 40
0.0
 41
0.9
 50
0.0
 71
     0
 42
50.0
  3
simplex.shx
  4

  0
ENDTAB
  0
TABLE
  2
VIEW
  5
10
100
AcDbSymbolTable
 70
     0
  0
ENDTAB
  0
TABLE
  2
UCS
  5
11
100
AcDbSymbolTable
 70
     0
  0
ENDTAB
  0
TABLE
  2
APPID
  5
14
100
AcDbSymbolTable
 70
     1
  0
APPID
  5
15
100
AcDbSymbolTableRecord
100
AcDbRegAppTableRecord
  2
ACAD
 70
     0
  0
ENDTAB
  0
TABLE
  2
DIMSTYLE
  5
16
100
AcDbSymbolTable
 70
     1
  0
DIMSTYLE
105
1D
102
{ACAD_REACTORS
330
AA
330
9D
330
8E
330
7E
330
B9
330
71
330
4D
330
3E
330
62
330
F8
330
E8
330
CA
330
DB
330
2E
330
1E
102
}
100
AcDbSymbolTableRecord
100
AcDbDimStyleTableRecord
  2
UPLNE
 70
     0
  3

  4

  5

  6

  7

 40
5.0
 41
5.0
 42
1.0
 43
0.0
 44
2.0
 45
1.0
 46
1.0
 47
0.0
 48
0.0
140
6.44
141
1.0
142
0.0
143
25.4
144
1.0
145
0.0
146
1.0
147
1.0
 71
     0
 72
     0
 73
     0
 74
     0
 75
     0
 76
     0
 77
     3
 78
     0
170
     0
171
     2
172
     1
173
     0
174
     1
175
     0
176
   256
177
   256
178
     5
270
     2
271
     0
272
     0
273
     2
274
     2
340
C
275
     0
280
     0
281
     0
282
     0
283
     1
284
     0
285
     0
286
     0
287
     5
288
     0
  0
ENDTAB
  0
TABLE
  2
BLOCK_RECORD
  5
1
100
AcDbSymbolTable
 70
    15
  0
BLOCK_RECORD
  5
2
100
AcDbSymbolTableRecord
100
AcDbBlockTableRecord
  2
*MODEL_SPACE
  0
BLOCK_RECORD
  5
7
100
AcDbSymbolTableRecord
100
AcDbBlockTableRecord
  2
*PAPER_SPACE
  0
BLOCK_RECORD
  5
AB
100
AcDbSymbolTableRecord
100
AcDbBlockTableRecord
  2
*D0
  0
BLOCK_RECORD
  5
9E
100
AcDbSymbolTableRecord
100
AcDbBlockTableRecord
  2
*D1
  0
BLOCK_RECORD
  5
8F
100
AcDbSymbolTableRecord
100
AcDbBlockTableRecord
  2
*D2
  0
BLOCK_RECORD
  5
7F
100
AcDbSymbolTableRecord
100
AcDbBlockTableRecord
  2
*D3
  0
BLOCK_RECORD
  5
BA
100
AcDbSymbolTableRecord
100
AcDbBlockTableRecord
  2
*D4
  0
BLOCK_RECORD
  5
72
100
AcDbSymbolTableRecord
100
AcDbBlockTableRecord
  2
*D5
  0
BLOCK_RECORD
  5
4E
100
AcDbSymbolTableRecord
100
AcDbBlockTableRecord
  2
*D6
  0
BLOCK_RECORD
  5
3F
100
AcDbSymbolTableRecord
100
AcDbBlockTableRecord
  2
*D7
  0
BLOCK_RECORD
  5
63
100
AcDbSymbolTableRecord
100
AcDbBlockTableRecord
  2
*D8
  0
BLOCK_RECORD
  5
F9
100
AcDbSymbolTableRecord
100
AcDbBlockTableRecord
  2
*D9
  0
BLOCK_RECORD
  5
E9
100
AcDbSymbolTableRecord
100
AcDbBlockTableRecord
  2
*D10
  0
BLOCK_RECORD
  5
CB
100
AcDbSymbolTableRecord
100
AcDbBlockTableRecord
  2
*D11
  0
BLOCK_RECORD
  5
DC
100
AcDbSymbolTableRecord
100
AcDbBlockTableRecord
  2
*D12
  0
BLOCK_RECORD
  5
2F
100
AcDbSymbolTableRecord
100
AcDbBlockTableRecord
  2
*D13
  0
BLOCK_RECORD
  5
1F
100
AcDbSymbolTableRecord
100
AcDbBlockTableRecord
  2
*D14
  0
ENDTAB
  0
ENDSEC
  0
SECTION
  2
BLOCKS
  0
BLOCK
  5
3
100
AcDbEntity
  8
0
100
AcDbBlockBegin
  2
*MODEL_SPACE
 70
     0
 10
0.0
 20
0.0
 30
0.0
  3
*MODEL_SPACE
  1

  0
ENDBLK
  5
6
100
AcDbEntity
  8
0
100
AcDbBlockEnd
  0
BLOCK
  5
8
100
AcDbEntity
 67
     1
  8
0
100
AcDbBlockBegin
  2
*PAPER_SPACE
 70
     0
 10
0.0
 20
0.0
 30
0.0
  3
*PAPER_SPACE
  1

  0
ENDBLK
  5
9
100
AcDbEntity
 67
     1
  8
0
100
AcDbBlockEnd
  0
BLOCK
  5
B7
100
AcDbEntity
  8
0
100
AcDbBlockBegin
  2
*D0
 70
     1
 10
0.0
 20
0.0
 30
0.0
  3
*D0
  1

  0
LINE
  5
AC
100
AcDbEntity
  8
0
  6
BYBLOCK
100
AcDbLine
 10
2616.182687
 20
-3809.542274
 30
0.0
 11
2616.182687
 21
-3667.731824
 31
0.0
  0
LINE
  5
AD
100
AcDbEntity
  8
0
  6
BYBLOCK
100
AcDbLine
 10
2663.682687
 20
-3709.542274
 30
0.0
 11
2663.682687
 21
-3667.731824
 31
0.0
  0
LINE
  5
AE
100
AcDbEntity
  8
0
  6
BYBLOCK
100
AcDbLine
 10
2601.182687
 20
-3673.731824
 30
0.0
 11
2586.182687
 21
-3673.731824
 31
0.0
  0
LINE
  5
AF
100
AcDbEntity
  8
0
  6
BYBLOCK
100
AcDbLine
 10
2678.682687
 20
-3673.731824
 30
0.0
 11
2693.682687
 21
-3673.731824
 31
0.0
  0
LINE
  5
B0
100
AcDbEntity
  8
0
  6
BYBLOCK
100
AcDbLine
 10
2616.182687
 20
-3673.731824
 30
0.0
 11
2663.682687
 21
-3673.731824
 31
0.0
  0
SOLID
  5
B1
100
AcDbEntity
  8
0
  6
BYBLOCK
100
AcDbTrace
 10
2601.182687
 20
-3671.231824
 30
0.0
 11
2601.182687
 21
-3676.231824
 31
0.0
 12
2616.182687
 22
-3673.731824
 32
0.0
 13
2616.182687
 23
-3673.731824
 33
0.0
  0
SOLID
  5
B2
100
AcDbEntity
  8
0
  6
BYBLOCK
100
AcDbTrace
 10
2678.682687
 20
-3671.231824
 30
0.0
 11
2678.682687
 21
-3676.231824
 31
0.0
 12
2663.682687
 22
-3673.731824
 32
0.0
 13
2663.682687
 23
-3673.731824
 33
0.0
  0
MTEXT
  5
B3
100
AcDbEntity
  8
0
  6
BYBLOCK
 62
     5
100
AcDbMText
 10
2639.932687
 20
-3656.231824
 30
0.0
 40
19.32
 41
0.0
 71
     5
 72
     1
  1
\A1;47,5
  0
POINT
  5
B4
100
AcDbEntity
  8
DEFPOINTS
  6
BYBLOCK
 62
     0
100
AcDbPoint
 10
2616.182687
 20
-3812.542274
 30
0.0
  0
POINT
  5
B5
100
AcDbEntity
  8
DEFPOINTS
  6
BYBLOCK
 62
     0
100
AcDbPoint
 10
2663.682687
 20
-3712.542274
 30
0.0
  0
POINT
  5
B6
100
AcDbEntity
  8
DEFPOINTS
  6
BYBLOCK
 62
     0
100
AcDbPoint
 10
2663.682687
 20
-3673.731824
 30
0.0
  0
ENDBLK
  5
B8
100
AcDbEntity
  8
0
100
AcDbBlockEnd
  0
BLOCK
  5
A8
100
AcDbEntity
  8
0
100
AcDbBlockBegin
  2
*D1
 70
     1
 10
0.0
 20
0.0
 30
0.0
  3
*D1
  1

  0
LINE
  5
9F
100
AcDbEntity
  8
0
  6
BYBLOCK
100
AcDbLine
 10
2663.682687
 20
-3709.542274
 30
0.0
 11
2663.682687
 21
-3667.731824
 31
0.0
  0
LINE
  5
A0
100
AcDbEntity
  8
0
  6
BYBLOCK
100
AcDbLine
 10
2803.682687
 20
-3709.542274
 30
0.0
 11
2803.682687
 21
-3667.731824
 31
0.0
  0
LINE
  5
A1
100
AcDbEntity
  8
0
  6
BYBLOCK
100
AcDbLine
 10
2678.682687
 20
-3673.731824
 30
0.0
 11
2788.682687
 21
-3673.731824
 31
0.0
  0
SOLID
  5
A2
100
AcDbEntity
  8
0
  6
BYBLOCK
100
AcDbTrace
 10
2678.682687
 20
-3671.231824
 30
0.0
 11
2678.682687
 21
-3676.231824
 31
0.0
 12
2663.682687
 22
-3673.731824
 32
0.0
 13
2663.682687
 23
-3673.731824
 33
0.0
  0
SOLID
  5
A3
100
AcDbEntity
  8
0
  6
BYBLOCK
100
AcDbTrace
 10
2788.682687
 20
-3671.231824
 30
0.0
 11
2788.682687
 21
-3676.231824
 31
0.0
 12
2803.682687
 22
-3673.731824
 32
0.0
 13
2803.682687
 23
-3673.731824
 33
0.0
  0
MTEXT
  5
A4
100
AcDbEntity
  8
0
  6
BYBLOCK
 62
     5
100
AcDbMText
 10
2733.682687
 20
-3658.071824
 30
0.0
 40
19.32
 41
0.0
 71
     5
 72
     1
  1
\A1;140
  0
POINT
  5
A5
100
AcDbEntity
  8
DEFPOINTS
  6
BYBLOCK
 62
     0
100
AcDbPoint
 10
2663.682687
 20
-3712.542274
 30
0.0
  0
POINT
  5
A6
100
AcDbEntity
  8
DEFPOINTS
  6
BYBLOCK
 62
     0
100
AcDbPoint
 10
2803.682687
 20
-3712.542274
 30
0.0
  0
POINT
  5
A7
100
AcDbEntity
  8
DEFPOINTS
  6
BYBLOCK
 62
     0
100
AcDbPoint
 10
2803.682687
 20
-3673.731824
 30
0.0
  0
ENDBLK
  5
A9
100
AcDbEntity
  8
0
100
AcDbBlockEnd
  0
BLOCK
  5
9B
100
AcDbEntity
  8
0
100
AcDbBlockBegin
  2
*D2
 70
     1
 10
0.0
 20
0.0
 30
0.0
  3
*D2
  1

  0
LINE
  5
90
100
AcDbEntity
  8
0
  6
BYBLOCK
100
AcDbLine
 10
2803.682687
 20
-3709.542274
 30
0.0
 11
2803.682687
 21
-3667.731824
 31
0.0
  0
LINE
  5
91
100
AcDbEntity
  8
0
  6
BYBLOCK
100
AcDbLine
 10
2851.182687
 20
-3809.542274
 30
0.0
 11
2851.182687
 21
-3667.731824
 31
0.0
  0
LINE
  5
92
100
AcDbEntity
  8
0
  6
BYBLOCK
100
AcDbLine
 10
2788.682687
 20
-3673.731824
 30
0.0
 11
2773.682687
 21
-3673.731824
 31
0.0
  0
LINE
  5
93
100
AcDbEntity
  8
0
  6
BYBLOCK
100
AcDbLine
 10
2866.182687
 20
-3673.731824
 30
0.0
 11
2881.182687
 21
-3673.731824
 31
0.0
  0
LINE
  5
94
100
AcDbEntity
  8
0
  6
BYBLOCK
100
AcDbLine
 10
2803.682687
 20
-3673.731824
 30
0.0
 11
2851.182687
 21
-3673.731824
 31
0.0
  0
SOLID
  5
95
100
AcDbEntity
  8
0
  6
BYBLOCK
100
AcDbTrace
 10
2788.682687
 20
-3671.231824
 30
0.0
 11
2788.682687
 21
-3676.231824
 31
0.0
 12
2803.682687
 22
-3673.731824
 32
0.0
 13
2803.682687
 23
-3673.731824
 33
0.0
  0
SOLID
  5
96
100
AcDbEntity
  8
0
  6
BYBLOCK
100
AcDbTrace
 10
2866.182687
 20
-3671.231824
 30
0.0
 11
2866.182687
 21
-3676.231824
 31
0.0
 12
2851.182687
 22
-3673.731824
 32
0.0
 13
2851.182687
 23
-3673.731824
 33
0.0
  0
MTEXT
  5
97
100
AcDbEntity
  8
0
  6
BYBLOCK
 62
     5
100
AcDbMText
 10
2827.432687
 20
-3656.231824
 30
0.0
 40
19.32
 41
0.0
 71
     5
 72
     1
  1
\A1;47,5
  0
POINT
  5
98
100
AcDbEntity
  8
DEFPOINTS
  6
BYBLOCK
 62
     0
100
AcDbPoint
 10
2803.682687
 20
-3712.542274
 30
0.0
  0
POINT
  5
99
100
AcDbEntity
  8
DEFPOINTS
  6
BYBLOCK
 62
     0
100
AcDbPoint
 10
2851.182687
 20
-3812.542274
 30
0.0
  0
POINT
  5
9A
100
AcDbEntity
  8
DEFPOINTS
  6
BYBLOCK
 62
     0
100
AcDbPoint
 10
2851.182687
 20
-3673.731824
 30
0.0
  0
ENDBLK
  5
9C
100
AcDbEntity
  8
0
100
AcDbBlockEnd
  0
BLOCK
  5
8C
100
AcDbEntity
  8
0
100
AcDbBlockBegin
  2
*D3
 70
     1
 10
0.0
 20
0.0
 30
0.0
  3
*D3
  1

  0
LINE
  5
80
100
AcDbEntity
  8
0
  6
BYBLOCK
100
AcDbLine
 10
2736.682687
 20
-3717.542274
 30
0.0
 11
2898.407916
 21
-3717.542274
 31
0.0
  0
LINE
  5
81
100
AcDbEntity
  8
0
  6
BYBLOCK
100
AcDbLine
 10
2806.682687
 20
-3712.542274
 30
0.0
 11
2898.407916
 21
-3712.542274
 31
0.0
  0
LINE
  5
82
100
AcDbEntity
  8
0
  6
BYBLOCK
100
AcDbLine
 10
2892.407916
 20
-3732.542274
 30
0.0
 11
2892.407916
 21
-3747.542274
 31
0.0
  0
LINE
  5
83
100
AcDbEntity
  8
0
  6
BYBLOCK
100
AcDbLine
 10
2892.407916
 20
-3697.542274
 30
0.0
 11
2892.407916
 21
-3682.542274
 31
0.0
  0
MTEXT
  5
84
100
AcDbEntity
  8
0
  6
BYBLOCK
 62
     5
100
AcDbMText
 10
2876.657916
 20
-3734.453742
 30
0.0
 40
19.32
 41
0.0
 71
     5
 72
     1
  1
\A1;5
 11
0.0
 21
1.0
 31
0.0
  0
LINE
  5
85
100
AcDbEntity
  8
0
  6
BYBLOCK
100
AcDbLine
 10
2892.407916
 20
-3717.542274
 30
0.0
 11
2892.407916
 21
-3712.542274
 31
0.0
  0
LINE
  5
86
100
AcDbEntity
  8
0
  6
BYBLOCK
100
AcDbLine
 10
2892.407916
 20
-3717.542274
 30
0.0
 11
2892.407916
 21
-3712.542274
 31
0.0
  0
SOLID
  5
87
100
AcDbEntity
  8
0
  6
BYBLOCK
100
AcDbTrace
 10
2889.907916
 20
-3732.542274
 30
0.0
 11
2894.907916
 21
-3732.542274
 31
0.0
 12
2892.407916
 22
-3717.542274
 32
0.0
 13
2892.407916
 23
-3717.542274
 33
0.0
  0
SOLID
  5
88
100
AcDbEntity
  8
0
  6
BYBLOCK
100
AcDbTrace
 10
2889.907916
 20
-3697.542274
 30
0.0
 11
2894.907916
 21
-3697.542274
 31
0.0
 12
2892.407916
 22
-3712.542274
 32
0.0
 13
2892.407916
 23
-3712.542274
 33
0.0
  0
POINT
  5
89
100
AcDbEntity
  8
DEFPOINTS
  6
BYBLOCK
 62
     0
100
AcDbPoint
 10
2733.682687
 20
-3717.542274
 30
0.0
  0
POINT
  5
8A
100
AcDbEntity
  8
DEFPOINTS
  6
BYBLOCK
 62
     0
100
AcDbPoint
 10
2803.682687
 20
-3712.542274
 30
0.0
  0
POINT
  5
8B
100
AcDbEntity
  8
DEFPOINTS
  6
BYBLOCK
 62
     0
100
AcDbPoint
 10
2892.407916
 20
-3712.542274
 30
0.0
  0
ENDBLK
  5
8D
100
AcDbEntity
  8
0
100
AcDbBlockEnd
  0
BLOCK
  5
C6
100
AcDbEntity
  8
0
100
AcDbBlockBegin
  2
*D4
 70
     1
 10
0.0
 20
0.0
 30
0.0
  3
*D4
  1

  0
LINE
  5
BB
100
AcDbEntity
  8
0
  6
BYBLOCK
100
AcDbLine
 10
2914.422444
 20
-3771.767215
 30
0.0
 11
2952.596958
 21
-3678.820571
 31
0.0
  0
LINE
  5
BC
100
AcDbEntity
  8
0
  6
BYBLOCK
100
AcDbLine
 10
2908.866755
 20
-3769.485414
 30
0.0
 11
2947.041269
 21
-3676.53877
 31
0.0
  0
LINE
  5
BD
100
AcDbEntity
  8
0
  6
BYBLOCK
100
AcDbLine
 10
2964.192742
 20
-3690.069473
 30
0.0
 11
2978.06804
 21
-3695.768255
 31
0.0
  0
LINE
  5
BE
100
AcDbEntity
  8
0
  6
BYBLOCK
100
AcDbLine
 10
2930.886459
 20
-3676.390106
 30
0.0
 11
2917.011162
 21
-3670.691323
 31
0.0
  0
LINE
  5
BF
100
AcDbEntity
  8
0
  6
BYBLOCK
100
AcDbLine
 10
2950.317445
 20
-3684.37069
 30
0.0
 11
2944.761756
 21
-3682.088889
 31
0.0
  0
SOLID
  5
C0
100
AcDbEntity
  8
0
  6
BYBLOCK
100
AcDbTrace
 10
2965.14254
 20
-3687.756923
 30
0.0
 11
2963.242945
 21
-3692.382022
 31
0.0
 12
2950.317445
 22
-3684.37069
 32
0.0
 13
2950.317445
 23
-3684.37069
 33
0.0
  0
SOLID
  5
C1
100
AcDbEntity
  8
0
  6
BYBLOCK
100
AcDbTrace
 10
2931.836256
 20
-3674.077557
 30
0.0
 11
2929.936662
 21
-3678.702656
 31
0.0
 12
2944.761756
 22
-3682.088889
 32
0.0
 13
2944.761756
 23
-3682.088889
 33
0.0
  0
MTEXT
  5
C2
100
AcDbEntity
  8
0
  6
BYBLOCK
 62
     5
100
AcDbMText
 10
2953.48913
 20
-3668.743979
 30
0.0
 40
19.32
 41
0.0
 71
     5
 72
     1
  1
\A1;6
 11
0.92502
 21
-0.379919
 31
0.0
  0
POINT
  5
C3
100
AcDbEntity
  8
DEFPOINTS
  6
BYBLOCK
 62
     0
100
AcDbPoint
 10
2913.282687
 20
-3774.542274
 30
0.0
  0
POINT
  5
C4
100
AcDbEntity
  8
DEFPOINTS
  6
BYBLOCK
 62
     0
100
AcDbPoint
 10
2907.726998
 20
-3772.260473
 30
0.0
  0
POINT
  5
C5
100
AcDbEntity
  8
DEFPOINTS
  6
BYBLOCK
 62
     0
100
AcDbPoint
 10
2944.761756
 20
-3682.088889
 30
0.0
  0
ENDBLK
  5
C7
100
AcDbEntity
  8
0
100
AcDbBlockEnd
  0
BLOCK
  5
7C
100
AcDbEntity
  8
0
100
AcDbBlockBegin
  2
*D5
 70
     1
 10
0.0
 20
0.0
 30
0.0
  3
*D5
  1

  0
LINE
  5
73
100
AcDbEntity
  8
0
  6
BYBLOCK
100
AcDbLine
 10
2596.182687
 20
-3815.542274
 30
0.0
 11
2596.182687
 21
-3878.542274
 31
0.0
  0
LINE
  5
74
100
AcDbEntity
  8
0
  6
BYBLOCK
100
AcDbLine
 10
2871.182687
 20
-3815.542274
 30
0.0
 11
2871.182687
 21
-3878.542274
 31
0.0
  0
LINE
  5
75
100
AcDbEntity
  8
0
  6
BYBLOCK
100
AcDbLine
 10
2611.182687
 20
-3872.542274
 30
0.0
 11
2856.182687
 21
-3872.542274
 31
0.0
  0
SOLID
  5
76
100
AcDbEntity
  8
0
  6
BYBLOCK
100
AcDbTrace
 10
2611.182687
 20
-3870.042274
 30
0.0
 11
2611.182687
 21
-3875.042274
 31
0.0
 12
2596.182687
 22
-3872.542274
 32
0.0
 13
2596.182687
 23
-3872.542274
 33
0.0
  0
SOLID
  5
77
100
AcDbEntity
  8
0
  6
BYBLOCK
100
AcDbTrace
 10
2856.182687
 20
-3870.042274
 30
0.0
 11
2856.182687
 21
-3875.042274
 31
0.0
 12
2871.182687
 22
-3872.542274
 32
0.0
 13
2871.182687
 23
-3872.542274
 33
0.0
  0
MTEXT
  5
78
100
AcDbEntity
  8
0
  6
BYBLOCK
 62
     5
100
AcDbMText
 10
2733.682687
 20
-3856.882274
 30
0.0
 40
19.32
 41
0.0
 71
     5
 72
     1
  1
\A1;275
  0
POINT
  5
79
100
AcDbEntity
  8
DEFPOINTS
  6
BYBLOCK
 62
     0
100
AcDbPoint
 10
2596.182687
 20
-3812.542274
 30
0.0
  0
POINT
  5
7A
100
AcDbEntity
  8
DEFPOINTS
  6
BYBLOCK
 62
     0
100
AcDbPoint
 10
2871.182687
 20
-3812.542274
 30
0.0
  0
POINT
  5
7B
100
AcDbEntity
  8
DEFPOINTS
  6
BYBLOCK
 62
     0
100
AcDbPoint
 10
2871.182687
 20
-3872.542274
 30
0.0
  0
ENDBLK
  5
7D
100
AcDbEntity
  8
0
100
AcDbBlockEnd
  0
BLOCK
  5
58
100
AcDbEntity
  8
0
100
AcDbBlockBegin
  2
*D6
 70
     1
 10
0.0
 20
0.0
 30
0.0
  3
*D6
  1

  0
LINE
  5
4F
100
AcDbEntity
  8
0
  6
BYBLOCK
100
AcDbLine
 10
2596.182687
 20
-3815.542274
 30
0.0
 11
2596.182687
 21
-3938.542274
 31
0.0
  0
LINE
  5
50
100
AcDbEntity
  8
0
  6
BYBLOCK
100
AcDbLine
 10
3421.182687
 20
-3815.542274
 30
0.0
 11
3421.182687
 21
-3938.542274
 31
0.0
  0
LINE
  5
51
100
AcDbEntity
  8
0
  6
BYBLOCK
100
AcDbLine
 10
2611.182687
 20
-3932.542274
 30
0.0
 11
3406.182687
 21
-3932.542274
 31
0.0
  0
SOLID
  5
52
100
AcDbEntity
  8
0
  6
BYBLOCK
100
AcDbTrace
 10
2611.182687
 20
-3930.042274
 30
0.0
 11
2611.182687
 21
-3935.042274
 31
0.0
 12
2596.182687
 22
-3932.542274
 32
0.0
 13
2596.182687
 23
-3932.542274
 33
0.0
  0
SOLID
  5
53
100
AcDbEntity
  8
0
  6
BYBLOCK
100
AcDbTrace
 10
3406.182687
 20
-3930.042274
 30
0.0
 11
3406.182687
 21
-3935.042274
 31
0.0
 12
3421.182687
 22
-3932.542274
 32
0.0
 13
3421.182687
 23
-3932.542274
 33
0.0
  0
MTEXT
  5
54
100
AcDbEntity
  8
0
  6
BYBLOCK
 62
     5
100
AcDbMText
 10
3008.682687
 20
-3916.882274
 30
0.0
 40
19.32
 41
0.0
 71
     5
 72
     1
  1
\A1;825
  0
POINT
  5
55
100
AcDbEntity
  8
DEFPOINTS
  6
BYBLOCK
 62
     0
100
AcDbPoint
 10
2596.182687
 20
-3812.542274
 30
0.0
  0
POINT
  5
56
100
AcDbEntity
  8
DEFPOINTS
  6
BYBLOCK
 62
     0
100
AcDbPoint
 10
3421.182687
 20
-3812.542274
 30
0.0
  0
POINT
  5
57
100
AcDbEntity
  8
DEFPOINTS
  6
BYBLOCK
 62
     0
100
AcDbPoint
 10
3421.182687
 20
-3932.542274
 30
0.0
  0
ENDBLK
  5
59
100
AcDbEntity
  8
0
100
AcDbBlockEnd
  0
BLOCK
  5
4B
100
AcDbEntity
  8
0
100
AcDbBlockBegin
  2
*D7
 70
     1
 10
0.0
 20
0.0
 30
0.0
  3
*D7
  1

  0
LINE
  5
40
100
AcDbEntity
  8
0
  6
BYBLOCK
100
AcDbLine
 10
3126.182687
 20
-3815.542274
 30
0.0
 11
3126.182687
 21
-3878.542274
 31
0.0
  0
LINE
  5
41
100
AcDbEntity
  8
0
  6
BYBLOCK
100
AcDbLine
 10
3166.182687
 20
-3815.542274
 30
0.0
 11
3166.182687
 21
-3878.542274
 31
0.0
  0
LINE
  5
42
100
AcDbEntity
  8
0
  6
BYBLOCK
100
AcDbLine
 10
3111.182687
 20
-3872.542274
 30
0.0
 11
3096.182687
 21
-3872.542274
 31
0.0
  0
LINE
  5
43
100
AcDbEntity
  8
0
  6
BYBLOCK
100
AcDbLine
 10
3181.182687
 20
-3872.542274
 30
0.0
 11
3196.182687
 21
-3872.542274
 31
0.0
  0
LINE
  5
44
100
AcDbEntity
  8
0
  6
BYBLOCK
100
AcDbLine
 10
3126.182687
 20
-3872.542274
 30
0.0
 11
3166.182687
 21
-3872.542274
 31
0.0
  0
SOLID
  5
45
100
AcDbEntity
  8
0
  6
BYBLOCK
100
AcDbTrace
 10
3111.182687
 20
-3870.042274
 30
0.0
 11
3111.182687
 21
-3875.042274
 31
0.0
 12
3126.182687
 22
-3872.542274
 32
0.0
 13
3126.182687
 23
-3872.542274
 33
0.0
  0
SOLID
  5
46
100
AcDbEntity
  8
0
  6
BYBLOCK
100
AcDbTrace
 10
3181.182687
 20
-3870.042274
 30
0.0
 11
3181.182687
 21
-3875.042274
 31
0.0
 12
3166.182687
 22
-3872.542274
 32
0.0
 13
3166.182687
 23
-3872.542274
 33
0.0
  0
MTEXT
  5
47
100
AcDbEntity
  8
0
  6
BYBLOCK
 62
     5
100
AcDbMText
 10
3146.182687
 20
-3856.882274
 30
0.0
 40
19.32
 41
0.0
 71
     5
 72
     1
  1
\A1;40
  0
POINT
  5
48
100
AcDbEntity
  8
DEFPOINTS
  6
BYBLOCK
 62
     0
100
AcDbPoint
 10
3126.182687
 20
-3812.542274
 30
0.0
  0
POINT
  5
49
100
AcDbEntity
  8
DEFPOINTS
  6
BYBLOCK
 62
     0
100
AcDbPoint
 10
3166.182687
 20
-3812.542274
 30
0.0
  0
POINT
  5
4A
100
AcDbEntity
  8
DEFPOINTS
  6
BYBLOCK
 62
     0
100
AcDbPoint
 10
3166.182687
 20
-3872.542274
 30
0.0
  0
ENDBLK
  5
4C
100
AcDbEntity
  8
0
100
AcDbBlockEnd
  0
BLOCK
  5
6F
100
AcDbEntity
  8
0
100
AcDbBlockBegin
  2
*D8
 70
     1
 10
0.0
 20
0.0
 30
0.0
  3
*D8
  1

  0
LINE
  5
64
100
AcDbEntity
  8
0
  6
BYBLOCK
100
AcDbLine
 10
2996.182687
 20
-3715.542274
 30
0.0
 11
2996.182687
 21
-3878.542274
 31
0.0
  0
LINE
  5
65
100
AcDbEntity
  8
0
  6
BYBLOCK
100
AcDbLine
 10
3021.182687
 20
-3715.542274
 30
0.0
 11
3021.182687
 21
-3878.542274
 31
0.0
  0
LINE
  5
66
100
AcDbEntity
  8
0
  6
BYBLOCK
100
AcDbLine
 10
2981.182687
 20
-3872.542274
 30
0.0
 11
2966.182687
 21
-3872.542274
 31
0.0
  0
LINE
  5
67
100
AcDbEntity
  8
0
  6
BYBLOCK
100
AcDbLine
 10
3036.182687
 20
-3872.542274
 30
0.0
 11
3051.182687
 21
-3872.542274
 31
0.0
  0
LINE
  5
68
100
AcDbEntity
  8
0
  6
BYBLOCK
100
AcDbLine
 10
2996.182687
 20
-3872.542274
 30
0.0
 11
3021.182687
 21
-3872.542274
 31
0.0
  0
SOLID
  5
69
100
AcDbEntity
  8
0
  6
BYBLOCK
100
AcDbTrace
 10
2981.182687
 20
-3870.042274
 30
0.0
 11
2981.182687
 21
-3875.042274
 31
0.0
 12
2996.182687
 22
-3872.542274
 32
0.0
 13
2996.182687
 23
-3872.542274
 33
0.0
  0
SOLID
  5
6A
100
AcDbEntity
  8
0
  6
BYBLOCK
100
AcDbTrace
 10
3036.182687
 20
-3870.042274
 30
0.0
 11
3036.182687
 21
-3875.042274
 31
0.0
 12
3021.182687
 22
-3872.542274
 32
0.0
 13
3021.182687
 23
-3872.542274
 33
0.0
  0
MTEXT
  5
6B
100
AcDbEntity
  8
0
  6
BYBLOCK
 62
     5
100
AcDbMText
 10
3008.682687
 20
-3856.882274
 30
0.0
 40
19.32
 41
0.0
 71
     5
 72
     1
  1
\A1;25
  0
POINT
  5
6C
100
AcDbEntity
  8
DEFPOINTS
  6
BYBLOCK
 62
     0
100
AcDbPoint
 10
2996.182687
 20
-3712.542274
 30
0.0
  0
POINT
  5
6D
100
AcDbEntity
  8
DEFPOINTS
  6
BYBLOCK
 62
     0
100
AcDbPoint
 10
3021.182687
 20
-3712.542274
 30
0.0
  0
POINT
  5
6E
100
AcDbEntity
  8
DEFPOINTS
  6
BYBLOCK
 62
     0
100
AcDbPoint
 10
3021.182687
 20
-3872.542274
 30
0.0
  0
ENDBLK
  5
70
100
AcDbEntity
  8
0
100
AcDbBlockEnd
  0
BLOCK
  5
103
100
AcDbEntity
  8
0
100
AcDbBlockBegin
  2
*D9
 70
     1
 10
0.0
 20
0.0
 30
0.0
  3
*D9
  1

  0
LINE
  5
FA
100
AcDbEntity
  8
0
  6
BYBLOCK
100
AcDbLine
 10
3356.682687
 20
-3712.542274
 30
0.0
 11
3480.09652
 21
-3712.542274
 31
0.0
  0
LINE
  5
FB
100
AcDbEntity
  8
0
  6
BYBLOCK
100
AcDbLine
 10
3382.082687
 20
-3774.542274
 30
0.0
 11
3480.09652
 21
-3774.542274
 31
0.0
  0
LINE
  5
FC
100
AcDbEntity
  8
0
  6
BYBLOCK
100
AcDbLine
 10
3474.09652
 20
-3727.542274
 30
0.0
 11
3474.09652
 21
-3759.542274
 31
0.0
  0
SOLID
  5
FD
100
AcDbEntity
  8
0
  6
BYBLOCK
100
AcDbTrace
 10
3471.59652
 20
-3727.542274
 30
0.0
 11
3476.59652
 21
-3727.542274
 31
0.0
 12
3474.09652
 22
-3712.542274
 32
0.0
 13
3474.09652
 23
-3712.542274
 33
0.0
  0
SOLID
  5
FE
100
AcDbEntity
  8
0
  6
BYBLOCK
100
AcDbTrace
 10
3471.59652
 20
-3759.542274
 30
0.0
 11
3476.59652
 21
-3759.542274
 31
0.0
 12
3474.09652
 22
-3774.542274
 32
0.0
 13
3474.09652
 23
-3774.542274
 33
0.0
  0
MTEXT
  5
FF
100
AcDbEntity
  8
0
  6
BYBLOCK
 62
     5
100
AcDbMText
 10
3458.43652
 20
-3743.542274
 30
0.0
 40
19.32
 41
0.0
 71
     5
 72
     1
  1
\A1;62
 11
0.0
 21
1.0
 31
0.0
  0
POINT
  5
100
100
AcDbEntity
  8
DEFPOINTS
  6
BYBLOCK
 62
     0
100
AcDbPoint
 10
3353.682687
 20
-3712.542274
 30
0.0
  0
POINT
  5
101
100
AcDbEntity
  8
DEFPOINTS
  6
BYBLOCK
 62
     0
100
AcDbPoint
 10
3379.082687
 20
-3774.542274
 30
0.0
  0
POINT
  5
102
100
AcDbEntity
  8
DEFPOINTS
  6
BYBLOCK
 62
     0
100
AcDbPoint
 10
3474.09652
 20
-3774.542274
 30
0.0
  0
ENDBLK
  5
104
100
AcDbEntity
  8
0
100
AcDbBlockEnd
  0
BLOCK
  5
F6
100
AcDbEntity
  8
0
100
AcDbBlockBegin
  2
*D10
 70
     1
 10
0.0
 20
0.0
 30
0.0
  3
*D10
  1

  0
LINE
  5
EA
100
AcDbEntity
  8
0
  6
BYBLOCK
100
AcDbLine
 10
3382.082687
 20
-3774.542274
 30
0.0
 11
3480.09652
 21
-3774.542274
 31
0.0
  0
LINE
  5
EB
100
AcDbEntity
  8
0
  6
BYBLOCK
100
AcDbLine
 10
3392.682687
 20
-3784.542274
 30
0.0
 11
3480.09652
 21
-3784.542274
 31
0.0
  0
LINE
  5
EC
100
AcDbEntity
  8
0
  6
BYBLOCK
100
AcDbLine
 10
3474.09652
 20
-3759.542274
 30
0.0
 11
3474.09652
 21
-3744.542274
 31
0.0
  0
LINE
  5
ED
100
AcDbEntity
  8
0
  6
BYBLOCK
100
AcDbLine
 10
3474.09652
 20
-3799.542274
 30
0.0
 11
3474.09652
 21
-3814.542274
 31
0.0
  0
MTEXT
  5
EE
100
AcDbEntity
  8
0
  6
BYBLOCK
 62
     5
100
AcDbMText
 10
3493.288606
 20
-3779.542274
 30
0.0
 40
19.32
 41
0.0
 71
     5
 72
     1
  1
\A1;10
 11
0.0
 21
1.0
 31
0.0
  0
LINE
  5
EF
100
AcDbEntity
  8
0
  6
BYBLOCK
100
AcDbLine
 10
3474.09652
 20
-3774.542274
 30
0.0
 11
3474.09652
 21
-3784.542274
 31
0.0
  0
LINE
  5
F0
100
AcDbEntity
  8
0
  6
BYBLOCK
100
AcDbLine
 10
3474.09652
 20
-3774.542274
 30
0.0
 11
3474.09652
 21
-3784.542274
 31
0.0
  0
SOLID
  5
F1
100
AcDbEntity
  8
0
  6
BYBLOCK
100
AcDbTrace
 10
3471.59652
 20
-3759.542274
 30
0.0
 11
3476.59652
 21
-3759.542274
 31
0.0
 12
3474.09652
 22
-3774.542274
 32
0.0
 13
3474.09652
 23
-3774.542274
 33
0.0
  0
SOLID
  5
F2
100
AcDbEntity
  8
0
  6
BYBLOCK
100
AcDbTrace
 10
3471.59652
 20
-3799.542274
 30
0.0
 11
3476.59652
 21
-3799.542274
 31
0.0
 12
3474.09652
 22
-3784.542274
 32
0.0
 13
3474.09652
 23
-3784.542274
 33
0.0
  0
POINT
  5
F3
100
AcDbEntity
  8
DEFPOINTS
  6
BYBLOCK
 62
     0
100
AcDbPoint
 10
3379.082687
 20
-3774.542274
 30
0.0
  0
POINT
  5
F4
100
AcDbEntity
  8
DEFPOINTS
  6
BYBLOCK
 62
     0
100
AcDbPoint
 10
3389.682687
 20
-3784.542274
 30
0.0
  0
POINT
  5
F5
100
AcDbEntity
  8
DEFPOINTS
  6
BYBLOCK
 62
     0
100
AcDbPoint
 10
3474.09652
 20
-3784.542274
 30
0.0
  0
ENDBLK
  5
F7
100
AcDbEntity
  8
0
100
AcDbBlockEnd
  0
BLOCK
  5
D8
100
AcDbEntity
  8
0
100
AcDbBlockBegin
  2
*D11
 70
     1
 10
0.0
 20
0.0
 30
0.0
  3
*D11
  1

  0
LINE
  5
CC
100
AcDbEntity
  8
0
  6
BYBLOCK
100
AcDbLine
 10
3392.682687
 20
-3784.542274
 30
0.0
 11
3480.09652
 21
-3784.542274
 31
0.0
  0
LINE
  5
CD
100
AcDbEntity
  8
0
  6
BYBLOCK
100
AcDbLine
 10
3444.182687
 20
-3812.542274
 30
0.0
 11
3480.09652
 21
-3812.542274
 31
0.0
  0
LINE
  5
CE
100
AcDbEntity
  8
0
  6
BYBLOCK
100
AcDbLine
 10
3474.09652
 20
-3769.542274
 30
0.0
 11
3474.09652
 21
-3754.542274
 31
0.0
  0
LINE
  5
CF
100
AcDbEntity
  8
0
  6
BYBLOCK
100
AcDbLine
 10
3474.09652
 20
-3827.542274
 30
0.0
 11
3474.09652
 21
-3842.542274
 31
0.0
  0
MTEXT
  5
D0
100
AcDbEntity
  8
0
  6
BYBLOCK
 62
     5
100
AcDbMText
 10
3458.34652
 20
-3837.846887
 30
0.0
 40
19.32
 41
0.0
 71
     5
 72
     1
  1
\A1;28
 11
0.0
 21
1.0
 31
0.0
  0
LINE
  5
D1
100
AcDbEntity
  8
0
  6
BYBLOCK
100
AcDbLine
 10
3474.09652
 20
-3784.542274
 30
0.0
 11
3474.09652
 21
-3812.542274
 31
0.0
  0
LINE
  5
D2
100
AcDbEntity
  8
0
  6
BYBLOCK
100
AcDbLine
 10
3474.09652
 20
-3784.542274
 30
0.0
 11
3474.09652
 21
-3812.542274
 31
0.0
  0
SOLID
  5
D3
100
AcDbEntity
  8
0
  6
BYBLOCK
100
AcDbTrace
 10
3471.59652
 20
-3769.542274
 30
0.0
 11
3476.59652
 21
-3769.542274
 31
0.0
 12
3474.09652
 22
-3784.542274
 32
0.0
 13
3474.09652
 23
-3784.542274
 33
0.0
  0
SOLID
  5
D4
100
AcDbEntity
  8
0
  6
BYBLOCK
100
AcDbTrace
 10
3471.59652
 20
-3827.542274
 30
0.0
 11
3476.59652
 21
-3827.542274
 31
0.0
 12
3474.09652
 22
-3812.542274
 32
0.0
 13
3474.09652
 23
-3812.542274
 33
0.0
  0
POINT
  5
D5
100
AcDbEntity
  8
DEFPOINTS
  6
BYBLOCK
 62
     0
100
AcDbPoint
 10
3389.682687
 20
-3784.542274
 30
0.0
  0
POINT
  5
D6
100
AcDbEntity
  8
DEFPOINTS
  6
BYBLOCK
 62
     0
100
AcDbPoint
 10
3441.182687
 20
-3812.542274
 30
0.0
  0
POINT
  5
D7
100
AcDbEntity
  8
DEFPOINTS
  6
BYBLOCK
 62
     0
100
AcDbPoint
 10
3474.09652
 20
-3812.542274
 30
0.0
  0
ENDBLK
  5
D9
100
AcDbEntity
  8
0
100
AcDbBlockEnd
  0
BLOCK
  5
E6
100
AcDbEntity
  8
0
100
AcDbBlockBegin
  2
*D12
 70
     1
 10
0.0
 20
0.0
 30
0.0
  3
*D12
  1

  0
LINE
  5
DD
100
AcDbEntity
  8
0
  6
BYBLOCK
100
AcDbLine
 10
3356.682687
 20
-3712.542274
 30
0.0
 11
3544.022283
 21
-3712.542274
 31
0.0
  0
LINE
  5
DE
100
AcDbEntity
  8
0
  6
BYBLOCK
100
AcDbLine
 10
3444.182687
 20
-3812.542274
 30
0.0
 11
3544.022283
 21
-3812.542274
 31
0.0
  0
LINE
  5
DF
100
AcDbEntity
  8
0
  6
BYBLOCK
100
AcDbLine
 10
3538.022283
 20
-3727.542274
 30
0.0
 11
3538.022283
 21
-3797.542274
 31
0.0
  0
SOLID
  5
E0
100
AcDbEntity
  8
0
  6
BYBLOCK
100
AcDbTrace
 10
3535.522283
 20
-3727.542274
 30
0.0
 11
3540.522283
 21
-3727.542274
 31
0.0
 12
3538.022283
 22
-3712.542274
 32
0.0
 13
3538.022283
 23
-3712.542274
 33
0.0
  0
SOLID
  5
E1
100
AcDbEntity
  8
0
  6
BYBLOCK
100
AcDbTrace
 10
3535.522283
 20
-3797.542274
 30
0.0
 11
3540.522283
 21
-3797.542274
 31
0.0
 12
3538.022283
 22
-3812.542274
 32
0.0
 13
3538.022283
 23
-3812.542274
 33
0.0
  0
MTEXT
  5
E2
100
AcDbEntity
  8
0
  6
BYBLOCK
 62
     5
100
AcDbMText
 10
3522.362283
 20
-3762.542274
 30
0.0
 40
19.32
 41
0.0
 71
     5
 72
     1
  1
\A1;100
 11
0.0
 21
1.0
 31
0.0
  0
POINT
  5
E3
100
AcDbEntity
  8
DEFPOINTS
  6
BYBLOCK
 62
     0
100
AcDbPoint
 10
3353.682687
 20
-3712.542274
 30
0.0
  0
POINT
  5
E4
100
AcDbEntity
  8
DEFPOINTS
  6
BYBLOCK
 62
     0
100
AcDbPoint
 10
3441.182687
 20
-3812.542274
 30
0.0
  0
POINT
  5
E5
100
AcDbEntity
  8
DEFPOINTS
  6
BYBLOCK
 62
     0
100
AcDbPoint
 10
3538.022283
 20
-3812.542274
 30
0.0
  0
ENDBLK
  5
E7
100
AcDbEntity
  8
0
100
AcDbBlockEnd
  0
BLOCK
  5
3B
100
AcDbEntity
  8
0
100
AcDbBlockBegin
  2
*D13
 70
     1
 10
0.0
 20
0.0
 30
0.0
  3
*D13
  1

  0
LINE
  5
30
100
AcDbEntity
  8
0
  6
BYBLOCK
100
AcDbLine
 10
3205.789973
 20
-3784.542274
 30
0.0
 11
3253.310347
 21
-3784.542274
 31
0.0
  0
LINE
  5
31
100
AcDbEntity
  8
0
  6
BYBLOCK
100
AcDbLine
 10
3190.464868
 20
-3772.483613
 30
0.0
 11
3232.693767
 21
-3732.64503
 31
0.0
  0
ARC
  5
32
100
AcDbEntity
  8
0
  6
BYBLOCK
100
AcDbCircle
 10
3177.682687
 20
-3784.542274
 30
0.0
 40
69.627659
100
AcDbArc
 50
12.367318
 51
30.964345
  0
SOLID
  5
33
100
AcDbEntity
  8
0
  6
BYBLOCK
100
AcDbTrace
 10
3248.180064
 20
-3769.360259
 30
0.0
 11
3243.209155
 21
-3769.898838
 31
0.0
 12
3247.310347
 22
-3784.542274
 32
0.0
 13
3247.310347
 23
-3784.542274
 33
0.0
  0
SOLID
  5
34
100
AcDbEntity
  8
0
  6
BYBLOCK
100
AcDbTrace
 10
3235.394849
 20
-3750.228216
 30
0.0
 11
3239.38024
 21
-3747.208836
 31
0.0
 12
3228.329405
 22
-3736.762352
 32
0.0
 13
3228.329405
 23
-3736.762352
 33
0.0
  0
MTEXT
  5
35
100
AcDbEntity
  8
0
  6
BYBLOCK
 62
     5
100
AcDbMText
 10
3264.72813
 20
-3766.401059
 30
0.0
 40
19.32
 41
0.0
 71
     5
 72
     1
  1
\A1;43.33°
 11
0.204027
 21
-0.978965
 31
0.0
  0
POINT
  5
36
100
AcDbEntity
  8
DEFPOINTS
  6
BYBLOCK
 62
     0
100
AcDbPoint
 10
3238.646411
 20
-3750.90546
 30
0.0
  0
POINT
  5
37
100
AcDbEntity
  8
DEFPOINTS
  6
BYBLOCK
 62
     0
100
AcDbPoint
 10
3188.282687
 20
-3774.542274
 30
0.0
  0
POINT
  5
38
100
AcDbEntity
  8
DEFPOINTS
  6
BYBLOCK
 62
     0
100
AcDbPoint
 10
3177.682687
 20
-3784.542274
 30
0.0
  0
POINT
  5
39
100
AcDbEntity
  8
DEFPOINTS
  6
BYBLOCK
 62
     0
100
AcDbPoint
 10
3202.789973
 20
-3784.542274
 30
0.0
  0
POINT
  5
3A
100
AcDbEntity
  8
DEFPOINTS
  6
BYBLOCK
 62
     0
100
AcDbPoint
 10
3177.682687
 20
-3784.542274
 30
0.0
  0
ENDBLK
  5
3C
100
AcDbEntity
  8
0
100
AcDbBlockEnd
  0
BLOCK
  5
2C
100
AcDbEntity
  8
0
100
AcDbBlockBegin
  2
*D14
 70
     1
 10
0.0
 20
0.0
 30
0.0
  3
*D14
  1

  0
LINE
  5
20
100
AcDbEntity
  8
0
  6
BYBLOCK
100
AcDbLine
 10
3169.182687
 20
-3812.542274
 30
0.0
 11
3325.235169
 21
-3812.542274
 31
0.0
  0
LINE
  5
21
100
AcDbEntity
  8
0
  6
BYBLOCK
100
AcDbLine
 10
3178.822444
 20
-3781.767215
 30
0.0
 11
3226.609724
 21
-3665.415576
 31
0.0
  0
ARC
  5
22
100
AcDbEntity
  8
0
  6
BYBLOCK
100
AcDbCircle
 10
3166.182687
 20
-3812.542274
 30
0.0
 40
153.052482
100
AcDbArc
 50
5.617557
 51
62.053787
  0
SOLID
  5
23
100
AcDbEntity
  8
0
  6
BYBLOCK
100
AcDbTrace
 10
3320.997124
 20
-3797.437788
 30
0.0
 11
3316.003131
 21
-3797.682802
 31
0.0
 12
3319.235169
 22
-3812.542274
 32
0.0
 13
3319.235169
 23
-3812.542274
 33
0.0
  0
SOLID
  5
24
100
AcDbEntity
  8
0
  6
BYBLOCK
100
AcDbTrace
 10
3236.847605
 20
-3679.600789
 30
0.0
 11
3238.97156
 21
-3675.074331
 31
0.0
 12
3224.330211
 22
-3670.965695
 32
0.0
 13
3224.330211
 23
-3670.965695
 33
0.0
  0
MTEXT
  5
25
100
AcDbEntity
  8
0
  6
BYBLOCK
 62
     5
100
AcDbMText
 10
3335.389951
 20
-3769.886224
 30
0.0
 40
19.32
 41
0.0
 71
     5
 72
     1
  1
\A1;67,67°
 11
0.244446
 21
-0.969663
 31
0.0
  0
POINT
  5
26
100
AcDbEntity
  8
DEFPOINTS
  6
BYBLOCK
 62
     0
100
AcDbPoint
 10
3274.191156
 20
-3704.102277
 30
0.0
  0
POINT
  5
28
100
AcDbEntity
  8
DEFPOINTS
  6
BYBLOCK
 62
     0
100
AcDbPoint
 10
3177.682687
 20
-3784.542274
 30
0.0
  0
POINT
  5
29
100
AcDbEntity
  8
DEFPOINTS
  6
BYBLOCK
 62
     0
100
AcDbPoint
 10
3166.182687
 20
-3812.542274
 30
0.0
  0
POINT
  5
2A
100
AcDbEntity
  8
DEFPOINTS
  6
BYBLOCK
 62
     0
100
AcDbPoint
 10
3146.182687
 20
-3812.542274
 30
0.0
  0
POINT
  5
2B
100
AcDbEntity
  8
DEFPOINTS
  6
BYBLOCK
 62
     0
100
AcDbPoint
 10
3166.182687
 20
-3812.542274
 30
0.0
  0
ENDBLK
  5
2D
100
AcDbEntity
  8
0
100
AcDbBlockEnd
  0
ENDSEC
  0
SECTION
  2
ENTITIES
  0
DIMENSION
  5
1E
100
AcDbEntity
  8
KOTY-UPLNE
100
AcDbDimension
  2
*D14
 10
722.855297
 20
-249.884928
 30
0.0
 11
892.062561
 21
-207.228878
 31
0.0
 12
-2443.32739
 22
3562.657346
 32
0.0
 70
   130
  1
67,67%%D
  3
UPLNE
100
AcDb2LineAngularDimension
 13
722.855297
 23
-249.884928
 33
0.0
 14
702.855297
 24
-249.884928
 34
0.0
 15
734.355297
 25
-221.884928
 35
0.0
 16
830.863766
 26
-141.444931
 36
0.0
1001
ACAD
1000
DSTYLE
1002
{
1070
    40
1040
3.0
1070
   147
1040
2.0
1002
}
  0
DIMENSION
  5
2E
100
AcDbEntity
  8
KOTY-UPLNE
100
AcDbDimension
  2
*D13
 10
734.355297
 20
-221.884928
 30
0.0
 11
821.40074
 21
-203.743713
 31
0.0
 12
-2443.32739
 22
3562.657346
 32
0.0
 70
   130
  1
43.33%%D
  3
UPLNE
100
AcDb2LineAngularDimension
 13
734.355297
 23
-221.884928
 33
0.0
 14
759.462583
 24
-221.884928
 34
0.0
 15
744.955297
 25
-211.884928
 35
0.0
 16
795.319021
 26
-188.248114
 36
0.0
1001
ACAD
1000
DSTYLE
1002
{
1070
    40
1040
3.0
1070
   147
1040
2.0
1002
}
  0
LINE
  5
3D
100
AcDbEntity
  8
KOTY-UPLNE
100
AcDbLine
 10
734.355297
 20
-221.884928
 30
0.0
 11
759.462583
 21
-221.884928
 31
0.0
  0
DIMENSION
  5
3E
100
AcDbEntity
  8
KOTY-UPLNE
100
AcDbDimension
  2
*D7
 10
722.855297
 20
-309.884928
 30
0.0
 11
702.855297
 21
-294.224928
 31
0.0
 12
-2443.32739
 22
3562.657346
 32
0.0
  3
UPLNE
100
AcDbAlignedDimension
 13
682.855297
 23
-249.884928
 33
0.0
 14
722.855297
 24
-249.884928
 34
0.0
100
AcDbRotatedDimension
1001
ACAD
1000
DSTYLE
1002
{
1070
    40
1040
3.0
1070
   147
1040
2.0
1002
}
  0
DIMENSION
  5
4D
100
AcDbEntity
  8
KOTY-UPLNE
100
AcDbDimension
  2
*D6
 10
977.855297
 20
-369.884928
 30
0.0
 11
565.355297
 21
-354.224928
 31
0.0
 12
-2443.32739
 22
3562.657346
 32
0.0
  3
UPLNE
100
AcDbAlignedDimension
 13
152.855297
 23
-249.884928
 33
0.0
 14
977.855297
 24
-249.884928
 34
0.0
100
AcDbRotatedDimension
1001
ACAD
1000
DSTYLE
1002
{
1070
    40
1040
3.0
1070
   147
1040
2.0
1002
}
  0
MTEXT
  5
5A
100
AcDbEntity
  8
KOTY-UPLNE
  6
BYBLOCK
 62
     5
100
AcDbMText
 10
669.486575
 20
-85.198963
 30
0.0
 40
16.5
 41
0.0
 71
     5
 72
     1
  1
všechna zaoblení R=5
  0
LWPOLYLINE
  5
5B
100
AcDbEntity
  8
TRAPEZ-VELKY
100
AcDbPolyline
 90
       74
 70
     0
 43
5.0
 10
147.855297
 20
-249.884928
 10
152.855297
 20
-249.884928
 10
169.503579
 20
-249.884928
 42
0.304163
 10
174.128678
 20
-246.784522
 10
183.945637
 20
-222.882362
 42
-0.106603
 10
185.139634
 20
-221.144988
 10
194.169271
 20
-212.626462
 42
0.106827
 10
195.364952
 20
-210.884982
 10
219.083449
 20
-152.98944
 42
-0.304406
 10
223.710232
 20
-149.884928
 10
276.812276
 20
-149.884928
 42
-0.103191
 10
278.811328
 20
-150.301938
 10
288.356246
 20
-154.46533
 42
0.208604
 10
292.354348
 20
-154.46533
 10
301.899267
 20
-150.301938
 42
-0.103191
 10
303.898318
 20
-149.884928
 10
357.000362
 20
-149.884928
 42
-0.304406
 10
361.627145
 20
-152.98944
 10
385.345642
 20
-210.884982
 42
0.106827
 10
386.541323
 20
-212.626462
 10
395.57096
 20
-221.144988
 42
-0.106603
 10
396.764957
 20
-222.882362
 10
406.581916
 20
-246.784522
 42
0.304163
 10
411.207015
 20
-249.884928
 10
427.855297
 20
-249.884928
 10
444.503579
 20
-249.884928
 42
0.304163
 10
449.128678
 20
-246.784522
 10
458.945637
 20
-222.882362
 42
-0.106603
 10
460.139634
 20
-221.144988
 10
469.169271
 20
-212.626462
 42
0.106827
 10
470.364952
 20
-210.884982
 10
494.083449
 20
-152.98944
 42
-0.304406
 10
498.710232
 20
-149.884928
 10
551.812276
 20
-149.884928
 42
-0.103191
 10
553.811328
 20
-150.301938
 10
563.356246
 20
-154.46533
 42
0.208604
 10
567.354348
 20
-154.46533
 10
576.899267
 20
-150.301938
 42
-0.103191
 10
578.898318
 20
-149.884928
 10
632.000362
 20
-149.884928
 42
-0.304406
 10
636.627145
 20
-152.98944
 10
660.345642
 20
-210.884982
 42
0.106827
 10
661.541323
 20
-212.626462
 10
670.57096
 20
-221.144988
 42
-0.106603
 10
671.764957
 20
-222.882362
 10
681.581916
 20
-246.784522
 42
0.304163
 10
686.207015
 20
-249.884928
 10
702.855297
 20
-249.884928
 10
719.503579
 20
-249.884928
 42
0.304163
 10
724.128678
 20
-246.784522
 10
733.945637
 20
-222.882362
 42
-0.106603
 10
735.139634
 20
-221.144988
 10
744.169271
 20
-212.626462
 42
0.106827
 10
745.364952
 20
-210.884982
 10
769.083449
 20
-152.98944
 42
-0.304406
 10
773.710232
 20
-149.884928
 10
826.812276
 20
-149.884928
 42
-0.103191
 10
828.811328
 20
-150.301938
 10
838.356246
 20
-154.46533
 42
0.208604
 10
842.354348
 20
-154.46533
 10
851.899267
 20
-150.301938
 42
-0.103191
 10
853.898318
 20
-149.884928
 10
907.000362
 20
-149.884928
 42
-0.304406
 10
911.627145
 20
-152.98944
 10
935.345642
 20
-210.884982
 42
0.106827
 10
936.541323
 20
-212.626462
 10
945.57096
 20
-221.144988
 42
-0.106603
 10
946.764957
 20
-222.882362
 10
956.581916
 20
-246.784522
 42
0.304163
 10
961.207015
 20
-249.884928
 10
977.855297
 20
-249.884928
 10
994.503579
 20
-249.884928
 42
0.304163
 10
999.128678
 20
-246.784522
 10
1002.029797
 20
-239.720928
  0
MTEXT
  5
5D
100
AcDbEntity
  8
POPIS
100
AcDbMText
 10
661.730741
 20
-42.124031
 30
0.0
 40
40.0
 41
1.0
 71
     5
 72
     1
  1
TR 100/275
  7
STYLE1
  0
LWPOLYLINE
  5
60
100
AcDbEntity
  8
RAMEC
100
AcDbPolyline
 90
        4
 70
     1
 43
0.0
 10
0.0
 20
0.0
 10
0.0
 20
-419.001233
 10
1349.672502
 20
-419.001233
 10
1349.672502
 20
0.0
  0
DIMENSION
  5
62
100
AcDbEntity
  8
KOTY-UPLNE
100
AcDbDimension
  2
*D8
 10
577.855297
 20
-309.884928
 30
0.0
 11
565.355297
 21
-294.224928
 31
0.0
 12
-2443.32739
 22
3562.657346
 32
0.0
  3
UPLNE
100
AcDbAlignedDimension
 13
552.855297
 23
-149.884928
 33
0.0
 14
577.855297
 24
-149.884928
 34
0.0
100
AcDbRotatedDimension
1001
ACAD
1000
DSTYLE
1002
{
1070
    40
1040
3.0
1070
   147
1040
2.0
1002
}
  0
DIMENSION
  5
71
100
AcDbEntity
  8
KOTY-UPLNE
100
AcDbDimension
  2
*D5
 10
427.855297
 20
-309.884928
 30
0.0
 11
290.355297
 21
-294.224928
 31
0.0
 12
-2443.32739
 22
3562.657346
 32
0.0
  3
UPLNE
100
AcDbAlignedDimension
 13
152.855297
 23
-249.884928
 33
0.0
 14
427.855297
 24
-249.884928
 34
0.0
100
AcDbRotatedDimension
1001
ACAD
1000
DSTYLE
1002
{
1070
    40
1040
3.0
1070
   147
1040
2.0
1002
}
  0
DIMENSION
  5
7E
100
AcDbEntity
  8
KOTY-UPLNE
100
AcDbDimension
  2
*D3
 10
449.080526
 20
-149.884928
 30
0.0
 11
433.330526
 21
-171.796396
 31
0.0
 12
-2443.32739
 22
3562.657346
 32
0.0
 70
   128
  3
UPLNE
100
AcDbAlignedDimension
 13
290.355297
 23
-154.884928
 33
0.0
 14
360.355297
 24
-149.884928
 34
0.0
 50
90.0
100
AcDbRotatedDimension
1001
ACAD
1000
DSTYLE
1002
{
1070
    40
1040
3.0
1070
   147
1040
2.0
1002
}
  0
DIMENSION
  5
8E
100
AcDbEntity
  8
KOTY-UPLNE
100
AcDbDimension
  2
*D2
 10
407.855297
 20
-111.074478
 30
0.0
 11
384.105297
 21
-93.574478
 31
0.0
 12
-2443.32739
 22
3562.657346
 32
0.0
  1
47,5
  3
UPLNE
100
AcDbAlignedDimension
 13
360.355297
 23
-149.884928
 33
0.0
 14
407.855297
 24
-249.884928
 34
0.0
100
AcDbRotatedDimension
1001
ACAD
1000
DSTYLE
1002
{
1070
    40
1040
3.0
1070
   147
1040
2.0
1002
}
  0
DIMENSION
  5
9D
100
AcDbEntity
  8
KOTY-UPLNE
100
AcDbDimension
  2
*D1
 10
360.355297
 20
-111.074478
 30
0.0
 11
290.355297
 21
-95.414478
 31
0.0
 12
-2443.32739
 22
3562.657346
 32
0.0
  3
UPLNE
100
AcDbAlignedDimension
 13
220.355297
 23
-149.884928
 33
0.0
 14
360.355297
 24
-149.884928
 34
0.0
100
AcDbRotatedDimension
1001
ACAD
1000
DSTYLE
1002
{
1070
    40
1040
3.0
1070
   147
1040
2.0
1002
}
  0
DIMENSION
  5
AA
100
AcDbEntity
  8
KOTY-UPLNE
100
AcDbDimension
  2
*D0
 10
220.355297
 20
-111.074478
 30
0.0
 11
196.605297
 21
-93.574478
 31
0.0
 12
-2443.32739
 22
3562.657346
 32
0.0
  1
47,5
  3
UPLNE
100
AcDbAlignedDimension
 13
172.855297
 23
-249.884928
 33
0.0
 14
220.355297
 24
-149.884928
 34
0.0
100
AcDbRotatedDimension
1001
ACAD
1000
DSTYLE
1002
{
1070
    40
1040
3.0
1070
   147
1040
2.0
1002
}
  0
DIMENSION
  5
B9
100
AcDbEntity
  8
KOTY-UPLNE
100
AcDbDimension
  2
*D4
 10
501.434366
 20
-119.431543
 30
0.0
 11
510.16174
 21
-106.086633
 31
0.0
 12
-2443.32739
 22
3562.657346
 32
0.0
 70
     1
  3
UPLNE
100
AcDbAlignedDimension
 13
469.955297
 23
-211.884928
 33
0.0
 14
464.399608
 24
-209.603127
 34
0.0
1001
ACAD
1000
DSTYLE
1002
{
1070
    40
1040
3.0
1070
   147
1040
2.0
1002
}
  0
MTEXT
  5
C8
100
AcDbEntity
  8
POZICE
100
AcDbMText
 10
705.624781
 20
-155.731781
 30
0.0
 40
41.73
 41
1.0
 71
     5
 72
     1
  1
A
  7
STYLE1
  0
DIMENSION
  5
CA
100
AcDbEntity
  8
KOTY-UPLNE
100
AcDbDimension
  2
*D11
 10
1030.76913
 20
-249.884928
 30
0.0
 11
1015.01913
 21
-275.189541
 31
0.0
 12
-2443.32739
 22
3562.657346
 32
0.0
 70
   128
  3
UPLNE
100
AcDbAlignedDimension
 13
946.355297
 23
-221.884928
 33
0.0
 14
997.855297
 24
-249.884928
 34
0.0
 50
90.0
100
AcDbRotatedDimension
1001
ACAD
1000
DSTYLE
1002
{
1070
    40
1040
3.0
1070
   147
1040
2.0
1002
}
  0
MTEXT
  5
DA
100
AcDbEntity
  8
POZICE
100
AcDbMText
 10
793.221281
 20
-315.026472
 30
0.0
 40
41.73
 41
1.0
 71
     5
 72
     1
  1
B
  7
STYLE1
  0
DIMENSION
  5
DB
100
AcDbEntity
  8
KOTY-UPLNE
100
AcDbDimension
  2
*D12
 10
1094.694893
 20
-249.884928
 30
0.0
 11
1079.034893
 21
-199.884928
 31
0.0
 12
-2443.32739
 22
3562.657346
 32
0.0
  3
UPLNE
100
AcDbAlignedDimension
 13
910.355297
 23
-149.884928
 33
0.0
 14
997.855297
 24
-249.884928
 34
0.0
 50
90.0
100
AcDbRotatedDimension
1001
ACAD
1000
DSTYLE
1002
{
1070
    40
1040
3.0
1070
   147
1040
2.0
1002
}
  0
DIMENSION
  5
E8
100
AcDbEntity
  8
KOTY-UPLNE
100
AcDbDimension
  2
*D10
 10
1030.76913
 20
-221.884928
 30
0.0
 11
1049.961216
 21
-216.884928
 31
0.0
 12
-2443.32739
 22
3562.657346
 32
0.0
 70
   128
  3
UPLNE
100
AcDbAlignedDimension
 13
935.755297
 23
-211.884928
 33
0.0
 14
946.355297
 24
-221.884928
 34
0.0
 50
90.0
100
AcDbRotatedDimension
1001
ACAD
1000
DSTYLE
1002
{
1070
    40
1040
3.0
1070
   147
1040
2.0
1002
}
  0
DIMENSION
  5
F8
100
AcDbEntity
  8
KOTY-UPLNE
100
AcDbDimension
  2
*D9
 10
1030.76913
 20
-211.884928
 30
0.0
 11
1015.10913
 21
-180.884928
 31
0.0
 12
-2443.32739
 22
3562.657346
 32
0.0
  3
UPLNE
100
AcDbAlignedDimension
 13
910.355297
 23
-149.884928
 33
0.0
 14
935.755297
 24
-211.884928
 34
0.0
 50
90.0
100
AcDbRotatedDimension
1001
ACAD
1000
DSTYLE
1002
{
1070
    40
1040
3.0
1070
   147
1040
2.0
1002
}
  0
ENDSEC
  0
SECTION
  2
OBJECTS
  0
DICTIONARY
  5
1A
100
AcDbDictionary
  3
ACAD_GROUP
350
18
  3
ACAD_MLINESTYLE
350
19
  0
DICTIONARY
  5
18
102
{ACAD_REACTORS
330
1A
102
}
100
AcDbDictionary
  0
DICTIONARY
  5
19
102
{ACAD_REACTORS
330
1A
102
}
100
AcDbDictionary
  3
STANDARD
350
1C
  0
MLINESTYLE
  5
1C
102
{ACAD_REACTORS
330
19
102
}
100
AcDbMlineStyle
  2
STANDARD
 70
     0
  3

 62
   256
 51
90.0
 52
90.0
 71
     2
 49
0.5
 62
   256
  6
BYLAYER
 49
-0.5
 62
   256
  6
BYLAYER
  0
ENDSEC
  0
EOF
