  0
SECTION
  2
HEADER
  9
$ACADVER
  1
AC1014
  9
$ACADMAINTVER
 70
     0
  9
$DWGCODEPAGE
  3
ANSI_1250
  9
$INSBASE
 10
0.0
 20
0.0
 30
0.0
  9
$EXTMIN
 10
0.0
 20
-411.001233
 30
0.0
  9
$EXTMAX
 10
1349.672502
 20
0.0
 30
0.0
  9
$LIMMIN
 10
-1000.0
 20
-1000.0
  9
$LIMMAX
 10
1000.0
 20
1000.0
  9
$ORTHOMODE
 70
     0
  9
$REGENMODE
 70
     1
  9
$FILLMODE
 70
     1
  9
$QTEXTMODE
 70
     0
  9
$MIRRTEXT
 70
     0
  9
$DRAGMODE
 70
     2
  9
$LTSCALE
 40
3.0
  9
$OSMODE
 70
    32
  9
$ATTMODE
 70
     1
  9
$TEXTSIZE
 40
50.0
  9
$TRACEWID
 40
0.05
  9
$TEXTSTYLE
  7
STANDARD
  9
$CLAYER
  8
KOTY-UPLNE
  9
$CELTYPE
  6
BYLAYER
  9
$CECOLOR
 62
   256
  9
$CELTSCALE
 40
1.0
  9
$DELOBJ
 70
     1
  9
$DISPSILH
 70
     0
  9
$DIMSCALE
 40
3.0
  9
$DIMASZ
 40
5.0
  9
$DIMEXO
 40
1.0
  9
$DIMDLI
 40
0.0
  9
$DIMRND
 40
1.0
  9
$DIMDLE
 40
1.0
  9
$DIMEXE
 40
2.0
  9
$DIMTP
 40
0.0
  9
$DIMTM
 40
0.0
  9
$DIMTXT
 40
6.44
  9
$DIMCEN
 40
1.0
  9
$DIMTSZ
 40
0.0
  9
$DIMTOL
 70
     0
  9
$DIMLIM
 70
     0
  9
$DIMTIH
 70
     0
  9
$DIMTOH
 70
     0
  9
$DIMSE1
 70
     0
  9
$DIMSE2
 70
     0
  9
$DIMTAD
 70
     3
  9
$DIMZIN
 70
     0
  9
$DIMBLK
  1

  9
$DIMASO
 70
     1
  9
$DIMSHO
 70
     0
  9
$DIMPOST
  1

  9
$DIMAPOST
  1

  9
$DIMALT
 70
     0
  9
$DIMALTD
 70
     2
  9
$DIMALTF
 40
25.4
  9
$DIMLFAC
 40
1.0
  9
$DIMTOFL
 70
     1
  9
$DIMTVP
 40
0.0
  9
$DIMTIX
 70
     1
  9
$DIMSOXD
 70
     0
  9
$DIMSAH
 70
     0
  9
$DIMBLK1
  1

  9
$DIMBLK2
  1

  9
$DIMSTYLE
  2
UPLNE
  9
$DIMCLRD
 70
   256
  9
$DIMCLRE
 70
   256
  9
$DIMCLRT
 70
     5
  9
$DIMTFAC
 40
1.0
  9
$DIMGAP
 40
2.0
  9
$DIMJUST
 70
     0
  9
$DIMSD1
 70
     0
  9
$DIMSD2
 70
     0
  9
$DIMTOLJ
 70
     1
  9
$DIMTZIN
 70
     0
  9
$DIMALTZ
 70
     0
  9
$DIMALTTZ
 70
     0
  9
$DIMFIT
 70
     5
  9
$DIMUPT
 70
     0
  9
$DIMUNIT
 70
     2
  9
$DIMDEC
 70
     0
  9
$DIMTDEC
 70
     0
  9
$DIMALTU
 70
     2
  9
$DIMALTTD
 70
     2
  9
$DIMTXSTY
  7
STANDARD
  9
$DIMAUNIT
 70
     0
  9
$LUNITS
 70
     2
  9
$LUPREC
 70
     2
  9
$SKETCHINC
 40
0.1
  9
$FILLETRAD
 40
5.0
  9
$AUNITS
 70
     0
  9
$AUPREC
 70
     2
  9
$MENU
  1
acad
  9
$ELEVATION
 40
0.0
  9
$PELEVATION
 40
0.0
  9
$THICKNESS
 40
0.0
  9
$LIMCHECK
 70
     0
  9
$BLIPMODE
 70
     1
  9
$CHAMFERA
 40
0.0
  9
$CHAMFERB
 40
0.0
  9
$CHAMFERC
 40
0.0
  9
$CHAMFERD
 40
0.0
  9
$SKPOLY
 70
     0
  9
$TDCREATE
 40
2448722.252204629
  9
$TDUPDATE
 40
2452465.895374536
  9
$TDINDWG
 40
2.5242282407
  9
$TDUSRTIMER
 40
2.5242282407
  9
$USRTIMER
 70
     1
  9
$ANGBASE
 50
0.0
  9
$ANGDIR
 70
     0
  9
$PDMODE
 70
     0
  9
$PDSIZE
 40
0.0
  9
$PLINEWID
 40
0.0
  9
$COORDS
 70
     2
  9
$SPLFRAME
 70
     0
  9
$SPLINETYPE
 70
     6
  9
$SPLINESEGS
 70
     8
  9
$ATTDIA
 70
     0
  9
$ATTREQ
 70
     1
  9
$HANDLING
 70
     1
  9
$HANDSEED
  5
117
  9
$SURFTAB1
 70
     6
  9
$SURFTAB2
 70
     6
  9
$SURFTYPE
 70
     6
  9
$SURFU
 70
     6
  9
$SURFV
 70
     6
  9
$UCSNAME
  2

  9
$UCSORG
 10
0.0
 20
0.0
 30
0.0
  9
$UCSXDIR
 10
1.0
 20
0.0
 30
0.0
  9
$UCSYDIR
 10
0.0
 20
1.0
 30
0.0
  9
$PUCSNAME
  2

  9
$PUCSORG
 10
0.0
 20
0.0
 30
0.0
  9
$PUCSXDIR
 10
1.0
 20
0.0
 30
0.0
  9
$PUCSYDIR
 10
0.0
 20
1.0
 30
0.0
  9
$USERI1
 70
     1
  9
$USERI2
 70
     0
  9
$USERI3
 70
     0
  9
$USERI4
 70
     0
  9
$USERI5
 70
     0
  9
$USERR1
 40
0.0
  9
$USERR2
 40
0.0
  9
$USERR3
 40
0.0
  9
$USERR4
 40
0.0
  9
$USERR5
 40
0.0
  9
$WORLDVIEW
 70
     1
  9
$SHADEDGE
 70
     3
  9
$SHADEDIF
 70
    70
  9
$TILEMODE
 70
     1
  9
$MAXACTVP
 70
    16
  9
$PINSBASE
 10
0.0
 20
0.0
 30
0.0
  9
$PLIMCHECK
 70
     0
  9
$PEXTMIN
 10
1.000000E+20
 20
1.000000E+20
 30
1.000000E+20
  9
$PEXTMAX
 10
-1.000000E+20
 20
-1.000000E+20
 30
-1.000000E+20
  9
$PLIMMIN
 10
0.0
 20
0.0
  9
$PLIMMAX
 10
12.0
 20
9.0
  9
$UNITMODE
 70
     0
  9
$VISRETAIN
 70
     0
  9
$PLINEGEN
 70
     0
  9
$PSLTSCALE
 70
     0
  9
$TREEDEPTH
 70
  3020
  9
$PICKSTYLE
 70
     0
  9
$CMLSTYLE
  2
STANDARD
  9
$CMLJUST
 70
     0
  9
$CMLSCALE
 40
1.0
  9
$PROXYGRAPHICS
 70
     1
  9
$MEASUREMENT
 70
     0
  0
ENDSEC
  0
SECTION
  2
CLASSES
  0
CLASS
  1
LWPOLYLINE
  2
AcDbPolyline
  3
"AutoCAD"
 90
        0
280
     0
281
     1
  0
CLASS
  1
DICTIONARYVAR
  2
AcDbDictionaryVar
  3
"AutoCAD"
 90
        0
280
     0
281
     0
  0
ENDSEC
  0
SECTION
  2
TABLES
  0
TABLE
  2
VPORT
  5
12
100
AcDbSymbolTable
 70
     3
  0
VPORT
  5
116
100
AcDbSymbolTableRecord
100
AcDbViewportTableRecord
  2
*ACTIVE
 70
     0
 10
0.0
 20
0.0
 11
1.0
 21
1.0
 12
672.033784
 22
-177.130729
 13
0.0
 23
0.0
 14
1.0
 24
1.0
 15
600.0
 25
600.0
 16
0.0
 26
0.0
 36
1.0
 17
0.0
 27
0.0
 37
0.0
 40
670.180381
 41
2.224444
 42
50.0
 43
0.0
 44
0.0
 50
0.0
 51
0.0
 71
     0
 72
   100
 73
     1
 74
     0
 75
     0
 76
     0
 77
     0
 78
     0
  0
ENDTAB
  0
TABLE
  2
LTYPE
  5
D
100
AcDbSymbolTable
 70
     1
  0
LTYPE
  5
E
100
AcDbSymbolTableRecord
100
AcDbLinetypeTableRecord
  2
BYBLOCK
 70
     0
  3

 72
    65
 73
     0
 40
0.0
  0
LTYPE
  5
F
100
AcDbSymbolTableRecord
100
AcDbLinetypeTableRecord
  2
BYLAYER
 70
     0
  3

 72
    65
 73
     0
 40
0.0
  0
LTYPE
  5
5
100
AcDbSymbolTableRecord
100
AcDbLinetypeTableRecord
  2
CONTINUOUS
 70
     0
  3
Solid line
 72
    65
 73
     0
 40
0.0
  0
ENDTAB
  0
TABLE
  2
LAYER
  5
A
100
AcDbSymbolTable
 70
     7
  0
LAYER
  5
4
100
AcDbSymbolTableRecord
100
AcDbLayerTableRecord
  2
0
 70
     0
 62
     7
  6
CONTINUOUS
  0
LAYER
  5
1B
100
AcDbSymbolTableRecord
100
AcDbLayerTableRecord
  2
KOTY-UPLNE
 70
     0
 62
     7
  6
CONTINUOUS
  0
LAYER
  5
34
100
AcDbSymbolTableRecord
100
AcDbLayerTableRecord
  2
RAMEC
 70
     0
 62
     5
  6
CONTINUOUS
  0
LAYER
  5
FB
100
AcDbSymbolTableRecord
100
AcDbLayerTableRecord
  2
POZICE
 70
     0
 62
     1
  6
CONTINUOUS
  0
LAYER
  5
31
100
AcDbSymbolTableRecord
100
AcDbLayerTableRecord
  2
POPIS
 70
     0
 62
     1
  6
CONTINUOUS
  0
LAYER
  5
29
100
AcDbSymbolTableRecord
100
AcDbLayerTableRecord
  2
DEFPOINTS
 70
     0
 62
     7
  6
CONTINUOUS
  0
LAYER
  5
2F
100
AcDbSymbolTableRecord
100
AcDbLayerTableRecord
  2
TRAPEZ-VELKY
 70
     0
 62
     7
  6
CONTINUOUS
  0
ENDTAB
  0
TABLE
  2
STYLE
  5
B
100
AcDbSymbolTable
 70
     2
  0
STYLE
  5
C
100
AcDbSymbolTableRecord
100
AcDbTextStyleTableRecord
  2
STANDARD
 70
     0
 40
0.0
 41
0.9
 50
0.0
 71
     0
 42
50.0
  3
simplex.shx
  4

  0
STYLE
  5
32
100
AcDbSymbolTableRecord
100
AcDbTextStyleTableRecord
  2
STYLE1
 70
     0
 40
0.0
 41
0.9
 50
0.0
 71
     0
 42
50.0
  3
simplex.shx
  4

  0
ENDTAB
  0
TABLE
  2
VIEW
  5
10
100
AcDbSymbolTable
 70
     0
  0
ENDTAB
  0
TABLE
  2
UCS
  5
11
100
AcDbSymbolTable
 70
     0
  0
ENDTAB
  0
TABLE
  2
APPID
  5
14
100
AcDbSymbolTable
 70
     1
  0
APPID
  5
15
100
AcDbSymbolTableRecord
100
AcDbRegAppTableRecord
  2
ACAD
 70
     0
  0
ENDTAB
  0
TABLE
  2
DIMSTYLE
  5
16
100
AcDbSymbolTable
 70
     1
  0
DIMSTYLE
105
1D
102
{ACAD_REACTORS
330
55
330
92
330
46
330
64
330
20
330
EC
330
DC
330
CC
330
BF
330
37
330
73
330
82
330
FF
330
AE
330
9F
102
}
100
AcDbSymbolTableRecord
100
AcDbDimStyleTableRecord
  2
UPLNE
 70
     0
  3

  4

  5

  6

  7

 40
5.0
 41
5.0
 42
1.0
 43
0.0
 44
2.0
 45
1.0
 46
1.0
 47
0.0
 48
0.0
140
6.44
141
1.0
142
0.0
143
25.4
144
1.0
145
0.0
146
1.0
147
1.0
 71
     0
 72
     0
 73
     0
 74
     0
 75
     0
 76
     0
 77
     3
 78
     0
170
     0
171
     2
172
     1
173
     0
174
     1
175
     0
176
   256
177
   256
178
     5
270
     2
271
     0
272
     0
273
     2
274
     2
340
C
275
     0
280
     0
281
     0
282
     0
283
     1
284
     0
285
     0
286
     0
287
     5
288
     0
  0
ENDTAB
  0
TABLE
  2
BLOCK_RECORD
  5
1
100
AcDbSymbolTable
 70
    15
  0
BLOCK_RECORD
  5
2
100
AcDbSymbolTableRecord
100
AcDbBlockTableRecord
  2
*MODEL_SPACE
  0
BLOCK_RECORD
  5
7
100
AcDbSymbolTableRecord
100
AcDbBlockTableRecord
  2
*PAPER_SPACE
  0
BLOCK_RECORD
  5
56
100
AcDbSymbolTableRecord
100
AcDbBlockTableRecord
  2
*D0
  0
BLOCK_RECORD
  5
93
100
AcDbSymbolTableRecord
100
AcDbBlockTableRecord
  2
*D1
  0
BLOCK_RECORD
  5
47
100
AcDbSymbolTableRecord
100
AcDbBlockTableRecord
  2
*D2
  0
BLOCK_RECORD
  5
65
100
AcDbSymbolTableRecord
100
AcDbBlockTableRecord
  2
*D3
  0
BLOCK_RECORD
  5
21
100
AcDbSymbolTableRecord
100
AcDbBlockTableRecord
  2
*D4
  0
BLOCK_RECORD
  5
ED
100
AcDbSymbolTableRecord
100
AcDbBlockTableRecord
  2
*D5
  0
BLOCK_RECORD
  5
DD
100
AcDbSymbolTableRecord
100
AcDbBlockTableRecord
  2
*D6
  0
BLOCK_RECORD
  5
CD
100
AcDbSymbolTableRecord
100
AcDbBlockTableRecord
  2
*D7
  0
BLOCK_RECORD
  5
C0
100
AcDbSymbolTableRecord
100
AcDbBlockTableRecord
  2
*D8
  0
BLOCK_RECORD
  5
38
100
AcDbSymbolTableRecord
100
AcDbBlockTableRecord
  2
*D9
  0
BLOCK_RECORD
  5
74
100
AcDbSymbolTableRecord
100
AcDbBlockTableRecord
  2
*D10
  0
BLOCK_RECORD
  5
83
100
AcDbSymbolTableRecord
100
AcDbBlockTableRecord
  2
*D11
  0
BLOCK_RECORD
  5
100
100
AcDbSymbolTableRecord
100
AcDbBlockTableRecord
  2
*D12
  0
BLOCK_RECORD
  5
AF
100
AcDbSymbolTableRecord
100
AcDbBlockTableRecord
  2
*D13
  0
BLOCK_RECORD
  5
A0
100
AcDbSymbolTableRecord
100
AcDbBlockTableRecord
  2
*D14
  0
ENDTAB
  0
ENDSEC
  0
SECTION
  2
BLOCKS
  0
BLOCK
  5
3
100
AcDbEntity
  8
0
100
AcDbBlockBegin
  2
*MODEL_SPACE
 70
     0
 10
0.0
 20
0.0
 30
0.0
  3
*MODEL_SPACE
  1

  0
ENDBLK
  5
6
100
AcDbEntity
  8
0
100
AcDbBlockEnd
  0
BLOCK
  5
8
100
AcDbEntity
 67
     1
  8
0
100
AcDbBlockBegin
  2
*PAPER_SPACE
 70
     0
 10
0.0
 20
0.0
 30
0.0
  3
*PAPER_SPACE
  1

  0
ENDBLK
  5
9
100
AcDbEntity
 67
     1
  8
0
100
AcDbBlockEnd
  0
BLOCK
  5
62
100
AcDbEntity
  8
0
100
AcDbBlockBegin
  2
*D0
 70
     1
 10
0.0
 20
0.0
 30
0.0
  3
*D0
  1

  0
LINE
  5
57
100
AcDbEntity
  8
0
  6
BYBLOCK
100
AcDbLine
 10
2616.182687
 20
-2601.542274
 30
0.0
 11
2616.182687
 21
-2467.731824
 31
0.0
  0
LINE
  5
58
100
AcDbEntity
  8
0
  6
BYBLOCK
100
AcDbLine
 10
2663.685456
 20
-2509.542274
 30
0.0
 11
2663.685456
 21
-2467.731824
 31
0.0
  0
LINE
  5
59
100
AcDbEntity
  8
0
  6
BYBLOCK
100
AcDbLine
 10
2601.182687
 20
-2473.731824
 30
0.0
 11
2586.182687
 21
-2473.731824
 31
0.0
  0
LINE
  5
5A
100
AcDbEntity
  8
0
  6
BYBLOCK
100
AcDbLine
 10
2678.685456
 20
-2473.731824
 30
0.0
 11
2693.685456
 21
-2473.731824
 31
0.0
  0
LINE
  5
5B
100
AcDbEntity
  8
0
  6
BYBLOCK
100
AcDbLine
 10
2616.182687
 20
-2473.731824
 30
0.0
 11
2663.685456
 21
-2473.731824
 31
0.0
  0
SOLID
  5
5C
100
AcDbEntity
  8
0
  6
BYBLOCK
100
AcDbTrace
 10
2601.182687
 20
-2471.231824
 30
0.0
 11
2601.182687
 21
-2476.231824
 31
0.0
 12
2616.182687
 22
-2473.731824
 32
0.0
 13
2616.182687
 23
-2473.731824
 33
0.0
  0
SOLID
  5
5D
100
AcDbEntity
  8
0
  6
BYBLOCK
100
AcDbTrace
 10
2678.685456
 20
-2471.231824
 30
0.0
 11
2678.685456
 21
-2476.231824
 31
0.0
 12
2663.685456
 22
-2473.731824
 32
0.0
 13
2663.685456
 23
-2473.731824
 33
0.0
  0
MTEXT
  5
5E
100
AcDbEntity
  8
0
  6
BYBLOCK
 62
     5
100
AcDbMText
 10
2639.934072
 20
-2456.231824
 30
0.0
 40
19.32
 41
0.0
 71
     5
 72
     1
  1
\A1;47,5
  0
POINT
  5
5F
100
AcDbEntity
  8
DEFPOINTS
  6
BYBLOCK
 62
     0
100
AcDbPoint
 10
2616.182687
 20
-2604.542274
 30
0.0
  0
POINT
  5
60
100
AcDbEntity
  8
DEFPOINTS
  6
BYBLOCK
 62
     0
100
AcDbPoint
 10
2663.685456
 20
-2512.542274
 30
0.0
  0
POINT
  5
61
100
AcDbEntity
  8
DEFPOINTS
  6
BYBLOCK
 62
     0
100
AcDbPoint
 10
2663.685456
 20
-2473.731824
 30
0.0
  0
ENDBLK
  5
63
100
AcDbEntity
  8
0
100
AcDbBlockEnd
  0
BLOCK
  5
9D
100
AcDbEntity
  8
0
100
AcDbBlockBegin
  2
*D1
 70
     1
 10
0.0
 20
0.0
 30
0.0
  3
*D1
  1

  0
LINE
  5
94
100
AcDbEntity
  8
0
  6
BYBLOCK
100
AcDbLine
 10
2663.685456
 20
-2509.542274
 30
0.0
 11
2663.685456
 21
-2467.731824
 31
0.0
  0
LINE
  5
95
100
AcDbEntity
  8
0
  6
BYBLOCK
100
AcDbLine
 10
2783.685456
 20
-2509.542274
 30
0.0
 11
2783.685456
 21
-2467.731824
 31
0.0
  0
LINE
  5
96
100
AcDbEntity
  8
0
  6
BYBLOCK
100
AcDbLine
 10
2678.685456
 20
-2473.731824
 30
0.0
 11
2768.685456
 21
-2473.731824
 31
0.0
  0
SOLID
  5
97
100
AcDbEntity
  8
0
  6
BYBLOCK
100
AcDbTrace
 10
2678.685456
 20
-2471.231824
 30
0.0
 11
2678.685456
 21
-2476.231824
 31
0.0
 12
2663.685456
 22
-2473.731824
 32
0.0
 13
2663.685456
 23
-2473.731824
 33
0.0
  0
SOLID
  5
98
100
AcDbEntity
  8
0
  6
BYBLOCK
100
AcDbTrace
 10
2768.685456
 20
-2471.231824
 30
0.0
 11
2768.685456
 21
-2476.231824
 31
0.0
 12
2783.685456
 22
-2473.731824
 32
0.0
 13
2783.685456
 23
-2473.731824
 33
0.0
  0
MTEXT
  5
99
100
AcDbEntity
  8
0
  6
BYBLOCK
 62
     5
100
AcDbMText
 10
2723.685456
 20
-2458.071824
 30
0.0
 40
19.32
 41
0.0
 71
     5
 72
     1
  1
\A1;120
  0
POINT
  5
9A
100
AcDbEntity
  8
DEFPOINTS
  6
BYBLOCK
 62
     0
100
AcDbPoint
 10
2663.685456
 20
-2512.542274
 30
0.0
  0
POINT
  5
9B
100
AcDbEntity
  8
DEFPOINTS
  6
BYBLOCK
 62
     0
100
AcDbPoint
 10
2783.685456
 20
-2512.542274
 30
0.0
  0
POINT
  5
9C
100
AcDbEntity
  8
DEFPOINTS
  6
BYBLOCK
 62
     0
100
AcDbPoint
 10
2783.685456
 20
-2473.731824
 30
0.0
  0
ENDBLK
  5
9E
100
AcDbEntity
  8
0
100
AcDbBlockEnd
  0
BLOCK
  5
53
100
AcDbEntity
  8
0
100
AcDbBlockBegin
  2
*D2
 70
     1
 10
0.0
 20
0.0
 30
0.0
  3
*D2
  1

  0
LINE
  5
48
100
AcDbEntity
  8
0
  6
BYBLOCK
100
AcDbLine
 10
2783.685456
 20
-2509.542274
 30
0.0
 11
2783.685456
 21
-2467.731824
 31
0.0
  0
LINE
  5
49
100
AcDbEntity
  8
0
  6
BYBLOCK
100
AcDbLine
 10
2831.188225
 20
-2601.542274
 30
0.0
 11
2831.188225
 21
-2467.731824
 31
0.0
  0
LINE
  5
4A
100
AcDbEntity
  8
0
  6
BYBLOCK
100
AcDbLine
 10
2768.685456
 20
-2473.731824
 30
0.0
 11
2753.685456
 21
-2473.731824
 31
0.0
  0
LINE
  5
4B
100
AcDbEntity
  8
0
  6
BYBLOCK
100
AcDbLine
 10
2846.188225
 20
-2473.731824
 30
0.0
 11
2861.188225
 21
-2473.731824
 31
0.0
  0
LINE
  5
4C
100
AcDbEntity
  8
0
  6
BYBLOCK
100
AcDbLine
 10
2783.685456
 20
-2473.731824
 30
0.0
 11
2831.188225
 21
-2473.731824
 31
0.0
  0
SOLID
  5
4D
100
AcDbEntity
  8
0
  6
BYBLOCK
100
AcDbTrace
 10
2768.685456
 20
-2471.231824
 30
0.0
 11
2768.685456
 21
-2476.231824
 31
0.0
 12
2783.685456
 22
-2473.731824
 32
0.0
 13
2783.685456
 23
-2473.731824
 33
0.0
  0
SOLID
  5
4E
100
AcDbEntity
  8
0
  6
BYBLOCK
100
AcDbTrace
 10
2846.188225
 20
-2471.231824
 30
0.0
 11
2846.188225
 21
-2476.231824
 31
0.0
 12
2831.188225
 22
-2473.731824
 32
0.0
 13
2831.188225
 23
-2473.731824
 33
0.0
  0
MTEXT
  5
4F
100
AcDbEntity
  8
0
  6
BYBLOCK
 62
     5
100
AcDbMText
 10
2807.436841
 20
-2456.231824
 30
0.0
 40
19.32
 41
0.0
 71
     5
 72
     1
  1
\A1;47,5
  0
POINT
  5
50
100
AcDbEntity
  8
DEFPOINTS
  6
BYBLOCK
 62
     0
100
AcDbPoint
 10
2783.685456
 20
-2512.542274
 30
0.0
  0
POINT
  5
51
100
AcDbEntity
  8
DEFPOINTS
  6
BYBLOCK
 62
     0
100
AcDbPoint
 10
2831.188225
 20
-2604.542274
 30
0.0
  0
POINT
  5
52
100
AcDbEntity
  8
DEFPOINTS
  6
BYBLOCK
 62
     0
100
AcDbPoint
 10
2831.188225
 20
-2473.731824
 30
0.0
  0
ENDBLK
  5
54
100
AcDbEntity
  8
0
100
AcDbBlockEnd
  0
BLOCK
  5
6F
100
AcDbEntity
  8
0
100
AcDbBlockBegin
  2
*D3
 70
     1
 10
0.0
 20
0.0
 30
0.0
  3
*D3
  1

  0
LINE
  5
66
100
AcDbEntity
  8
0
  6
BYBLOCK
100
AcDbLine
 10
2851.188225
 20
-2607.542274
 30
0.0
 11
2851.188225
 21
-2670.542274
 31
0.0
  0
LINE
  5
67
100
AcDbEntity
  8
0
  6
BYBLOCK
100
AcDbLine
 10
2596.182687
 20
-2607.542274
 30
0.0
 11
2596.182687
 21
-2670.542274
 31
0.0
  0
LINE
  5
68
100
AcDbEntity
  8
0
  6
BYBLOCK
100
AcDbLine
 10
2836.188225
 20
-2664.542274
 30
0.0
 11
2611.182687
 21
-2664.542274
 31
0.0
  0
SOLID
  5
69
100
AcDbEntity
  8
0
  6
BYBLOCK
100
AcDbTrace
 10
2836.188225
 20
-2662.042274
 30
0.0
 11
2836.188225
 21
-2667.042274
 31
0.0
 12
2851.188225
 22
-2664.542274
 32
0.0
 13
2851.188225
 23
-2664.542274
 33
0.0
  0
SOLID
  5
6A
100
AcDbEntity
  8
0
  6
BYBLOCK
100
AcDbTrace
 10
2611.182687
 20
-2662.042274
 30
0.0
 11
2611.182687
 21
-2667.042274
 31
0.0
 12
2596.182687
 22
-2664.542274
 32
0.0
 13
2596.182687
 23
-2664.542274
 33
0.0
  0
MTEXT
  5
6B
100
AcDbEntity
  8
0
  6
BYBLOCK
 62
     5
100
AcDbMText
 10
2723.685456
 20
-2648.882274
 30
0.0
 40
19.32
 41
0.0
 71
     5
 72
     1
  1
\A1;255
  0
POINT
  5
6C
100
AcDbEntity
  8
DEFPOINTS
  6
BYBLOCK
 62
     0
100
AcDbPoint
 10
2851.188225
 20
-2604.542274
 30
0.0
  0
POINT
  5
6D
100
AcDbEntity
  8
DEFPOINTS
  6
BYBLOCK
 62
     0
100
AcDbPoint
 10
2596.182687
 20
-2604.542274
 30
0.0
  0
POINT
  5
6E
100
AcDbEntity
  8
DEFPOINTS
  6
BYBLOCK
 62
     0
100
AcDbPoint
 10
2596.182687
 20
-2664.542274
 30
0.0
  0
ENDBLK
  5
70
100
AcDbEntity
  8
0
100
AcDbBlockEnd
  0
BLOCK
  5
2C
100
AcDbEntity
  8
0
100
AcDbBlockBegin
  2
*D4
 70
     1
 10
0.0
 20
0.0
 30
0.0
  3
*D4
  1

  0
LINE
  5
22
100
AcDbEntity
  8
0
  6
BYBLOCK
100
AcDbLine
 10
2596.182687
 20
-2607.542274
 30
0.0
 11
2596.182687
 21
-2730.542274
 31
0.0
  0
LINE
  5
23
100
AcDbEntity
  8
0
  6
BYBLOCK
100
AcDbLine
 10
3616.204838
 20
-2607.542274
 30
0.0
 11
3616.204838
 21
-2730.542274
 31
0.0
  0
LINE
  5
24
100
AcDbEntity
  8
0
  6
BYBLOCK
100
AcDbLine
 10
2611.182687
 20
-2724.542274
 30
0.0
 11
3601.204838
 21
-2724.542274
 31
0.0
  0
SOLID
  5
25
100
AcDbEntity
  8
0
  6
BYBLOCK
100
AcDbTrace
 10
2611.182687
 20
-2722.042274
 30
0.0
 11
2611.182687
 21
-2727.042274
 31
0.0
 12
2596.182687
 22
-2724.542274
 32
0.0
 13
2596.182687
 23
-2724.542274
 33
0.0
  0
SOLID
  5
26
100
AcDbEntity
  8
0
  6
BYBLOCK
100
AcDbTrace
 10
3601.204838
 20
-2722.042274
 30
0.0
 11
3601.204838
 21
-2727.042274
 31
0.0
 12
3616.204838
 22
-2724.542274
 32
0.0
 13
3616.204838
 23
-2724.542274
 33
0.0
  0
MTEXT
  5
27
100
AcDbEntity
  8
0
  6
BYBLOCK
 62
     5
100
AcDbMText
 10
3106.193763
 20
-2708.882274
 30
0.0
 40
19.32
 41
0.0
 71
     5
 72
     1
  1
\A1;1020
  0
POINT
  5
28
100
AcDbEntity
  8
DEFPOINTS
  6
BYBLOCK
 62
     0
100
AcDbPoint
 10
2596.182687
 20
-2604.542274
 30
0.0
  0
POINT
  5
2A
100
AcDbEntity
  8
DEFPOINTS
  6
BYBLOCK
 62
     0
100
AcDbPoint
 10
3616.204838
 20
-2604.542274
 30
0.0
  0
POINT
  5
2B
100
AcDbEntity
  8
DEFPOINTS
  6
BYBLOCK
 62
     0
100
AcDbPoint
 10
3616.204838
 20
-2724.542274
 30
0.0
  0
ENDBLK
  5
2D
100
AcDbEntity
  8
0
100
AcDbBlockEnd
  0
BLOCK
  5
F7
100
AcDbEntity
  8
0
100
AcDbBlockBegin
  2
*D5
 70
     1
 10
0.0
 20
0.0
 30
0.0
  3
*D5
  1

  0
LINE
  5
EE
100
AcDbEntity
  8
0
  6
BYBLOCK
100
AcDbLine
 10
3551.702069
 20
-2512.542274
 30
0.0
 11
3672.387548
 21
-2512.542274
 31
0.0
  0
LINE
  5
EF
100
AcDbEntity
  8
0
  6
BYBLOCK
100
AcDbLine
 10
3581.365388
 20
-2577.542274
 30
0.0
 11
3672.387548
 21
-2577.542274
 31
0.0
  0
LINE
  5
F0
100
AcDbEntity
  8
0
  6
BYBLOCK
100
AcDbLine
 10
3666.387548
 20
-2527.542274
 30
0.0
 11
3666.387548
 21
-2562.542274
 31
0.0
  0
SOLID
  5
F1
100
AcDbEntity
  8
0
  6
BYBLOCK
100
AcDbTrace
 10
3663.887548
 20
-2527.542274
 30
0.0
 11
3668.887548
 21
-2527.542274
 31
0.0
 12
3666.387548
 22
-2512.542274
 32
0.0
 13
3666.387548
 23
-2512.542274
 33
0.0
  0
SOLID
  5
F2
100
AcDbEntity
  8
0
  6
BYBLOCK
100
AcDbTrace
 10
3663.887548
 20
-2562.542274
 30
0.0
 11
3668.887548
 21
-2562.542274
 31
0.0
 12
3666.387548
 22
-2577.542274
 32
0.0
 13
3666.387548
 23
-2577.542274
 33
0.0
  0
MTEXT
  5
F3
100
AcDbEntity
  8
0
  6
BYBLOCK
 62
     5
100
AcDbMText
 10
3650.727548
 20
-2545.042274
 30
0.0
 40
19.32
 41
0.0
 71
     5
 72
     1
  1
\A1;65
 11
0.0
 21
1.0
 31
0.0
  0
POINT
  5
F4
100
AcDbEntity
  8
DEFPOINTS
  6
BYBLOCK
 62
     0
100
AcDbPoint
 10
3548.702069
 20
-2512.542274
 30
0.0
  0
POINT
  5
F5
100
AcDbEntity
  8
DEFPOINTS
  6
BYBLOCK
 62
     0
100
AcDbPoint
 10
3578.365388
 20
-2577.542274
 30
0.0
  0
POINT
  5
F6
100
AcDbEntity
  8
DEFPOINTS
  6
BYBLOCK
 62
     0
100
AcDbPoint
 10
3666.387548
 20
-2577.542274
 30
0.0
  0
ENDBLK
  5
F8
100
AcDbEntity
  8
0
100
AcDbBlockEnd
  0
BLOCK
  5
EA
100
AcDbEntity
  8
0
100
AcDbBlockBegin
  2
*D6
 70
     1
 10
0.0
 20
0.0
 30
0.0
  3
*D6
  1

  0
LINE
  5
DE
100
AcDbEntity
  8
0
  6
BYBLOCK
100
AcDbLine
 10
3581.365388
 20
-2577.542274
 30
0.0
 11
3672.387548
 21
-2577.542274
 31
0.0
  0
LINE
  5
DF
100
AcDbEntity
  8
0
  6
BYBLOCK
100
AcDbLine
 10
3590.077663
 20
-2584.542274
 30
0.0
 11
3672.387548
 21
-2584.542274
 31
0.0
  0
LINE
  5
E0
100
AcDbEntity
  8
0
  6
BYBLOCK
100
AcDbLine
 10
3666.387548
 20
-2562.542274
 30
0.0
 11
3666.387548
 21
-2547.542274
 31
0.0
  0
LINE
  5
E1
100
AcDbEntity
  8
0
  6
BYBLOCK
100
AcDbLine
 10
3666.387548
 20
-2599.542274
 30
0.0
 11
3666.387548
 21
-2614.542274
 31
0.0
  0
MTEXT
  5
E2
100
AcDbEntity
  8
0
  6
BYBLOCK
 62
     5
100
AcDbMText
 10
3686.27782
 20
-2581.042274
 30
0.0
 40
19.32
 41
0.0
 71
     5
 72
     1
  1
\A1;7
 11
0.0
 21
1.0
 31
0.0
  0
LINE
  5
E3
100
AcDbEntity
  8
0
  6
BYBLOCK
100
AcDbLine
 10
3666.387548
 20
-2577.542274
 30
0.0
 11
3666.387548
 21
-2584.542274
 31
0.0
  0
LINE
  5
E4
100
AcDbEntity
  8
0
  6
BYBLOCK
100
AcDbLine
 10
3666.387548
 20
-2577.542274
 30
0.0
 11
3666.387548
 21
-2584.542274
 31
0.0
  0
SOLID
  5
E5
100
AcDbEntity
  8
0
  6
BYBLOCK
100
AcDbTrace
 10
3663.887548
 20
-2562.542274
 30
0.0
 11
3668.887548
 21
-2562.542274
 31
0.0
 12
3666.387548
 22
-2577.542274
 32
0.0
 13
3666.387548
 23
-2577.542274
 33
0.0
  0
SOLID
  5
E6
100
AcDbEntity
  8
0
  6
BYBLOCK
100
AcDbTrace
 10
3663.887548
 20
-2599.542274
 30
0.0
 11
3668.887548
 21
-2599.542274
 31
0.0
 12
3666.387548
 22
-2584.542274
 32
0.0
 13
3666.387548
 23
-2584.542274
 33
0.0
  0
POINT
  5
E7
100
AcDbEntity
  8
DEFPOINTS
  6
BYBLOCK
 62
     0
100
AcDbPoint
 10
3578.365388
 20
-2577.542274
 30
0.0
  0
POINT
  5
E8
100
AcDbEntity
  8
DEFPOINTS
  6
BYBLOCK
 62
     0
100
AcDbPoint
 10
3587.077663
 20
-2584.542274
 30
0.0
  0
POINT
  5
E9
100
AcDbEntity
  8
DEFPOINTS
  6
BYBLOCK
 62
     0
100
AcDbPoint
 10
3666.387548
 20
-2584.542274
 30
0.0
  0
ENDBLK
  5
EB
100
AcDbEntity
  8
0
100
AcDbBlockEnd
  0
BLOCK
  5
DA
100
AcDbEntity
  8
0
100
AcDbBlockBegin
  2
*D7
 70
     1
 10
0.0
 20
0.0
 30
0.0
  3
*D7
  1

  0
LINE
  5
CE
100
AcDbEntity
  8
0
  6
BYBLOCK
100
AcDbLine
 10
3590.077663
 20
-2584.542274
 30
0.0
 11
3672.387548
 21
-2584.542274
 31
0.0
  0
LINE
  5
CF
100
AcDbEntity
  8
0
  6
BYBLOCK
100
AcDbLine
 10
3639.204838
 20
-2604.542274
 30
0.0
 11
3672.387548
 21
-2604.542274
 31
0.0
  0
LINE
  5
D0
100
AcDbEntity
  8
0
  6
BYBLOCK
100
AcDbLine
 10
3666.387548
 20
-2569.542274
 30
0.0
 11
3666.387548
 21
-2554.542274
 31
0.0
  0
LINE
  5
D1
100
AcDbEntity
  8
0
  6
BYBLOCK
100
AcDbLine
 10
3666.387548
 20
-2619.542274
 30
0.0
 11
3666.387548
 21
-2634.542274
 31
0.0
  0
MTEXT
  5
D2
100
AcDbEntity
  8
0
  6
BYBLOCK
 62
     5
100
AcDbMText
 10
3650.637548
 20
-2624.190921
 30
0.0
 40
19.32
 41
0.0
 71
     5
 72
     1
  1
\A1;20
 11
0.0
 21
1.0
 31
0.0
  0
LINE
  5
D3
100
AcDbEntity
  8
0
  6
BYBLOCK
100
AcDbLine
 10
3666.387548
 20
-2584.542274
 30
0.0
 11
3666.387548
 21
-2604.542274
 31
0.0
  0
LINE
  5
D4
100
AcDbEntity
  8
0
  6
BYBLOCK
100
AcDbLine
 10
3666.387548
 20
-2584.542274
 30
0.0
 11
3666.387548
 21
-2604.542274
 31
0.0
  0
SOLID
  5
D5
100
AcDbEntity
  8
0
  6
BYBLOCK
100
AcDbTrace
 10
3663.887548
 20
-2569.542274
 30
0.0
 11
3668.887548
 21
-2569.542274
 31
0.0
 12
3666.387548
 22
-2584.542274
 32
0.0
 13
3666.387548
 23
-2584.542274
 33
0.0
  0
SOLID
  5
D6
100
AcDbEntity
  8
0
  6
BYBLOCK
100
AcDbTrace
 10
3663.887548
 20
-2619.542274
 30
0.0
 11
3668.887548
 21
-2619.542274
 31
0.0
 12
3666.387548
 22
-2604.542274
 32
0.0
 13
3666.387548
 23
-2604.542274
 33
0.0
  0
POINT
  5
D7
100
AcDbEntity
  8
DEFPOINTS
  6
BYBLOCK
 62
     0
100
AcDbPoint
 10
3587.077663
 20
-2584.542274
 30
0.0
  0
POINT
  5
D8
100
AcDbEntity
  8
DEFPOINTS
  6
BYBLOCK
 62
     0
100
AcDbPoint
 10
3636.204838
 20
-2604.542274
 30
0.0
  0
POINT
  5
D9
100
AcDbEntity
  8
DEFPOINTS
  6
BYBLOCK
 62
     0
100
AcDbPoint
 10
3666.387548
 20
-2604.542274
 30
0.0
  0
ENDBLK
  5
DB
100
AcDbEntity
  8
0
100
AcDbBlockEnd
  0
BLOCK
  5
CA
100
AcDbEntity
  8
0
100
AcDbBlockBegin
  2
*D8
 70
     1
 10
0.0
 20
0.0
 30
0.0
  3
*D8
  1

  0
LINE
  5
C1
100
AcDbEntity
  8
0
  6
BYBLOCK
100
AcDbLine
 10
3554.702069
 20
-2512.542274
 30
0.0
 11
3739.333727
 21
-2512.542274
 31
0.0
  0
LINE
  5
C2
100
AcDbEntity
  8
0
  6
BYBLOCK
100
AcDbLine
 10
3639.204838
 20
-2604.542274
 30
0.0
 11
3739.333727
 21
-2604.542274
 31
0.0
  0
LINE
  5
C3
100
AcDbEntity
  8
0
  6
BYBLOCK
100
AcDbLine
 10
3733.333727
 20
-2527.542274
 30
0.0
 11
3733.333727
 21
-2589.542274
 31
0.0
  0
SOLID
  5
C4
100
AcDbEntity
  8
0
  6
BYBLOCK
100
AcDbTrace
 10
3730.833727
 20
-2527.542274
 30
0.0
 11
3735.833727
 21
-2527.542274
 31
0.0
 12
3733.333727
 22
-2512.542274
 32
0.0
 13
3733.333727
 23
-2512.542274
 33
0.0
  0
SOLID
  5
C5
100
AcDbEntity
  8
0
  6
BYBLOCK
100
AcDbTrace
 10
3730.833727
 20
-2589.542274
 30
0.0
 11
3735.833727
 21
-2589.542274
 31
0.0
 12
3733.333727
 22
-2604.542274
 32
0.0
 13
3733.333727
 23
-2604.542274
 33
0.0
  0
MTEXT
  5
C6
100
AcDbEntity
  8
0
  6
BYBLOCK
 62
     5
100
AcDbMText
 10
3717.673727
 20
-2558.542274
 30
0.0
 40
19.32
 41
0.0
 71
     5
 72
     1
  1
\A1;92
 11
0.0
 21
1.0
 31
0.0
  0
POINT
  5
C7
100
AcDbEntity
  8
DEFPOINTS
  6
BYBLOCK
 62
     0
100
AcDbPoint
 10
3551.702069
 20
-2512.542274
 30
0.0
  0
POINT
  5
C8
100
AcDbEntity
  8
DEFPOINTS
  6
BYBLOCK
 62
     0
100
AcDbPoint
 10
3636.204838
 20
-2604.542274
 30
0.0
  0
POINT
  5
C9
100
AcDbEntity
  8
DEFPOINTS
  6
BYBLOCK
 62
     0
100
AcDbPoint
 10
3733.333727
 20
-2604.542274
 30
0.0
  0
ENDBLK
  5
CB
100
AcDbEntity
  8
0
100
AcDbBlockEnd
  0
BLOCK
  5
44
100
AcDbEntity
  8
0
100
AcDbBlockBegin
  2
*D9
 70
     1
 10
0.0
 20
0.0
 30
0.0
  3
*D9
  1

  0
LINE
  5
39
100
AcDbEntity
  8
0
  6
BYBLOCK
100
AcDbLine
 10
2890.273184
 20
-2574.813042
 30
0.0
 11
2940.797064
 21
-2464.102159
 31
0.0
  0
LINE
  5
3A
100
AcDbEntity
  8
0
  6
BYBLOCK
100
AcDbLine
 10
2885.706494
 20
-2572.728993
 30
0.0
 11
2936.230374
 21
-2462.018111
 31
0.0
  0
LINE
  5
3B
100
AcDbEntity
  8
0
  6
BYBLOCK
100
AcDbLine
 10
2951.952206
 20
-2475.788168
 30
0.0
 11
2965.598367
 21
-2482.015713
 31
0.0
  0
LINE
  5
3C
100
AcDbEntity
  8
0
  6
BYBLOCK
100
AcDbLine
 10
2920.093196
 20
-2461.24903
 30
0.0
 11
2906.447036
 21
-2455.021485
 31
0.0
  0
LINE
  5
3D
100
AcDbEntity
  8
0
  6
BYBLOCK
100
AcDbLine
 10
2938.306046
 20
-2469.560624
 30
0.0
 11
2933.739356
 21
-2467.476575
 31
0.0
  0
SOLID
  5
3E
100
AcDbEntity
  8
0
  6
BYBLOCK
100
AcDbTrace
 10
2952.990131
 20
-2473.513808
 30
0.0
 11
2950.914282
 21
-2478.062528
 31
0.0
 12
2938.306046
 22
-2469.560624
 32
0.0
 13
2938.306046
 23
-2469.560624
 33
0.0
  0
SOLID
  5
3F
100
AcDbEntity
  8
0
  6
BYBLOCK
100
AcDbTrace
 10
2921.13112
 20
-2458.97467
 30
0.0
 11
2919.055272
 21
-2463.52339
 31
0.0
 12
2933.739356
 22
-2467.476575
 32
0.0
 13
2933.739356
 23
-2467.476575
 33
0.0
  0
MTEXT
  5
40
100
AcDbEntity
  8
0
  6
BYBLOCK
 62
     5
100
AcDbMText
 10
2942.524258
 20
-2454.272008
 30
0.0
 40
19.32
 41
0.0
 71
     5
 72
     1
  1
\A1;5
 11
0.909744
 21
-0.41517
 31
0.0
  0
POINT
  5
41
100
AcDbEntity
  8
DEFPOINTS
  6
BYBLOCK
 62
     0
100
AcDbPoint
 10
2889.027675
 20
-2577.542274
 30
0.0
  0
POINT
  5
42
100
AcDbEntity
  8
DEFPOINTS
  6
BYBLOCK
 62
     0
100
AcDbPoint
 10
2884.460985
 20
-2575.458225
 30
0.0
  0
POINT
  5
43
100
AcDbEntity
  8
DEFPOINTS
  6
BYBLOCK
 62
     0
100
AcDbPoint
 10
2933.739356
 20
-2467.476575
 30
0.0
  0
ENDBLK
  5
45
100
AcDbEntity
  8
0
100
AcDbBlockEnd
  0
BLOCK
  5
80
100
AcDbEntity
  8
0
100
AcDbBlockBegin
  2
*D10
 70
     1
 10
0.0
 20
0.0
 30
0.0
  3
*D10
  1

  0
LINE
  5
75
100
AcDbEntity
  8
0
  6
BYBLOCK
100
AcDbLine
 10
3126.193763
 20
-2607.542274
 30
0.0
 11
3126.193763
 21
-2670.542274
 31
0.0
  0
LINE
  5
76
100
AcDbEntity
  8
0
  6
BYBLOCK
100
AcDbLine
 10
3086.193763
 20
-2607.542274
 30
0.0
 11
3086.193763
 21
-2670.542274
 31
0.0
  0
LINE
  5
77
100
AcDbEntity
  8
0
  6
BYBLOCK
100
AcDbLine
 10
3141.193763
 20
-2664.542274
 30
0.0
 11
3156.193763
 21
-2664.542274
 31
0.0
  0
LINE
  5
78
100
AcDbEntity
  8
0
  6
BYBLOCK
100
AcDbLine
 10
3071.193763
 20
-2664.542274
 30
0.0
 11
3056.193763
 21
-2664.542274
 31
0.0
  0
LINE
  5
79
100
AcDbEntity
  8
0
  6
BYBLOCK
100
AcDbLine
 10
3126.193763
 20
-2664.542274
 30
0.0
 11
3086.193763
 21
-2664.542274
 31
0.0
  0
SOLID
  5
7A
100
AcDbEntity
  8
0
  6
BYBLOCK
100
AcDbTrace
 10
3141.193763
 20
-2662.042274
 30
0.0
 11
3141.193763
 21
-2667.042274
 31
0.0
 12
3126.193763
 22
-2664.542274
 32
0.0
 13
3126.193763
 23
-2664.542274
 33
0.0
  0
SOLID
  5
7B
100
AcDbEntity
  8
0
  6
BYBLOCK
100
AcDbTrace
 10
3071.193763
 20
-2662.042274
 30
0.0
 11
3071.193763
 21
-2667.042274
 31
0.0
 12
3086.193763
 22
-2664.542274
 32
0.0
 13
3086.193763
 23
-2664.542274
 33
0.0
  0
MTEXT
  5
7C
100
AcDbEntity
  8
0
  6
BYBLOCK
 62
     5
100
AcDbMText
 10
3106.193763
 20
-2648.882274
 30
0.0
 40
19.32
 41
0.0
 71
     5
 72
     1
  1
\A1;40
  0
POINT
  5
7D
100
AcDbEntity
  8
DEFPOINTS
  6
BYBLOCK
 62
     0
100
AcDbPoint
 10
3126.193763
 20
-2604.542274
 30
0.0
  0
POINT
  5
7E
100
AcDbEntity
  8
DEFPOINTS
  6
BYBLOCK
 62
     0
100
AcDbPoint
 10
3086.193763
 20
-2604.542274
 30
0.0
  0
POINT
  5
7F
100
AcDbEntity
  8
DEFPOINTS
  6
BYBLOCK
 62
     0
100
AcDbPoint
 10
3086.193763
 20
-2664.542274
 30
0.0
  0
ENDBLK
  5
81
100
AcDbEntity
  8
0
100
AcDbBlockEnd
  0
BLOCK
  5
90
100
AcDbEntity
  8
0
100
AcDbBlockBegin
  2
*D11
 70
     1
 10
0.0
 20
0.0
 30
0.0
  3
*D11
  1

  0
LINE
  5
84
100
AcDbEntity
  8
0
  6
BYBLOCK
100
AcDbLine
 10
2726.685456
 20
-2518.542274
 30
0.0
 11
2872.829434
 21
-2518.542274
 31
0.0
  0
LINE
  5
85
100
AcDbEntity
  8
0
  6
BYBLOCK
100
AcDbLine
 10
2786.685456
 20
-2512.542274
 30
0.0
 11
2872.829434
 21
-2512.542274
 31
0.0
  0
LINE
  5
86
100
AcDbEntity
  8
0
  6
BYBLOCK
100
AcDbLine
 10
2866.829434
 20
-2533.542274
 30
0.0
 11
2866.829434
 21
-2548.542274
 31
0.0
  0
LINE
  5
87
100
AcDbEntity
  8
0
  6
BYBLOCK
100
AcDbLine
 10
2866.829434
 20
-2497.542274
 30
0.0
 11
2866.829434
 21
-2482.542274
 31
0.0
  0
MTEXT
  5
88
100
AcDbEntity
  8
0
  6
BYBLOCK
 62
     5
100
AcDbMText
 10
2851.079434
 20
-2535.414728
 30
0.0
 40
19.32
 41
0.0
 71
     5
 72
     1
  1
\A1;6
 11
0.0
 21
1.0
 31
0.0
  0
LINE
  5
89
100
AcDbEntity
  8
0
  6
BYBLOCK
100
AcDbLine
 10
2866.829434
 20
-2518.542274
 30
0.0
 11
2866.829434
 21
-2512.542274
 31
0.0
  0
LINE
  5
8A
100
AcDbEntity
  8
0
  6
BYBLOCK
100
AcDbLine
 10
2866.829434
 20
-2518.542274
 30
0.0
 11
2866.829434
 21
-2512.542274
 31
0.0
  0
SOLID
  5
8B
100
AcDbEntity
  8
0
  6
BYBLOCK
100
AcDbTrace
 10
2864.329434
 20
-2533.542274
 30
0.0
 11
2869.329434
 21
-2533.542274
 31
0.0
 12
2866.829434
 22
-2518.542274
 32
0.0
 13
2866.829434
 23
-2518.542274
 33
0.0
  0
SOLID
  5
8C
100
AcDbEntity
  8
0
  6
BYBLOCK
100
AcDbTrace
 10
2864.329434
 20
-2497.542274
 30
0.0
 11
2869.329434
 21
-2497.542274
 31
0.0
 12
2866.829434
 22
-2512.542274
 32
0.0
 13
2866.829434
 23
-2512.542274
 33
0.0
  0
POINT
  5
8D
100
AcDbEntity
  8
DEFPOINTS
  6
BYBLOCK
 62
     0
100
AcDbPoint
 10
2723.685456
 20
-2518.542274
 30
0.0
  0
POINT
  5
8E
100
AcDbEntity
  8
DEFPOINTS
  6
BYBLOCK
 62
     0
100
AcDbPoint
 10
2783.685456
 20
-2512.542274
 30
0.0
  0
POINT
  5
8F
100
AcDbEntity
  8
DEFPOINTS
  6
BYBLOCK
 62
     0
100
AcDbPoint
 10
2866.829434
 20
-2512.542274
 30
0.0
  0
ENDBLK
  5
91
100
AcDbEntity
  8
0
100
AcDbBlockEnd
  0
BLOCK
  5
10C
100
AcDbEntity
  8
0
100
AcDbBlockBegin
  2
*D12
 70
     1
 10
0.0
 20
0.0
 30
0.0
  3
*D12
  1

  0
LINE
  5
101
100
AcDbEntity
  8
0
  6
BYBLOCK
100
AcDbLine
 10
3551.702069
 20
-2512.542274
 30
0.0
 11
3581.988657
 21
-2512.542274
 31
0.0
  0
LINE
  5
102
100
AcDbEntity
  8
0
  6
BYBLOCK
100
AcDbLine
 10
3503.032196
 20
-2511.042274
 30
0.0
 11
3571.062421
 21
-2471.765006
 31
0.0
  0
ARC
  5
103
100
AcDbEntity
  8
0
  6
BYBLOCK
100
AcDbCircle
 10
3500.43412
 20
-2512.542274
 30
0.0
 40
75.554537
100
AcDbArc
 50
11.393815
 51
18.606185
  0
SOLID
  5
104
100
AcDbEntity
  8
0
  6
BYBLOCK
100
AcDbTrace
 10
3576.987319
 20
-2497.368195
 30
0.0
 11
3572.012014
 21
-2497.864525
 31
0.0
 12
3575.988657
 22
-2512.542274
 32
0.0
 13
3575.988657
 23
-2512.542274
 33
0.0
  0
SOLID
  5
105
100
AcDbEntity
  8
0
  6
BYBLOCK
100
AcDbTrace
 10
3569.761269
 20
-2489.464631
 30
0.0
 11
3574.318174
 21
-2487.406813
 31
0.0
 12
3565.866269
 22
-2474.765006
 32
0.0
 13
3565.866269
 23
-2474.765006
 33
0.0
  0
MTEXT
  5
106
100
AcDbEntity
  8
0
  6
BYBLOCK
 62
     5
100
AcDbMText
 10
3588.540597
 20
-2488.934215
 30
0.0
 40
19.32
 41
0.0
 71
     5
 72
     1
  1
\A1;30°
 11
0.258819
 21
-0.965926
 31
0.0
  0
POINT
  5
107
100
AcDbEntity
  8
DEFPOINTS
  6
BYBLOCK
 62
     0
100
AcDbPoint
 10
3574.840814
 20
-2499.422367
 30
0.0
  0
POINT
  5
108
100
AcDbEntity
  8
DEFPOINTS
  6
BYBLOCK
 62
     0
100
AcDbPoint
 10
3500.43412
 20
-2512.542274
 30
0.0
  0
POINT
  5
109
100
AcDbEntity
  8
DEFPOINTS
  6
BYBLOCK
 62
     0
100
AcDbPoint
 10
3548.702069
 20
-2512.542274
 30
0.0
  0
POINT
  5
10A
100
AcDbEntity
  8
DEFPOINTS
  6
BYBLOCK
 62
     0
100
AcDbPoint
 10
3500.43412
 20
-2512.542274
 30
0.0
  0
POINT
  5
10B
100
AcDbEntity
  8
DEFPOINTS
  6
BYBLOCK
 62
     0
100
AcDbPoint
 10
3491.202069
 20
-2517.872401
 30
0.0
  0
ENDBLK
  5
10D
100
AcDbEntity
  8
0
100
AcDbBlockEnd
  0
BLOCK
  5
BB
100
AcDbEntity
  8
0
100
AcDbBlockBegin
  2
*D13
 70
     1
 10
0.0
 20
0.0
 30
0.0
  3
*D13
  1

  0
LINE
  5
B0
100
AcDbEntity
  8
0
  6
BYBLOCK
100
AcDbLine
 10
3384.199301
 20
-2604.542274
 30
0.0
 11
3531.215
 21
-2604.542274
 31
0.0
  0
LINE
  5
B1
100
AcDbEntity
  8
0
  6
BYBLOCK
100
AcDbLine
 10
3391.571984
 20
-2581.813042
 30
0.0
 11
3443.481264
 21
-2468.06639
 31
0.0
  0
ARC
  5
B2
100
AcDbEntity
  8
0
  6
BYBLOCK
100
AcDbCircle
 10
3381.199301
 20
-2604.542274
 30
0.0
 40
144.015699
100
AcDbArc
 50
5.970361
 51
59.499639
  0
SOLID
  5
B3
100
AcDbEntity
  8
0
  6
BYBLOCK
100
AcDbTrace
 10
3526.930443
 20
-2589.432434
 30
0.0
 11
3521.937228
 21
-2589.692823
 31
0.0
 12
3525.215
 22
-2604.542274
 32
0.0
 13
3525.215
 23
-2604.542274
 33
0.0
  0
SOLID
  5
B4
100
AcDbEntity
  8
0
  6
BYBLOCK
100
AcDbTrace
 10
3453.138615
 20
-2482.671829
 30
0.0
 11
3455.448533
 21
-2478.237387
 31
0.0
 12
3440.990247
 22
-2473.524854
 32
0.0
 13
3440.990247
 23
-2473.524854
 33
0.0
  0
MTEXT
  5
B5
100
AcDbEntity
  8
0
  6
BYBLOCK
 62
     5
100
AcDbMText
 10
3538.865482
 20
-2564.497362
 30
0.0
 40
19.32
 41
0.0
 71
     5
 72
     1
  1
\A1;65,47°
 11
0.246169
 21
-0.969227
 31
0.0
  0
POINT
  5
B6
100
AcDbEntity
  8
DEFPOINTS
  6
BYBLOCK
 62
     0
100
AcDbPoint
 10
3485.410491
 20
-2505.141322
 30
0.0
  0
POINT
  5
B7
100
AcDbEntity
  8
DEFPOINTS
  6
BYBLOCK
 62
     0
100
AcDbPoint
 10
3390.326475
 20
-2584.542274
 30
0.0
  0
POINT
  5
B8
100
AcDbEntity
  8
DEFPOINTS
  6
BYBLOCK
 62
     0
100
AcDbPoint
 10
3381.199301
 20
-2604.542274
 30
0.0
  0
POINT
  5
B9
100
AcDbEntity
  8
DEFPOINTS
  6
BYBLOCK
 62
     0
100
AcDbPoint
 10
3361.199301
 20
-2604.542274
 30
0.0
  0
POINT
  5
BA
100
AcDbEntity
  8
DEFPOINTS
  6
BYBLOCK
 62
     0
100
AcDbPoint
 10
3381.199301
 20
-2604.542274
 30
0.0
  0
ENDBLK
  5
BC
100
AcDbEntity
  8
0
100
AcDbBlockEnd
  0
BLOCK
  5
AC
100
AcDbEntity
  8
0
100
AcDbBlockBegin
  2
*D14
 70
     1
 10
0.0
 20
0.0
 30
0.0
  3
*D14
  1

  0
LINE
  5
A1
100
AcDbEntity
  8
0
  6
BYBLOCK
100
AcDbLine
 10
3430.02616
 20
-2584.542274
 30
0.0
 11
3458.066765
 21
-2584.542274
 31
0.0
  0
LINE
  5
A2
100
AcDbEntity
  8
0
  6
BYBLOCK
100
AcDbLine
 10
3401.3774
 20
-2575.663253
 30
0.0
 11
3443.133405
 21
-2542.113804
 31
0.0
  0
ARC
  5
A3
100
AcDbEntity
  8
0
  6
BYBLOCK
100
AcDbCircle
 10
3390.326475
 20
-2584.542274
 30
0.0
 40
61.740289
100
AcDbArc
 50
13.954657
 51
24.825969
  0
SOLID
  5
A4
100
AcDbEntity
  8
0
  6
BYBLOCK
100
AcDbTrace
 10
3452.726102
 20
-2569.349668
 30
0.0
 11
3447.76313
 21
-2569.957051
 31
0.0
 12
3452.066765
 22
-2584.542274
 32
0.0
 13
3452.066765
 23
-2584.542274
 33
0.0
  0
SOLID
  5
A5
100
AcDbEntity
  8
0
  6
BYBLOCK
100
AcDbTrace
 10
3444.23652
 20
-2559.937293
 30
0.0
 11
3448.485832
 21
-2557.30227
 31
0.0
 12
3438.456106
 22
-2545.871846
 32
0.0
 13
3438.456106
 23
-2545.871846
 33
0.0
  0
MTEXT
  5
A6
100
AcDbEntity
  8
0
  6
BYBLOCK
 62
     5
100
AcDbMText
 10
3463.336528
 20
-2558.84525
 30
0.0
 40
19.32
 41
0.0
 71
     5
 72
     1
  1
\A1;40°
 11
0.332002
 21
-0.943279
 31
0.0
  0
POINT
  5
A7
100
AcDbEntity
  8
DEFPOINTS
  6
BYBLOCK
 62
     0
100
AcDbPoint
 10
3450.502042
 20
-2570.73052
 30
0.0
  0
POINT
  5
A8
100
AcDbEntity
  8
DEFPOINTS
  6
BYBLOCK
 62
     0
100
AcDbPoint
 10
3399.038751
 20
-2577.542274
 30
0.0
  0
POINT
  5
A9
100
AcDbEntity
  8
DEFPOINTS
  6
BYBLOCK
 62
     0
100
AcDbPoint
 10
3390.326475
 20
-2584.542274
 30
0.0
  0
POINT
  5
AA
100
AcDbEntity
  8
DEFPOINTS
  6
BYBLOCK
 62
     0
100
AcDbPoint
 10
3427.02616
 20
-2584.542274
 30
0.0
  0
POINT
  5
AB
100
AcDbEntity
  8
DEFPOINTS
  6
BYBLOCK
 62
     0
100
AcDbPoint
 10
3390.326475
 20
-2584.542274
 30
0.0
  0
ENDBLK
  5
AD
100
AcDbEntity
  8
0
100
AcDbBlockEnd
  0
ENDSEC
  0
SECTION
  2
ENTITIES
  0
MTEXT
  5
1E
102
{ACAD_REACTORS
330
1F
102
}
100
AcDbEntity
  8
KOTY-UPLNE
 62
     5
100
AcDbMText
 10
789.572852
 20
-260.744973
 30
0.0
 40
16.5
 41
0.0
 71
     4
 72
     1
  1
\A1;R=6,5
  0
LEADER
  5
1F
100
AcDbEntity
  8
KOTY-UPLNE
100
AcDbLeader
  3
UPLNE
 73
     0
 74
     0
 75
     1
 40
19.642857
 41
64.35
 76
     3
 10
730.369141
 20
-149.884928
 30
0.0
 10
768.572852
 20
-276.566402
 30
0.0
 10
783.572852
 20
-276.566402
 30
0.0
 77
   256
340
1E
1001
ACAD
1000
DSTYLE
1002
{
1070
    40
1040
3.0
1070
   147
1040
2.0
1002
}
  0
DIMENSION
  5
20
100
AcDbEntity
  8
KOTY-UPLNE
100
AcDbDimension
  2
*D4
 10
1172.877448
 20
-361.884928
 30
0.0
 11
662.866373
 21
-346.224928
 31
0.0
 12
-2443.32739
 22
2362.657346
 32
0.0
  3
UPLNE
100
AcDbAlignedDimension
 13
152.855297
 23
-241.884928
 33
0.0
 14
1172.877448
 24
-241.884928
 34
0.0
100
AcDbRotatedDimension
1001
ACAD
1000
DSTYLE
1002
{
1070
    40
1040
3.0
1070
   147
1040
2.0
1002
}
  0
LWPOLYLINE
  5
2E
100
AcDbEntity
  8
TRAPEZ-VELKY
100
AcDbPolyline
 90
       97
 70
     0
 43
5.0
 10
147.855297
 20
-241.884928
 10
152.855297
 20
-241.884928
 10
168.03391
 20
-241.884928
 42
0.2937
 10
174.856991
 20
-237.4987
 10
181.293085
 20
-223.395554
 42
-0.116984
 10
183.276911
 20
-220.844893
 10
189.400308
 20
-215.924963
 42
0.116984
 10
191.384135
 20
-213.374302
 10
218.623265
 20
-153.686325
 42
-0.2937
 10
224.536601
 20
-149.884928
 10
267.286269
 20
-149.884928
 42
-0.131652
 10
269.786269
 20
-150.554801
 10
277.858066
 20
-155.215055
 42
0.267949
 10
282.858066
 20
-155.215055
 10
290.929863
 20
-150.554801
 42
-0.131652
 10
293.429863
 20
-149.884928
 10
336.179531
 20
-149.884928
 42
-0.2937
 10
342.092867
 20
-153.686325
 10
369.331997
 20
-213.374302
 42
0.116984
 10
371.315824
 20
-215.924963
 10
377.439221
 20
-220.844893
 42
-0.116984
 10
379.423047
 20
-223.395554
 10
385.859141
 20
-237.4987
 42
0.2937
 10
392.682222
 20
-241.884928
 10
407.860835
 20
-241.884928
 10
423.039448
 20
-241.884928
 42
0.2937
 10
429.862528
 20
-237.4987
 10
436.298623
 20
-223.395554
 42
-0.116984
 10
438.282449
 20
-220.844893
 10
444.405846
 20
-215.924963
 42
0.116984
 10
446.389672
 20
-213.374302
 10
473.628803
 20
-153.686325
 42
-0.2937
 10
479.542139
 20
-149.884928
 10
522.291807
 20
-149.884928
 42
-0.131652
 10
524.791807
 20
-150.554801
 10
532.863604
 20
-155.215055
 42
0.267949
 10
537.863604
 20
-155.215055
 10
545.935401
 20
-150.554801
 42
-0.131652
 10
548.435401
 20
-149.884928
 10
591.185069
 20
-149.884928
 42
-0.2937
 10
597.098405
 20
-153.686325
 10
624.337535
 20
-213.374302
 42
0.116984
 10
626.321361
 20
-215.924963
 10
632.444759
 20
-220.844893
 42
-0.116984
 10
634.428585
 20
-223.395554
 10
640.864679
 20
-237.4987
 42
0.2937
 10
647.687759
 20
-241.884928
 10
662.866373
 20
-241.884928
 10
678.044986
 20
-241.884928
 42
0.2937
 10
684.868066
 20
-237.4987
 10
691.30416
 20
-223.395554
 42
-0.116984
 10
693.287987
 20
-220.844893
 10
699.411384
 20
-215.924963
 42
0.116984
 10
701.39521
 20
-213.374302
 10
728.634341
 20
-153.686325
 42
-0.2937
 10
734.547677
 20
-149.884928
 10
777.297345
 20
-149.884928
 42
-0.131652
 10
779.797345
 20
-150.554801
 10
787.869141
 20
-155.215055
 42
0.267949
 10
792.869141
 20
-155.215055
 10
800.940938
 20
-150.554801
 42
-0.131652
 10
803.440938
 20
-149.884928
 10
846.190606
 20
-149.884928
 42
-0.2937
 10
852.103942
 20
-153.686325
 10
879.343073
 20
-213.374302
 42
0.116984
 10
881.326899
 20
-215.924963
 10
887.450296
 20
-220.844893
 42
-0.116984
 10
889.434123
 20
-223.395554
 10
895.870217
 20
-237.4987
 42
0.2937
 10
902.693297
 20
-241.884928
 10
917.87191
 20
-241.884928
 10
933.050524
 20
-241.884928
 42
0.2937
 10
939.873604
 20
-237.4987
 10
946.309698
 20
-223.395554
 42
-0.116984
 10
948.293524
 20
-220.844893
 10
954.416922
 20
-215.924963
 42
0.116984
 10
956.400748
 20
-213.374302
 10
983.639878
 20
-153.686325
 42
-0.2937
 10
989.553214
 20
-149.884928
 10
1032.302882
 20
-149.884928
 42
-0.131652
 10
1034.802882
 20
-150.554801
 10
1042.874679
 20
-155.215055
 42
0.267949
 10
1047.874679
 20
-155.215055
 10
1055.946476
 20
-150.554801
 42
-0.131652
 10
1058.446476
 20
-149.884928
 10
1101.196144
 20
-149.884928
 42
-0.2937
 10
1107.10948
 20
-153.686325
 10
1134.348611
 20
-213.374302
 42
0.116984
 10
1136.332437
 20
-215.924963
 10
1142.455834
 20
-220.844893
 42
-0.116984
 10
1144.43966
 20
-223.395554
 10
1150.875755
 20
-237.4987
 42
0.2937
 10
1157.698835
 20
-241.884928
 10
1172.877448
 20
-241.884928
 10
1188.056061
 20
-241.884928
 42
0.2937
 10
1194.879141
 20
-237.4987
 10
1197.441036
 20
-231.884928
  0
MTEXT
  5
30
100
AcDbEntity
  8
POPIS
100
AcDbMText
 10
661.730741
 20
-42.124031
 30
0.0
 40
40.0
 41
1.0
 71
     5
 72
     1
  1
TR 94/255
  7
STYLE1
  0
LWPOLYLINE
  5
33
100
AcDbEntity
  8
RAMEC
100
AcDbPolyline
 90
        4
 70
     1
 43
0.0
 10
0.0
 20
0.0
 10
0.0
 20
-411.001233
 10
1349.672502
 20
-411.001233
 10
1349.672502
 20
0.0
  0
MTEXT
  5
35
102
{ACAD_REACTORS
330
36
102
}
100
AcDbEntity
  8
KOTY-UPLNE
 62
     5
100
AcDbMText
 10
679.230834
 20
-109.860863
 30
0.0
 40
16.5
 41
0.0
 71
     4
 72
     1
  1
\A1;R=7,5
  0
LEADER
  5
36
100
AcDbEntity
  8
KOTY-UPLNE
100
AcDbLeader
  3
UPLNE
 73
     0
 74
     0
 75
     1
 40
19.642857
 41
64.35
 76
     3
 10
642.866373
 20
-241.884928
 30
0.0
 10
658.230834
 20
-125.682291
 30
0.0
 10
673.230834
 20
-125.682291
 30
0.0
 77
   256
340
35
1001
ACAD
1000
DSTYLE
1002
{
1070
    40
1040
3.0
1070
   147
1040
2.0
1002
}
  0
DIMENSION
  5
37
100
AcDbEntity
  8
KOTY-UPLNE
100
AcDbDimension
  2
*D9
 10
490.411966
 20
-104.819229
 30
0.0
 11
499.196868
 21
-91.614662
 31
0.0
 12
-2443.32739
 22
2362.657346
 32
0.0
 70
     1
  3
UPLNE
100
AcDbAlignedDimension
 13
445.700285
 23
-214.884928
 33
0.0
 14
441.133595
 24
-212.800879
 34
0.0
1001
ACAD
1000
DSTYLE
1002
{
1070
    40
1040
3.0
1070
   147
1040
2.0
1002
}
  0
DIMENSION
  5
46
100
AcDbEntity
  8
KOTY-UPLNE
100
AcDbDimension
  2
*D2
 10
387.860835
 20
-111.074478
 30
0.0
 11
364.10945
 21
-93.574478
 31
0.0
 12
-2443.32739
 22
2362.657346
 32
0.0
  1
47,5
  3
UPLNE
100
AcDbAlignedDimension
 13
340.358066
 23
-149.884928
 33
0.0
 14
387.860835
 24
-241.884928
 34
0.0
100
AcDbRotatedDimension
1001
ACAD
1000
DSTYLE
1002
{
1070
    40
1040
3.0
1070
   147
1040
2.0
1002
}
  0
DIMENSION
  5
55
100
AcDbEntity
  8
KOTY-UPLNE
100
AcDbDimension
  2
*D0
 10
220.358066
 20
-111.074478
 30
0.0
 11
196.606682
 21
-93.574478
 31
0.0
 12
-2443.32739
 22
2362.657346
 32
0.0
  1
47,5
  3
UPLNE
100
AcDbAlignedDimension
 13
172.855297
 23
-241.884928
 33
0.0
 14
220.358066
 24
-149.884928
 34
0.0
100
AcDbRotatedDimension
1001
ACAD
1000
DSTYLE
1002
{
1070
    40
1040
3.0
1070
   147
1040
2.0
1002
}
  0
DIMENSION
  5
64
100
AcDbEntity
  8
KOTY-UPLNE
100
AcDbDimension
  2
*D3
 10
152.855297
 20
-301.884928
 30
0.0
 11
280.358066
 21
-286.224928
 31
0.0
 12
-2443.32739
 22
2362.657346
 32
0.0
  3
UPLNE
100
AcDbAlignedDimension
 13
407.860835
 23
-241.884928
 33
0.0
 14
152.855297
 24
-241.884928
 34
0.0
100
AcDbRotatedDimension
1001
ACAD
1000
DSTYLE
1002
{
1070
    40
1040
3.0
1070
   147
1040
2.0
1002
}
  0
MTEXT
  5
71
102
{ACAD_REACTORS
330
72
102
}
100
AcDbEntity
  8
KOTY-UPLNE
 62
     5
100
AcDbMText
 10
571.807207
 20
-269.826366
 30
0.0
 40
16.5
 41
0.0
 71
     6
 72
     1
  1
\A1;R=7
  0
LEADER
  5
72
100
AcDbEntity
  8
KOTY-UPLNE
100
AcDbLeader
  3
UPLNE
 73
     0
 75
     1
 40
16.5
 41
43.135714
 76
     3
 10
633.739198
 20
-221.884928
 30
0.0
 10
592.807207
 20
-284.076366
 30
0.0
 10
577.807207
 20
-284.076366
 30
0.0
 77
   256
340
71
1001
ACAD
1000
DSTYLE
1002
{
1070
    40
1040
3.0
1070
   147
1040
2.0
1002
}
  0
DIMENSION
  5
73
100
AcDbEntity
  8
KOTY-UPLNE
100
AcDbDimension
  2
*D10
 10
642.866373
 20
-301.884928
 30
0.0
 11
662.866373
 21
-286.224928
 31
0.0
 12
-2443.32739
 22
2362.657346
 32
0.0
  3
UPLNE
100
AcDbAlignedDimension
 13
682.866373
 23
-241.884928
 33
0.0
 14
642.866373
 24
-241.884928
 34
0.0
100
AcDbRotatedDimension
1001
ACAD
1000
DSTYLE
1002
{
1070
    40
1040
3.0
1070
   147
1040
2.0
1002
}
  0
DIMENSION
  5
82
100
AcDbEntity
  8
KOTY-UPLNE
100
AcDbDimension
  2
*D11
 10
423.502044
 20
-149.884928
 30
0.0
 11
407.752044
 21
-172.757382
 31
0.0
 12
-2443.32739
 22
2362.657346
 32
0.0
 70
   128
  3
UPLNE
100
AcDbAlignedDimension
 13
280.358066
 23
-155.884928
 33
0.0
 14
340.358066
 24
-149.884928
 34
0.0
 50
90.0
100
AcDbRotatedDimension
1001
ACAD
1000
DSTYLE
1002
{
1070
    40
1040
3.0
1070
   147
1040
2.0
1002
}
  0
DIMENSION
  5
92
100
AcDbEntity
  8
KOTY-UPLNE
100
AcDbDimension
  2
*D1
 10
340.358066
 20
-111.074478
 30
0.0
 11
280.358066
 21
-95.414478
 31
0.0
 12
-2443.32739
 22
2362.657346
 32
0.0
  3
UPLNE
100
AcDbAlignedDimension
 13
220.358066
 23
-149.884928
 33
0.0
 14
340.358066
 24
-149.884928
 34
0.0
100
AcDbRotatedDimension
1001
ACAD
1000
DSTYLE
1002
{
1070
    40
1040
3.0
1070
   147
1040
2.0
1002
}
  0
DIMENSION
  5
9F
100
AcDbEntity
  8
KOTY-UPLNE
100
AcDbDimension
  2
*D14
 10
946.999085
 20
-221.884928
 30
0.0
 11
1020.009138
 21
-196.187904
 31
0.0
 12
-2443.32739
 22
2362.657346
 32
0.0
 70
     2
  1
40%%D
  3
UPLNE
100
AcDb2LineAngularDimension
 13
946.999085
 23
-221.884928
 33
0.0
 14
983.69877
 24
-221.884928
 34
0.0
 15
955.711361
 25
-214.884928
 35
0.0
 16
1007.174652
 26
-208.073174
 36
0.0
1001
ACAD
1000
DSTYLE
1002
{
1070
    40
1040
3.0
1070
   147
1040
2.0
1002
}
  0
DIMENSION
  5
AE
100
AcDbEntity
  8
KOTY-UPLNE
100
AcDbDimension
  2
*D13
 10
937.87191
 20
-241.884928
 30
0.0
 11
1095.538092
 21
-201.840016
 31
0.0
 12
-2443.32739
 22
2362.657346
 32
0.0
 70
   130
  1
65,47%%D
  3
UPLNE
100
AcDb2LineAngularDimension
 13
937.87191
 23
-241.884928
 33
0.0
 14
917.87191
 24
-241.884928
 34
0.0
 15
946.999085
 25
-221.884928
 35
0.0
 16
1042.083101
 26
-142.483976
 36
0.0
1001
ACAD
1000
DSTYLE
1002
{
1070
    40
1040
3.0
1070
   147
1040
2.0
1002
}
  0
MTEXT
  5
BD
102
{ACAD_REACTORS
330
BE
102
}
100
AcDbEntity
  8
KOTY-UPLNE
 62
     5
100
AcDbMText
 10
820.624065
 20
-209.756242
 30
0.0
 40
16.5
 41
0.0
 71
     6
 72
     1
  1
\A1;R=5
  0
LEADER
  5
BE
100
AcDbEntity
  8
KOTY-UPLNE
100
AcDbLeader
  3
UPLNE
 73
     0
 75
     1
 40
16.5
 41
43.135714
 76
     3
 10
802.101192
 20
-149.884928
 30
0.0
 10
841.624065
 20
-224.006242
 30
0.0
 10
826.624065
 20
-224.006242
 30
0.0
 77
   256
340
BD
1001
ACAD
1000
DSTYLE
1002
{
1070
    40
1040
3.0
1070
   147
1040
2.0
1002
}
  0
DIMENSION
  5
BF
100
AcDbEntity
  8
KOTY-UPLNE
100
AcDbDimension
  2
*D8
 10
1290.006336
 20
-241.884928
 30
0.0
 11
1274.346336
 21
-195.884928
 31
0.0
 12
-2443.32739
 22
2362.657346
 32
0.0
  3
UPLNE
100
AcDbAlignedDimension
 13
1108.374679
 23
-149.884928
 33
0.0
 14
1192.877448
 24
-241.884928
 34
0.0
 50
90.0
100
AcDbRotatedDimension
1001
ACAD
1000
DSTYLE
1002
{
1070
    40
1040
3.0
1070
   147
1040
2.0
1002
}
  0
DIMENSION
  5
CC
100
AcDbEntity
  8
KOTY-UPLNE
100
AcDbDimension
  2
*D7
 10
1223.060158
 20
-241.884928
 30
0.0
 11
1207.310158
 21
-261.533575
 31
0.0
 12
-2443.32739
 22
2362.657346
 32
0.0
 70
   128
  3
UPLNE
100
AcDbAlignedDimension
 13
1143.750273
 23
-221.884928
 33
0.0
 14
1192.877448
 24
-241.884928
 34
0.0
 50
90.0
100
AcDbRotatedDimension
1001
ACAD
1000
DSTYLE
1002
{
1070
    40
1040
3.0
1070
   147
1040
2.0
1002
}
  0
DIMENSION
  5
DC
100
AcDbEntity
  8
KOTY-UPLNE
100
AcDbDimension
  2
*D6
 10
1223.060158
 20
-221.884928
 30
0.0
 11
1242.95043
 21
-218.384928
 31
0.0
 12
-2443.32739
 22
2362.657346
 32
0.0
 70
   128
  3
UPLNE
100
AcDbAlignedDimension
 13
1135.037998
 23
-214.884928
 33
0.0
 14
1143.750273
 24
-221.884928
 34
0.0
 50
90.0
100
AcDbRotatedDimension
1001
ACAD
1000
DSTYLE
1002
{
1070
    40
1040
3.0
1070
   147
1040
2.0
1002
}
  0
DIMENSION
  5
EC
100
AcDbEntity
  8
KOTY-UPLNE
100
AcDbDimension
  2
*D5
 10
1223.060158
 20
-214.884928
 30
0.0
 11
1207.400158
 21
-182.384928
 31
0.0
 12
-2443.32739
 22
2362.657346
 32
0.0
  3
UPLNE
100
AcDbAlignedDimension
 13
1105.374679
 23
-149.884928
 33
0.0
 14
1135.037998
 24
-214.884928
 34
0.0
 50
90.0
100
AcDbRotatedDimension
1001
ACAD
1000
DSTYLE
1002
{
1070
    40
1040
3.0
1070
   147
1040
2.0
1002
}
  0
LINE
  5
F9
100
AcDbEntity
  8
KOTY-UPLNE
100
AcDbLine
 10
946.999085
 20
-221.884928
 30
0.0
 11
983.69877
 21
-221.884928
 31
0.0
  0
MTEXT
  5
FA
100
AcDbEntity
  8
POZICE
100
AcDbMText
 10
914.612463
 20
-291.119584
 30
0.0
 40
41.73
 41
1.0
 71
     5
 72
     1
  1
B
  7
STYLE1
  0
MTEXT
  5
FC
102
{ACAD_REACTORS
330
FD
102
}
100
AcDbEntity
  8
KOTY-UPLNE
 62
     5
100
AcDbMText
 10
810.164683
 20
-97.146907
 30
0.0
 40
16.5
 41
0.0
 71
     4
 72
     1
  1
\A1;R=5
  0
LEADER
  5
FD
100
AcDbEntity
  8
KOTY-UPLNE
100
AcDbLeader
  3
UPLNE
 73
     0
 74
     0
 75
     1
 40
16.5
 41
43.135714
 76
     3
 10
792.869141
 20
-155.215055
 30
0.0
 10
789.164683
 20
-111.396907
 30
0.0
 10
804.164683
 20
-111.396907
 30
0.0
 77
   256
340
FC
1001
ACAD
1000
DSTYLE
1002
{
1070
    40
1040
3.0
1070
   147
1040
2.0
1002
}
  0
MTEXT
  5
FE
100
AcDbEntity
  8
POZICE
100
AcDbMText
 10
916.975637
 20
-150.12886
 30
0.0
 40
41.73
 41
1.0
 71
     5
 72
     1
  1
A
  7
STYLE1
  0
DIMENSION
  5
FF
100
AcDbEntity
  8
KOTY-UPLNE
100
AcDbDimension
  2
*D12
 10
1047.874679
 20
-155.215055
 30
0.0
 11
1145.213207
 21
-126.276869
 31
0.0
 12
-2443.32739
 22
2362.657346
 32
0.0
 70
     2
  3
UPLNE
100
AcDb2LineAngularDimension
 13
1105.374679
 23
-149.884928
 33
0.0
 14
1057.10673
 24
-149.884928
 34
0.0
 15
1057.10673
 25
-149.884928
 35
0.0
 16
1131.513424
 26
-136.76502
 36
0.0
1001
ACAD
1000
DSTYLE
1002
{
1070
    40
1040
3.0
1070
   147
1040
2.0
1002
}
  0
ENDSEC
  0
SECTION
  2
OBJECTS
  0
DICTIONARY
  5
1A
100
AcDbDictionary
  3
ACAD_GROUP
350
18
  3
ACAD_MLINESTYLE
350
19
  0
DICTIONARY
  5
18
102
{ACAD_REACTORS
330
1A
102
}
100
AcDbDictionary
  0
DICTIONARY
  5
19
102
{ACAD_REACTORS
330
1A
102
}
100
AcDbDictionary
  3
STANDARD
350
1C
  0
MLINESTYLE
  5
1C
102
{ACAD_REACTORS
330
19
102
}
100
AcDbMlineStyle
  2
STANDARD
 70
     0
  3

 62
   256
 51
90.0
 52
90.0
 71
     2
 49
0.5
 62
   256
  6
BYLAYER
 49
-0.5
 62
   256
  6
BYLAYER
  0
ENDSEC
  0
EOF
