  0
SECTION
  2
HEADER
  9
$ACADVER
  1
AC1014
  9
$ACADMAINTVER
 70
     0
  9
$DWGCODEPAGE
  3
ANSI_1250
  9
$INSBASE
 10
0.0
 20
0.0
 30
0.0
  9
$EXTMIN
 10
0.0
 20
-461.501233
 30
0.0
  9
$EXTMAX
 10
1349.672502
 20
0.0
 30
0.0
  9
$LIMMIN
 10
-1000.0
 20
-1000.0
  9
$LIMMAX
 10
1000.0
 20
1000.0
  9
$ORTHOMODE
 70
     0
  9
$REGENMODE
 70
     1
  9
$FILLMODE
 70
     1
  9
$QTEXTMODE
 70
     0
  9
$MIRRTEXT
 70
     0
  9
$DRAGMODE
 70
     2
  9
$LTSCALE
 40
3.0
  9
$OSMODE
 70
    32
  9
$ATTMODE
 70
     1
  9
$TEXTSIZE
 40
50.0
  9
$TRACEWID
 40
0.05
  9
$TEXTSTYLE
  7
STANDARD
  9
$CLAYER
  8
KOTY-UPLNE
  9
$CELTYPE
  6
BYLAYER
  9
$CECOLOR
 62
   256
  9
$CELTSCALE
 40
1.0
  9
$DELOBJ
 70
     1
  9
$DISPSILH
 70
     0
  9
$DIMSCALE
 40
3.0
  9
$DIMASZ
 40
5.0
  9
$DIMEXO
 40
1.0
  9
$DIMDLI
 40
0.0
  9
$DIMRND
 40
1.0
  9
$DIMDLE
 40
1.0
  9
$DIMEXE
 40
2.0
  9
$DIMTP
 40
0.0
  9
$DIMTM
 40
0.0
  9
$DIMTXT
 40
6.44
  9
$DIMCEN
 40
1.0
  9
$DIMTSZ
 40
0.0
  9
$DIMTOL
 70
     0
  9
$DIMLIM
 70
     0
  9
$DIMTIH
 70
     0
  9
$DIMTOH
 70
     0
  9
$DIMSE1
 70
     0
  9
$DIMSE2
 70
     0
  9
$DIMTAD
 70
     3
  9
$DIMZIN
 70
     0
  9
$DIMBLK
  1

  9
$DIMASO
 70
     1
  9
$DIMSHO
 70
     0
  9
$DIMPOST
  1

  9
$DIMAPOST
  1

  9
$DIMALT
 70
     0
  9
$DIMALTD
 70
     2
  9
$DIMALTF
 40
25.4
  9
$DIMLFAC
 40
1.0
  9
$DIMTOFL
 70
     1
  9
$DIMTVP
 40
0.0
  9
$DIMTIX
 70
     1
  9
$DIMSOXD
 70
     0
  9
$DIMSAH
 70
     0
  9
$DIMBLK1
  1

  9
$DIMBLK2
  1

  9
$DIMSTYLE
  2
UPLNE
  9
$DIMCLRD
 70
   256
  9
$DIMCLRE
 70
   256
  9
$DIMCLRT
 70
     5
  9
$DIMTFAC
 40
1.0
  9
$DIMGAP
 40
2.0
  9
$DIMJUST
 70
     0
  9
$DIMSD1
 70
     0
  9
$DIMSD2
 70
     0
  9
$DIMTOLJ
 70
     1
  9
$DIMTZIN
 70
     0
  9
$DIMALTZ
 70
     0
  9
$DIMALTTZ
 70
     0
  9
$DIMFIT
 70
     5
  9
$DIMUPT
 70
     0
  9
$DIMUNIT
 70
     2
  9
$DIMDEC
 70
     0
  9
$DIMTDEC
 70
     0
  9
$DIMALTU
 70
     2
  9
$DIMALTTD
 70
     2
  9
$DIMTXSTY
  7
STANDARD
  9
$DIMAUNIT
 70
     0
  9
$LUNITS
 70
     2
  9
$LUPREC
 70
     2
  9
$SKETCHINC
 40
0.1
  9
$FILLETRAD
 40
5.0
  9
$AUNITS
 70
     0
  9
$AUPREC
 70
     2
  9
$MENU
  1
acad
  9
$ELEVATION
 40
0.0
  9
$PELEVATION
 40
0.0
  9
$THICKNESS
 40
0.0
  9
$LIMCHECK
 70
     0
  9
$BLIPMODE
 70
     1
  9
$CHAMFERA
 40
0.0
  9
$CHAMFERB
 40
0.0
  9
$CHAMFERC
 40
0.0
  9
$CHAMFERD
 40
0.0
  9
$SKPOLY
 70
     0
  9
$TDCREATE
 40
2448722.252204629
  9
$TDUPDATE
 40
2452465.893529629
  9
$TDINDWG
 40
2.5235630787
  9
$TDUSRTIMER
 40
2.5235630787
  9
$USRTIMER
 70
     1
  9
$ANGBASE
 50
0.0
  9
$ANGDIR
 70
     0
  9
$PDMODE
 70
     0
  9
$PDSIZE
 40
0.0
  9
$PLINEWID
 40
0.0
  9
$COORDS
 70
     2
  9
$SPLFRAME
 70
     0
  9
$SPLINETYPE
 70
     6
  9
$SPLINESEGS
 70
     8
  9
$ATTDIA
 70
     0
  9
$ATTREQ
 70
     1
  9
$HANDLING
 70
     1
  9
$HANDSEED
  5
10A
  9
$SURFTAB1
 70
     6
  9
$SURFTAB2
 70
     6
  9
$SURFTYPE
 70
     6
  9
$SURFU
 70
     6
  9
$SURFV
 70
     6
  9
$UCSNAME
  2

  9
$UCSORG
 10
0.0
 20
0.0
 30
0.0
  9
$UCSXDIR
 10
1.0
 20
0.0
 30
0.0
  9
$UCSYDIR
 10
0.0
 20
1.0
 30
0.0
  9
$PUCSNAME
  2

  9
$PUCSORG
 10
0.0
 20
0.0
 30
0.0
  9
$PUCSXDIR
 10
1.0
 20
0.0
 30
0.0
  9
$PUCSYDIR
 10
0.0
 20
1.0
 30
0.0
  9
$USERI1
 70
     1
  9
$USERI2
 70
     0
  9
$USERI3
 70
     0
  9
$USERI4
 70
     0
  9
$USERI5
 70
     0
  9
$USERR1
 40
0.0
  9
$USERR2
 40
0.0
  9
$USERR3
 40
0.0
  9
$USERR4
 40
0.0
  9
$USERR5
 40
0.0
  9
$WORLDVIEW
 70
     1
  9
$SHADEDGE
 70
     3
  9
$SHADEDIF
 70
    70
  9
$TILEMODE
 70
     1
  9
$MAXACTVP
 70
    16
  9
$PINSBASE
 10
0.0
 20
0.0
 30
0.0
  9
$PLIMCHECK
 70
     0
  9
$PEXTMIN
 10
1.000000E+20
 20
1.000000E+20
 30
1.000000E+20
  9
$PEXTMAX
 10
-1.000000E+20
 20
-1.000000E+20
 30
-1.000000E+20
  9
$PLIMMIN
 10
0.0
 20
0.0
  9
$PLIMMAX
 10
12.0
 20
9.0
  9
$UNITMODE
 70
     0
  9
$VISRETAIN
 70
     0
  9
$PLINEGEN
 70
     0
  9
$PSLTSCALE
 70
     0
  9
$TREEDEPTH
 70
  3020
  9
$PICKSTYLE
 70
     0
  9
$CMLSTYLE
  2
STANDARD
  9
$CMLJUST
 70
     0
  9
$CMLSCALE
 40
1.0
  9
$PROXYGRAPHICS
 70
     1
  9
$MEASUREMENT
 70
     0
  0
ENDSEC
  0
SECTION
  2
CLASSES
  0
CLASS
  1
LWPOLYLINE
  2
AcDbPolyline
  3
"AutoCAD"
 90
        0
280
     0
281
     1
  0
CLASS
  1
DICTIONARYVAR
  2
AcDbDictionaryVar
  3
"AutoCAD"
 90
        0
280
     0
281
     0
  0
ENDSEC
  0
SECTION
  2
TABLES
  0
TABLE
  2
VPORT
  5
12
100
AcDbSymbolTable
 70
     2
  0
VPORT
  5
109
100
AcDbSymbolTableRecord
100
AcDbViewportTableRecord
  2
*ACTIVE
 70
     0
 10
0.0
 20
0.0
 11
1.0
 21
1.0
 12
731.795475
 22
-212.079064
 13
0.0
 23
0.0
 14
1.0
 24
1.0
 15
600.0
 25
600.0
 16
0.0
 26
0.0
 36
1.0
 17
0.0
 27
0.0
 37
0.0
 40
772.769376
 41
2.224444
 42
50.0
 43
0.0
 44
0.0
 50
0.0
 51
0.0
 71
     0
 72
   100
 73
     1
 74
     0
 75
     0
 76
     0
 77
     0
 78
     0
  0
ENDTAB
  0
TABLE
  2
LTYPE
  5
D
100
AcDbSymbolTable
 70
     1
  0
LTYPE
  5
E
100
AcDbSymbolTableRecord
100
AcDbLinetypeTableRecord
  2
BYBLOCK
 70
     0
  3

 72
    65
 73
     0
 40
0.0
  0
LTYPE
  5
F
100
AcDbSymbolTableRecord
100
AcDbLinetypeTableRecord
  2
BYLAYER
 70
     0
  3

 72
    65
 73
     0
 40
0.0
  0
LTYPE
  5
5
100
AcDbSymbolTableRecord
100
AcDbLinetypeTableRecord
  2
CONTINUOUS
 70
     0
  3
Solid line
 72
    65
 73
     0
 40
0.0
  0
ENDTAB
  0
TABLE
  2
LAYER
  5
A
100
AcDbSymbolTable
 70
     7
  0
LAYER
  5
4
100
AcDbSymbolTableRecord
100
AcDbLayerTableRecord
  2
0
 70
     0
 62
     7
  6
CONTINUOUS
  0
LAYER
  5
1B
100
AcDbSymbolTableRecord
100
AcDbLayerTableRecord
  2
KOTY-UPLNE
 70
     0
 62
     7
  6
CONTINUOUS
  0
LAYER
  5
4E
100
AcDbSymbolTableRecord
100
AcDbLayerTableRecord
  2
RAMEC
 70
     0
 62
     5
  6
CONTINUOUS
  0
LAYER
  5
AA
100
AcDbSymbolTableRecord
100
AcDbLayerTableRecord
  2
POZICE
 70
     0
 62
     1
  6
CONTINUOUS
  0
LAYER
  5
50
100
AcDbSymbolTableRecord
100
AcDbLayerTableRecord
  2
POPIS
 70
     0
 62
     1
  6
CONTINUOUS
  0
LAYER
  5
29
100
AcDbSymbolTableRecord
100
AcDbLayerTableRecord
  2
DEFPOINTS
 70
     0
 62
     7
  6
CONTINUOUS
  0
LAYER
  5
4C
100
AcDbSymbolTableRecord
100
AcDbLayerTableRecord
  2
TRAPEZ-VELKY
 70
     0
 62
     7
  6
CONTINUOUS
  0
ENDTAB
  0
TABLE
  2
STYLE
  5
B
100
AcDbSymbolTable
 70
     2
  0
STYLE
  5
C
100
AcDbSymbolTableRecord
100
AcDbTextStyleTableRecord
  2
STANDARD
 70
     0
 40
0.0
 41
0.9
 50
0.0
 71
     0
 42
50.0
  3
simplex.shx
  4

  0
STYLE
  5
51
100
AcDbSymbolTableRecord
100
AcDbTextStyleTableRecord
  2
STYLE1
 70
     0
 40
0.0
 41
0.9
 50
0.0
 71
     0
 42
50.0
  3
simplex.shx
  4

  0
ENDTAB
  0
TABLE
  2
VIEW
  5
10
100
AcDbSymbolTable
 70
     0
  0
ENDTAB
  0
TABLE
  2
UCS
  5
11
100
AcDbSymbolTable
 70
     0
  0
ENDTAB
  0
TABLE
  2
APPID
  5
14
100
AcDbSymbolTable
 70
     1
  0
APPID
  5
15
100
AcDbSymbolTableRecord
100
AcDbRegAppTableRecord
  2
ACAD
 70
     0
  0
ENDTAB
  0
TABLE
  2
DIMSTYLE
  5
16
100
AcDbSymbolTable
 70
     1
  0
DIMSTYLE
105
1D
102
{ACAD_REACTORS
330
6E
330
3D
330
7B
330
61
330
52
330
8A
330
99
330
2E
330
1E
330
AB
330
DA
330
F9
330
E9
330
C9
330
BA
102
}
100
AcDbSymbolTableRecord
100
AcDbDimStyleTableRecord
  2
UPLNE
 70
     0
  3

  4

  5

  6

  7

 40
5.0
 41
5.0
 42
1.0
 43
0.0
 44
2.0
 45
1.0
 46
1.0
 47
0.0
 48
0.0
140
6.44
141
1.0
142
0.0
143
25.4
144
1.0
145
0.0
146
1.0
147
1.0
 71
     0
 72
     0
 73
     0
 74
     0
 75
     0
 76
     0
 77
     3
 78
     0
170
     0
171
     2
172
     1
173
     0
174
     1
175
     0
176
   256
177
   256
178
     5
270
     2
271
     0
272
     0
273
     2
274
     2
340
C
275
     0
280
     0
281
     0
282
     0
283
     1
284
     0
285
     0
286
     0
287
     5
288
     0
  0
ENDTAB
  0
TABLE
  2
BLOCK_RECORD
  5
1
100
AcDbSymbolTable
 70
    15
  0
BLOCK_RECORD
  5
2
100
AcDbSymbolTableRecord
100
AcDbBlockTableRecord
  2
*MODEL_SPACE
  0
BLOCK_RECORD
  5
7
100
AcDbSymbolTableRecord
100
AcDbBlockTableRecord
  2
*PAPER_SPACE
  0
BLOCK_RECORD
  5
6F
100
AcDbSymbolTableRecord
100
AcDbBlockTableRecord
  2
*D0
  0
BLOCK_RECORD
  5
3E
100
AcDbSymbolTableRecord
100
AcDbBlockTableRecord
  2
*D1
  0
BLOCK_RECORD
  5
7C
100
AcDbSymbolTableRecord
100
AcDbBlockTableRecord
  2
*D2
  0
BLOCK_RECORD
  5
62
100
AcDbSymbolTableRecord
100
AcDbBlockTableRecord
  2
*D3
  0
BLOCK_RECORD
  5
53
100
AcDbSymbolTableRecord
100
AcDbBlockTableRecord
  2
*D4
  0
BLOCK_RECORD
  5
8B
100
AcDbSymbolTableRecord
100
AcDbBlockTableRecord
  2
*D5
  0
BLOCK_RECORD
  5
9A
100
AcDbSymbolTableRecord
100
AcDbBlockTableRecord
  2
*D6
  0
BLOCK_RECORD
  5
2F
100
AcDbSymbolTableRecord
100
AcDbBlockTableRecord
  2
*D7
  0
BLOCK_RECORD
  5
1F
100
AcDbSymbolTableRecord
100
AcDbBlockTableRecord
  2
*D8
  0
BLOCK_RECORD
  5
AC
100
AcDbSymbolTableRecord
100
AcDbBlockTableRecord
  2
*D9
  0
BLOCK_RECORD
  5
DB
100
AcDbSymbolTableRecord
100
AcDbBlockTableRecord
  2
*D10
  0
BLOCK_RECORD
  5
FA
100
AcDbSymbolTableRecord
100
AcDbBlockTableRecord
  2
*D11
  0
BLOCK_RECORD
  5
EA
100
AcDbSymbolTableRecord
100
AcDbBlockTableRecord
  2
*D12
  0
BLOCK_RECORD
  5
CA
100
AcDbSymbolTableRecord
100
AcDbBlockTableRecord
  2
*D13
  0
BLOCK_RECORD
  5
BB
100
AcDbSymbolTableRecord
100
AcDbBlockTableRecord
  2
*D14
  0
ENDTAB
  0
ENDSEC
  0
SECTION
  2
BLOCKS
  0
BLOCK
  5
3
100
AcDbEntity
  8
0
100
AcDbBlockBegin
  2
*MODEL_SPACE
 70
     0
 10
0.0
 20
0.0
 30
0.0
  3
*MODEL_SPACE
  1

  0
ENDBLK
  5
6
100
AcDbEntity
  8
0
100
AcDbBlockEnd
  0
BLOCK
  5
8
100
AcDbEntity
 67
     1
  8
0
100
AcDbBlockBegin
  2
*PAPER_SPACE
 70
     0
 10
0.0
 20
0.0
 30
0.0
  3
*PAPER_SPACE
  1

  0
ENDBLK
  5
9
100
AcDbEntity
 67
     1
  8
0
100
AcDbBlockEnd
  0
BLOCK
  5
79
100
AcDbEntity
  8
0
100
AcDbBlockBegin
  2
*D0
 70
     1
 10
0.0
 20
0.0
 30
0.0
  3
*D0
  1

  0
LINE
  5
70
100
AcDbEntity
  8
0
  6
BYBLOCK
100
AcDbLine
 10
2596.182687
 20
401.957726
 30
0.0
 11
2596.182687
 21
338.957726
 31
0.0
  0
LINE
  5
71
100
AcDbEntity
  8
0
  6
BYBLOCK
100
AcDbLine
 10
2876.082687
 20
401.957726
 30
0.0
 11
2876.082687
 21
338.957726
 31
0.0
  0
LINE
  5
72
100
AcDbEntity
  8
0
  6
BYBLOCK
100
AcDbLine
 10
2611.182687
 20
344.957726
 30
0.0
 11
2861.082687
 21
344.957726
 31
0.0
  0
SOLID
  5
73
100
AcDbEntity
  8
0
  6
BYBLOCK
100
AcDbTrace
 10
2611.182687
 20
347.457726
 30
0.0
 11
2611.182687
 21
342.457726
 31
0.0
 12
2596.182687
 22
344.957726
 32
0.0
 13
2596.182687
 23
344.957726
 33
0.0
  0
SOLID
  5
74
100
AcDbEntity
  8
0
  6
BYBLOCK
100
AcDbTrace
 10
2861.082687
 20
347.457726
 30
0.0
 11
2861.082687
 21
342.457726
 31
0.0
 12
2876.082687
 22
344.957726
 32
0.0
 13
2876.082687
 23
344.957726
 33
0.0
  0
MTEXT
  5
75
100
AcDbEntity
  8
0
  6
BYBLOCK
 62
     5
100
AcDbMText
 10
2736.132687
 20
360.617726
 30
0.0
 40
19.32
 41
0.0
 71
     5
 72
     1
  1
\A1;280
  0
POINT
  5
76
100
AcDbEntity
  8
DEFPOINTS
  6
BYBLOCK
 62
     0
100
AcDbPoint
 10
2596.182687
 20
404.957726
 30
0.0
  0
POINT
  5
77
100
AcDbEntity
  8
DEFPOINTS
  6
BYBLOCK
 62
     0
100
AcDbPoint
 10
2876.082687
 20
404.957726
 30
0.0
  0
POINT
  5
78
100
AcDbEntity
  8
DEFPOINTS
  6
BYBLOCK
 62
     0
100
AcDbPoint
 10
2876.082687
 20
344.957726
 30
0.0
  0
ENDBLK
  5
7A
100
AcDbEntity
  8
0
100
AcDbBlockEnd
  0
BLOCK
  5
48
100
AcDbEntity
  8
0
100
AcDbBlockBegin
  2
*D1
 70
     1
 10
0.0
 20
0.0
 30
0.0
  3
*D1
  1

  0
LINE
  5
3F
100
AcDbEntity
  8
0
  6
BYBLOCK
100
AcDbLine
 10
2596.182687
 20
401.957726
 30
0.0
 11
2596.182687
 21
278.957726
 31
0.0
  0
LINE
  5
40
100
AcDbEntity
  8
0
  6
BYBLOCK
100
AcDbLine
 10
3715.782687
 20
401.957726
 30
0.0
 11
3715.782687
 21
278.957726
 31
0.0
  0
LINE
  5
41
100
AcDbEntity
  8
0
  6
BYBLOCK
100
AcDbLine
 10
2611.182687
 20
284.957726
 30
0.0
 11
3700.782687
 21
284.957726
 31
0.0
  0
SOLID
  5
42
100
AcDbEntity
  8
0
  6
BYBLOCK
100
AcDbTrace
 10
2611.182687
 20
287.457726
 30
0.0
 11
2611.182687
 21
282.457726
 31
0.0
 12
2596.182687
 22
284.957726
 32
0.0
 13
2596.182687
 23
284.957726
 33
0.0
  0
SOLID
  5
43
100
AcDbEntity
  8
0
  6
BYBLOCK
100
AcDbTrace
 10
3700.782687
 20
287.457726
 30
0.0
 11
3700.782687
 21
282.457726
 31
0.0
 12
3715.782687
 22
284.957726
 32
0.0
 13
3715.782687
 23
284.957726
 33
0.0
  0
MTEXT
  5
44
100
AcDbEntity
  8
0
  6
BYBLOCK
 62
     5
100
AcDbMText
 10
3155.982687
 20
300.617726
 30
0.0
 40
19.32
 41
0.0
 71
     5
 72
     1
  1
\A1;1120
  0
POINT
  5
45
100
AcDbEntity
  8
DEFPOINTS
  6
BYBLOCK
 62
     0
100
AcDbPoint
 10
2596.182687
 20
404.957726
 30
0.0
  0
POINT
  5
46
100
AcDbEntity
  8
DEFPOINTS
  6
BYBLOCK
 62
     0
100
AcDbPoint
 10
3715.782687
 20
404.957726
 30
0.0
  0
POINT
  5
47
100
AcDbEntity
  8
DEFPOINTS
  6
BYBLOCK
 62
     0
100
AcDbPoint
 10
3715.782687
 20
284.957726
 30
0.0
  0
ENDBLK
  5
49
100
AcDbEntity
  8
0
100
AcDbBlockEnd
  0
BLOCK
  5
88
100
AcDbEntity
  8
0
100
AcDbBlockBegin
  2
*D2
 70
     1
 10
0.0
 20
0.0
 30
0.0
  3
*D2
  1

  0
LINE
  5
7D
100
AcDbEntity
  8
0
  6
BYBLOCK
100
AcDbLine
 10
2616.182687
 20
407.957726
 30
0.0
 11
2616.182687
 21
542.268176
 31
0.0
  0
LINE
  5
7E
100
AcDbEntity
  8
0
  6
BYBLOCK
100
AcDbLine
 10
2676.632687
 20
490.457726
 30
0.0
 11
2676.632687
 21
542.268176
 31
0.0
  0
LINE
  5
7F
100
AcDbEntity
  8
0
  6
BYBLOCK
100
AcDbLine
 10
2601.182687
 20
536.268176
 30
0.0
 11
2586.182687
 21
536.268176
 31
0.0
  0
LINE
  5
80
100
AcDbEntity
  8
0
  6
BYBLOCK
100
AcDbLine
 10
2691.632687
 20
536.268176
 30
0.0
 11
2706.632687
 21
536.268176
 31
0.0
  0
LINE
  5
81
100
AcDbEntity
  8
0
  6
BYBLOCK
100
AcDbLine
 10
2616.182687
 20
536.268176
 30
0.0
 11
2676.632687
 21
536.268176
 31
0.0
  0
SOLID
  5
82
100
AcDbEntity
  8
0
  6
BYBLOCK
100
AcDbTrace
 10
2601.182687
 20
538.768176
 30
0.0
 11
2601.182687
 21
533.768176
 31
0.0
 12
2616.182687
 22
536.268176
 32
0.0
 13
2616.182687
 23
536.268176
 33
0.0
  0
SOLID
  5
83
100
AcDbEntity
  8
0
  6
BYBLOCK
100
AcDbTrace
 10
2691.632687
 20
538.768176
 30
0.0
 11
2691.632687
 21
533.768176
 31
0.0
 12
2676.632687
 22
536.268176
 32
0.0
 13
2676.632687
 23
536.268176
 33
0.0
  0
MTEXT
  5
84
100
AcDbEntity
  8
0
  6
BYBLOCK
 62
     5
100
AcDbMText
 10
2646.407687
 20
553.768176
 30
0.0
 40
19.32
 41
0.0
 71
     5
 72
     1
  1
\A1;60,5
  0
POINT
  5
85
100
AcDbEntity
  8
DEFPOINTS
  6
BYBLOCK
 62
     0
100
AcDbPoint
 10
2616.182687
 20
404.957726
 30
0.0
  0
POINT
  5
86
100
AcDbEntity
  8
DEFPOINTS
  6
BYBLOCK
 62
     0
100
AcDbPoint
 10
2676.632687
 20
487.457726
 30
0.0
  0
POINT
  5
87
100
AcDbEntity
  8
DEFPOINTS
  6
BYBLOCK
 62
     0
100
AcDbPoint
 10
2676.632687
 20
536.268176
 30
0.0
  0
ENDBLK
  5
89
100
AcDbEntity
  8
0
100
AcDbBlockEnd
  0
BLOCK
  5
6C
100
AcDbEntity
  8
0
100
AcDbBlockBegin
  2
*D3
 70
     1
 10
0.0
 20
0.0
 30
0.0
  3
*D3
  1

  0
LINE
  5
63
100
AcDbEntity
  8
0
  6
BYBLOCK
100
AcDbLine
 10
2676.632687
 20
490.457726
 30
0.0
 11
2676.632687
 21
542.268176
 31
0.0
  0
LINE
  5
64
100
AcDbEntity
  8
0
  6
BYBLOCK
100
AcDbLine
 10
2795.632687
 20
490.457726
 30
0.0
 11
2795.632687
 21
542.268176
 31
0.0
  0
LINE
  5
65
100
AcDbEntity
  8
0
  6
BYBLOCK
100
AcDbLine
 10
2691.632687
 20
536.268176
 30
0.0
 11
2780.632687
 21
536.268176
 31
0.0
  0
SOLID
  5
66
100
AcDbEntity
  8
0
  6
BYBLOCK
100
AcDbTrace
 10
2691.632687
 20
538.768176
 30
0.0
 11
2691.632687
 21
533.768176
 31
0.0
 12
2676.632687
 22
536.268176
 32
0.0
 13
2676.632687
 23
536.268176
 33
0.0
  0
SOLID
  5
67
100
AcDbEntity
  8
0
  6
BYBLOCK
100
AcDbTrace
 10
2780.632687
 20
538.768176
 30
0.0
 11
2780.632687
 21
533.768176
 31
0.0
 12
2795.632687
 22
536.268176
 32
0.0
 13
2795.632687
 23
536.268176
 33
0.0
  0
MTEXT
  5
68
100
AcDbEntity
  8
0
  6
BYBLOCK
 62
     5
100
AcDbMText
 10
2736.132687
 20
551.928176
 30
0.0
 40
19.32
 41
0.0
 71
     5
 72
     1
  1
\A1;119
  0
POINT
  5
69
100
AcDbEntity
  8
DEFPOINTS
  6
BYBLOCK
 62
     0
100
AcDbPoint
 10
2676.632687
 20
487.457726
 30
0.0
  0
POINT
  5
6A
100
AcDbEntity
  8
DEFPOINTS
  6
BYBLOCK
 62
     0
100
AcDbPoint
 10
2795.632687
 20
487.457726
 30
0.0
  0
POINT
  5
6B
100
AcDbEntity
  8
DEFPOINTS
  6
BYBLOCK
 62
     0
100
AcDbPoint
 10
2795.632687
 20
536.268176
 30
0.0
  0
ENDBLK
  5
6D
100
AcDbEntity
  8
0
100
AcDbBlockEnd
  0
BLOCK
  5
5F
100
AcDbEntity
  8
0
100
AcDbBlockBegin
  2
*D4
 70
     1
 10
0.0
 20
0.0
 30
0.0
  3
*D4
  1

  0
LINE
  5
54
100
AcDbEntity
  8
0
  6
BYBLOCK
100
AcDbLine
 10
2795.632687
 20
490.457726
 30
0.0
 11
2795.632687
 21
542.268176
 31
0.0
  0
LINE
  5
55
100
AcDbEntity
  8
0
  6
BYBLOCK
100
AcDbLine
 10
2856.082687
 20
407.957726
 30
0.0
 11
2856.082687
 21
542.268176
 31
0.0
  0
LINE
  5
56
100
AcDbEntity
  8
0
  6
BYBLOCK
100
AcDbLine
 10
2780.632687
 20
536.268176
 30
0.0
 11
2765.632687
 21
536.268176
 31
0.0
  0
LINE
  5
57
100
AcDbEntity
  8
0
  6
BYBLOCK
100
AcDbLine
 10
2871.082687
 20
536.268176
 30
0.0
 11
2886.082687
 21
536.268176
 31
0.0
  0
LINE
  5
58
100
AcDbEntity
  8
0
  6
BYBLOCK
100
AcDbLine
 10
2795.632687
 20
536.268176
 30
0.0
 11
2856.082687
 21
536.268176
 31
0.0
  0
SOLID
  5
59
100
AcDbEntity
  8
0
  6
BYBLOCK
100
AcDbTrace
 10
2780.632687
 20
538.768176
 30
0.0
 11
2780.632687
 21
533.768176
 31
0.0
 12
2795.632687
 22
536.268176
 32
0.0
 13
2795.632687
 23
536.268176
 33
0.0
  0
SOLID
  5
5A
100
AcDbEntity
  8
0
  6
BYBLOCK
100
AcDbTrace
 10
2871.082687
 20
538.768176
 30
0.0
 11
2871.082687
 21
533.768176
 31
0.0
 12
2856.082687
 22
536.268176
 32
0.0
 13
2856.082687
 23
536.268176
 33
0.0
  0
MTEXT
  5
5B
100
AcDbEntity
  8
0
  6
BYBLOCK
 62
     5
100
AcDbMText
 10
2825.857687
 20
553.768176
 30
0.0
 40
19.32
 41
0.0
 71
     5
 72
     1
  1
\A1;60,5
  0
POINT
  5
5C
100
AcDbEntity
  8
DEFPOINTS
  6
BYBLOCK
 62
     0
100
AcDbPoint
 10
2795.632687
 20
487.457726
 30
0.0
  0
POINT
  5
5D
100
AcDbEntity
  8
DEFPOINTS
  6
BYBLOCK
 62
     0
100
AcDbPoint
 10
2856.082687
 20
404.957726
 30
0.0
  0
POINT
  5
5E
100
AcDbEntity
  8
DEFPOINTS
  6
BYBLOCK
 62
     0
100
AcDbPoint
 10
2856.082687
 20
536.268176
 30
0.0
  0
ENDBLK
  5
60
100
AcDbEntity
  8
0
100
AcDbBlockEnd
  0
BLOCK
  5
97
100
AcDbEntity
  8
0
100
AcDbBlockBegin
  2
*D5
 70
     1
 10
0.0
 20
0.0
 30
0.0
  3
*D5
  1

  0
LINE
  5
8C
100
AcDbEntity
  8
0
  6
BYBLOCK
100
AcDbLine
 10
3005.532687
 20
484.457726
 30
0.0
 11
3005.532687
 21
338.957726
 31
0.0
  0
LINE
  5
8D
100
AcDbEntity
  8
0
  6
BYBLOCK
100
AcDbLine
 10
3026.532687
 20
484.457726
 30
0.0
 11
3026.532687
 21
338.957726
 31
0.0
  0
LINE
  5
8E
100
AcDbEntity
  8
0
  6
BYBLOCK
100
AcDbLine
 10
2990.532687
 20
344.957726
 30
0.0
 11
2975.532687
 21
344.957726
 31
0.0
  0
LINE
  5
8F
100
AcDbEntity
  8
0
  6
BYBLOCK
100
AcDbLine
 10
3041.532687
 20
344.957726
 30
0.0
 11
3056.532687
 21
344.957726
 31
0.0
  0
LINE
  5
90
100
AcDbEntity
  8
0
  6
BYBLOCK
100
AcDbLine
 10
3005.532687
 20
344.957726
 30
0.0
 11
3026.532687
 21
344.957726
 31
0.0
  0
SOLID
  5
91
100
AcDbEntity
  8
0
  6
BYBLOCK
100
AcDbTrace
 10
2990.532687
 20
347.457726
 30
0.0
 11
2990.532687
 21
342.457726
 31
0.0
 12
3005.532687
 22
344.957726
 32
0.0
 13
3005.532687
 23
344.957726
 33
0.0
  0
SOLID
  5
92
100
AcDbEntity
  8
0
  6
BYBLOCK
100
AcDbTrace
 10
3041.532687
 20
347.457726
 30
0.0
 11
3041.532687
 21
342.457726
 31
0.0
 12
3026.532687
 22
344.957726
 32
0.0
 13
3026.532687
 23
344.957726
 33
0.0
  0
MTEXT
  5
93
100
AcDbEntity
  8
0
  6
BYBLOCK
 62
     5
100
AcDbMText
 10
3016.032687
 20
360.617726
 30
0.0
 40
19.32
 41
0.0
 71
     5
 72
     1
  1
\A1;21
  0
POINT
  5
94
100
AcDbEntity
  8
DEFPOINTS
  6
BYBLOCK
 62
     0
100
AcDbPoint
 10
3005.532687
 20
487.457726
 30
0.0
  0
POINT
  5
95
100
AcDbEntity
  8
DEFPOINTS
  6
BYBLOCK
 62
     0
100
AcDbPoint
 10
3026.532687
 20
487.457726
 30
0.0
  0
POINT
  5
96
100
AcDbEntity
  8
DEFPOINTS
  6
BYBLOCK
 62
     0
100
AcDbPoint
 10
3026.532687
 20
344.957726
 30
0.0
  0
ENDBLK
  5
98
100
AcDbEntity
  8
0
100
AcDbBlockEnd
  0
BLOCK
  5
A7
100
AcDbEntity
  8
0
100
AcDbBlockBegin
  2
*D6
 70
     1
 10
0.0
 20
0.0
 30
0.0
  3
*D6
  1

  0
LINE
  5
9B
100
AcDbEntity
  8
0
  6
BYBLOCK
100
AcDbLine
 10
3019.032687
 20
481.457726
 30
0.0
 11
3139.411198
 21
481.457726
 31
0.0
  0
LINE
  5
9C
100
AcDbEntity
  8
0
  6
BYBLOCK
100
AcDbLine
 10
3078.532687
 20
487.457726
 30
0.0
 11
3139.411198
 21
487.457726
 31
0.0
  0
LINE
  5
9D
100
AcDbEntity
  8
0
  6
BYBLOCK
100
AcDbLine
 10
3133.411198
 20
466.457726
 30
0.0
 11
3133.411198
 21
451.457726
 31
0.0
  0
LINE
  5
9E
100
AcDbEntity
  8
0
  6
BYBLOCK
100
AcDbLine
 10
3133.411198
 20
502.457726
 30
0.0
 11
3133.411198
 21
517.457726
 31
0.0
  0
MTEXT
  5
9F
100
AcDbEntity
  8
0
  6
BYBLOCK
 62
     5
100
AcDbMText
 10
3117.661198
 20
505.957111
 30
0.0
 40
19.32
 41
0.0
 71
     5
 72
     1
  1
\A1;6
 11
0.0
 21
1.0
 31
0.0
  0
LINE
  5
A0
100
AcDbEntity
  8
0
  6
BYBLOCK
100
AcDbLine
 10
3133.411198
 20
481.457726
 30
0.0
 11
3133.411198
 21
487.457726
 31
0.0
  0
LINE
  5
A1
100
AcDbEntity
  8
0
  6
BYBLOCK
100
AcDbLine
 10
3133.411198
 20
481.457726
 30
0.0
 11
3133.411198
 21
487.457726
 31
0.0
  0
SOLID
  5
A2
100
AcDbEntity
  8
0
  6
BYBLOCK
100
AcDbTrace
 10
3130.911198
 20
466.457726
 30
0.0
 11
3135.911198
 21
466.457726
 31
0.0
 12
3133.411198
 22
481.457726
 32
0.0
 13
3133.411198
 23
481.457726
 33
0.0
  0
SOLID
  5
A3
100
AcDbEntity
  8
0
  6
BYBLOCK
100
AcDbTrace
 10
3130.911198
 20
502.457726
 30
0.0
 11
3135.911198
 21
502.457726
 31
0.0
 12
3133.411198
 22
487.457726
 32
0.0
 13
3133.411198
 23
487.457726
 33
0.0
  0
POINT
  5
A4
100
AcDbEntity
  8
DEFPOINTS
  6
BYBLOCK
 62
     0
100
AcDbPoint
 10
3016.032687
 20
481.457726
 30
0.0
  0
POINT
  5
A5
100
AcDbEntity
  8
DEFPOINTS
  6
BYBLOCK
 62
     0
100
AcDbPoint
 10
3075.532687
 20
487.457726
 30
0.0
  0
POINT
  5
A6
100
AcDbEntity
  8
DEFPOINTS
  6
BYBLOCK
 62
     0
100
AcDbPoint
 10
3133.411198
 20
487.457726
 30
0.0
  0
ENDBLK
  5
A8
100
AcDbEntity
  8
0
100
AcDbBlockEnd
  0
BLOCK
  5
3B
100
AcDbEntity
  8
0
100
AcDbBlockBegin
  2
*D7
 70
     1
 10
0.0
 20
0.0
 30
0.0
  3
*D7
  1

  0
LINE
  5
30
100
AcDbEntity
  8
0
  6
BYBLOCK
100
AcDbLine
 10
3135.982687
 20
401.957726
 30
0.0
 11
3135.982687
 21
338.957726
 31
0.0
  0
LINE
  5
31
100
AcDbEntity
  8
0
  6
BYBLOCK
100
AcDbLine
 10
3175.982687
 20
401.957726
 30
0.0
 11
3175.982687
 21
338.957726
 31
0.0
  0
LINE
  5
32
100
AcDbEntity
  8
0
  6
BYBLOCK
100
AcDbLine
 10
3120.982687
 20
344.957726
 30
0.0
 11
3105.982687
 21
344.957726
 31
0.0
  0
LINE
  5
33
100
AcDbEntity
  8
0
  6
BYBLOCK
100
AcDbLine
 10
3190.982687
 20
344.957726
 30
0.0
 11
3205.982687
 21
344.957726
 31
0.0
  0
LINE
  5
34
100
AcDbEntity
  8
0
  6
BYBLOCK
100
AcDbLine
 10
3135.982687
 20
344.957726
 30
0.0
 11
3175.982687
 21
344.957726
 31
0.0
  0
SOLID
  5
35
100
AcDbEntity
  8
0
  6
BYBLOCK
100
AcDbTrace
 10
3120.982687
 20
347.457726
 30
0.0
 11
3120.982687
 21
342.457726
 31
0.0
 12
3135.982687
 22
344.957726
 32
0.0
 13
3135.982687
 23
344.957726
 33
0.0
  0
SOLID
  5
36
100
AcDbEntity
  8
0
  6
BYBLOCK
100
AcDbTrace
 10
3190.982687
 20
347.457726
 30
0.0
 11
3190.982687
 21
342.457726
 31
0.0
 12
3175.982687
 22
344.957726
 32
0.0
 13
3175.982687
 23
344.957726
 33
0.0
  0
MTEXT
  5
37
100
AcDbEntity
  8
0
  6
BYBLOCK
 62
     5
100
AcDbMText
 10
3155.982687
 20
360.617726
 30
0.0
 40
19.32
 41
0.0
 71
     5
 72
     1
  1
\A1;40
  0
POINT
  5
38
100
AcDbEntity
  8
DEFPOINTS
  6
BYBLOCK
 62
     0
100
AcDbPoint
 10
3135.982687
 20
404.957726
 30
0.0
  0
POINT
  5
39
100
AcDbEntity
  8
DEFPOINTS
  6
BYBLOCK
 62
     0
100
AcDbPoint
 10
3175.982687
 20
404.957726
 30
0.0
  0
POINT
  5
3A
100
AcDbEntity
  8
DEFPOINTS
  6
BYBLOCK
 62
     0
100
AcDbPoint
 10
3175.982687
 20
344.957726
 30
0.0
  0
ENDBLK
  5
3C
100
AcDbEntity
  8
0
100
AcDbBlockEnd
  0
BLOCK
  5
2C
100
AcDbEntity
  8
0
100
AcDbBlockBegin
  2
*D8
 70
     1
 10
0.0
 20
0.0
 30
0.0
  3
*D8
  1

  0
LINE
  5
20
100
AcDbEntity
  8
0
  6
BYBLOCK
100
AcDbLine
 10
3190.835214
 20
427.461554
 30
0.0
 11
3251.686249
 21
519.660091
 31
0.0
  0
LINE
  5
21
100
AcDbEntity
  8
0
  6
BYBLOCK
100
AcDbLine
 10
3195.014651
 20
424.703125
 30
0.0
 11
3255.865686
 21
516.901663
 31
0.0
  0
LINE
  5
22
100
AcDbEntity
  8
0
  6
BYBLOCK
100
AcDbLine
 10
3235.862054
 20
522.915068
 30
0.0
 11
3223.342913
 21
531.177701
 31
0.0
  0
LINE
  5
23
100
AcDbEntity
  8
0
  6
BYBLOCK
100
AcDbLine
 10
3265.079774
 20
503.631373
 30
0.0
 11
3277.598915
 21
495.36874
 31
0.0
  0
LINE
  5
24
100
AcDbEntity
  8
0
  6
BYBLOCK
100
AcDbLine
 10
3248.381195
 20
514.652435
 30
0.0
 11
3252.560632
 21
511.894006
 31
0.0
  0
SOLID
  5
25
100
AcDbEntity
  8
0
  6
BYBLOCK
100
AcDbTrace
 10
3237.23916
 20
525.001591
 30
0.0
 11
3234.484949
 21
520.828544
 31
0.0
 12
3248.381195
 22
514.652435
 32
0.0
 13
3248.381195
 23
514.652435
 33
0.0
  0
SOLID
  5
26
100
AcDbEntity
  8
0
  6
BYBLOCK
100
AcDbTrace
 10
3266.456879
 20
505.717897
 30
0.0
 11
3263.702668
 21
501.54485
 31
0.0
 12
3252.560632
 22
511.894006
 32
0.0
 13
3252.560632
 23
511.894006
 33
0.0
  0
MTEXT
  5
27
100
AcDbEntity
  8
0
  6
BYBLOCK
 62
     5
100
AcDbMText
 10
3259.097103
 20
526.343204
 30
0.0
 40
19.32
 41
0.0
 71
     5
 72
     1
  1
\A1;5
 11
0.834609
 21
-0.550842
 31
0.0
  0
POINT
  5
28
100
AcDbEntity
  8
DEFPOINTS
  6
BYBLOCK
 62
     0
100
AcDbPoint
 10
3189.182687
 20
424.957726
 30
0.0
  0
POINT
  5
2A
100
AcDbEntity
  8
DEFPOINTS
  6
BYBLOCK
 62
     0
100
AcDbPoint
 10
3193.362124
 20
422.199297
 30
0.0
  0
POINT
  5
2B
100
AcDbEntity
  8
DEFPOINTS
  6
BYBLOCK
 62
     0
100
AcDbPoint
 10
3252.560632
 20
511.894006
 30
0.0
  0
ENDBLK
  5
2D
100
AcDbEntity
  8
0
100
AcDbBlockEnd
  0
BLOCK
  5
B8
100
AcDbEntity
  8
0
100
AcDbBlockBegin
  2
*D9
 70
     1
 10
0.0
 20
0.0
 30
0.0
  3
*D9
  1

  0
LINE
  5
AD
100
AcDbEntity
  8
0
  6
BYBLOCK
100
AcDbLine
 10
3458.882687
 20
404.957726
 30
0.0
 11
3643.095694
 21
404.957726
 31
0.0
  0
LINE
  5
AE
100
AcDbEntity
  8
0
  6
BYBLOCK
100
AcDbLine
 10
3470.735214
 20
427.461554
 30
0.0
 11
3559.007513
 21
561.207462
 31
0.0
  0
ARC
  5
AF
100
AcDbEntity
  8
0
  6
BYBLOCK
100
AcDbCircle
 10
3455.882687
 20
404.957726
 30
0.0
 40
181.213007
100
AcDbArc
 50
4.744043
 51
51.831146
  0
SOLID
  5
B0
100
AcDbEntity
  8
0
  6
BYBLOCK
100
AcDbTrace
 10
3638.972735
 20
420.048343
 30
0.0
 11
3633.97702
 21
419.841404
 31
0.0
 12
3637.095694
 22
404.957726
 32
0.0
 13
3637.095694
 23
404.957726
 33
0.0
  0
SOLID
  5
B1
100
AcDbEntity
  8
0
  6
BYBLOCK
100
AcDbTrace
 10
3566.40662
 20
545.398373
 30
0.0
 11
3569.331184
 21
549.453853
 31
0.0
 12
3555.70246
 22
556.199806
 32
0.0
 13
3555.70246
 23
556.199806
 33
0.0
  0
MTEXT
  5
B2
100
AcDbEntity
  8
0
  6
BYBLOCK
 62
     5
100
AcDbMText
 10
3616.429839
 20
527.601451
 30
0.0
 40
19.32
 41
0.0
 71
     5
 72
     1
  1
\A1;56,58°
 11
0.607051
 21
-0.794663
 31
0.0
  0
POINT
  5
B3
100
AcDbEntity
  8
DEFPOINTS
  6
BYBLOCK
 62
     0
100
AcDbPoint
 10
3627.368236
 20
463.531271
 30
0.0
  0
POINT
  5
B4
100
AcDbEntity
  8
DEFPOINTS
  6
BYBLOCK
 62
     0
100
AcDbPoint
 10
3469.082687
 20
424.957726
 30
0.0
  0
POINT
  5
B5
100
AcDbEntity
  8
DEFPOINTS
  6
BYBLOCK
 62
     0
100
AcDbPoint
 10
3455.882687
 20
404.957726
 30
0.0
  0
POINT
  5
B6
100
AcDbEntity
  8
DEFPOINTS
  6
BYBLOCK
 62
     0
100
AcDbPoint
 10
3435.882687
 20
404.957726
 30
0.0
  0
POINT
  5
B7
100
AcDbEntity
  8
DEFPOINTS
  6
BYBLOCK
 62
     0
100
AcDbPoint
 10
3455.882687
 20
404.957726
 30
0.0
  0
ENDBLK
  5
B9
100
AcDbEntity
  8
0
100
AcDbBlockEnd
  0
BLOCK
  5
E6
100
AcDbEntity
  8
0
100
AcDbBlockBegin
  2
*D10
 70
     1
 10
0.0
 20
0.0
 30
0.0
  3
*D10
  1

  0
LINE
  5
DC
100
AcDbEntity
  8
0
  6
BYBLOCK
100
AcDbLine
 10
3481.025012
 20
431.378331
 30
0.0
 11
3548.689069
 21
467.756856
 31
0.0
  0
ARC
  5
DD
100
AcDbEntity
  8
0
  6
BYBLOCK
100
AcDbCircle
 10
3469.082687
 20
424.957726
 30
0.0
 40
84.382197
100
AcDbArc
 50
10.198506
 51
18.065499
  0
SOLID
  5
DE
100
AcDbEntity
  8
0
  6
BYBLOCK
100
AcDbTrace
 10
3554.62177
 20
440.120562
 30
0.0
 11
3549.641559
 21
439.676156
 31
0.0
 12
3553.464884
 22
424.957726
 32
0.0
 13
3553.464884
 23
424.957726
 33
0.0
  0
SOLID
  5
DF
100
AcDbEntity
  8
0
  6
BYBLOCK
100
AcDbTrace
 10
3547.006621
 20
450.141542
 30
0.0
 11
3551.603508
 21
452.108424
 31
0.0
 12
3543.404419
 22
464.915646
 32
0.0
 13
3543.404419
 23
464.915646
 33
0.0
  0
MTEXT
  5
E0
100
AcDbEntity
  8
0
  6
BYBLOCK
 62
     5
100
AcDbMText
 10
3574.116404
 20
438.93589
 30
0.0
 40
19.32
 41
0.0
 71
     5
 72
     1
  1
\A1;28,26°
 11
0.13192
 21
-0.99126
 31
0.0
  0
POINT
  5
E1
100
AcDbEntity
  8
DEFPOINTS
  6
BYBLOCK
 62
     0
100
AcDbPoint
 10
3548.942758
 20
452.210694
 30
0.0
  0
POINT
  5
E2
100
AcDbEntity
  8
DEFPOINTS
  6
BYBLOCK
 62
     0
100
AcDbPoint
 10
3478.382687
 20
429.957726
 30
0.0
  0
POINT
  5
E3
100
AcDbEntity
  8
DEFPOINTS
  6
BYBLOCK
 62
     0
100
AcDbPoint
 10
3469.082687
 20
424.957726
 30
0.0
  0
POINT
  5
E4
100
AcDbEntity
  8
DEFPOINTS
  6
BYBLOCK
 62
     0
100
AcDbPoint
 10
3558.352574
 20
424.957726
 30
0.0
  0
POINT
  5
E5
100
AcDbEntity
  8
DEFPOINTS
  6
BYBLOCK
 62
     0
100
AcDbPoint
 10
3469.082687
 20
424.957726
 30
0.0
  0
ENDBLK
  5
E7
100
AcDbEntity
  8
0
100
AcDbBlockEnd
  0
BLOCK
  5
104
100
AcDbEntity
  8
0
100
AcDbBlockBegin
  2
*D11
 70
     1
 10
0.0
 20
0.0
 30
0.0
  3
*D11
  1

  0
LINE
  5
FB
100
AcDbEntity
  8
0
  6
BYBLOCK
100
AcDbLine
 10
3738.782687
 20
404.957726
 30
0.0
 11
3778.989914
 21
404.957726
 31
0.0
  0
LINE
  5
FC
100
AcDbEntity
  8
0
  6
BYBLOCK
100
AcDbLine
 10
3638.332687
 20
487.457726
 30
0.0
 11
3778.989914
 21
487.457726
 31
0.0
  0
LINE
  5
FD
100
AcDbEntity
  8
0
  6
BYBLOCK
100
AcDbLine
 10
3772.989914
 20
419.957726
 30
0.0
 11
3772.989914
 21
472.457726
 31
0.0
  0
SOLID
  5
FE
100
AcDbEntity
  8
0
  6
BYBLOCK
100
AcDbTrace
 10
3770.489914
 20
419.957726
 30
0.0
 11
3775.489914
 21
419.957726
 31
0.0
 12
3772.989914
 22
404.957726
 32
0.0
 13
3772.989914
 23
404.957726
 33
0.0
  0
SOLID
  5
FF
100
AcDbEntity
  8
0
  6
BYBLOCK
100
AcDbTrace
 10
3770.489914
 20
472.457726
 30
0.0
 11
3775.489914
 21
472.457726
 31
0.0
 12
3772.989914
 22
487.457726
 32
0.0
 13
3772.989914
 23
487.457726
 33
0.0
  0
MTEXT
  5
100
100
AcDbEntity
  8
0
  6
BYBLOCK
 62
     5
100
AcDbMText
 10
3755.489914
 20
446.207726
 30
0.0
 40
19.32
 41
0.0
 71
     5
 72
     1
  1
\A1;82,5
 11
0.0
 21
1.0
 31
0.0
  0
POINT
  5
101
100
AcDbEntity
  8
DEFPOINTS
  6
BYBLOCK
 62
     0
100
AcDbPoint
 10
3735.782687
 20
404.957726
 30
0.0
  0
POINT
  5
102
100
AcDbEntity
  8
DEFPOINTS
  6
BYBLOCK
 62
     0
100
AcDbPoint
 10
3635.332687
 20
487.457726
 30
0.0
  0
POINT
  5
103
100
AcDbEntity
  8
DEFPOINTS
  6
BYBLOCK
 62
     0
100
AcDbPoint
 10
3772.989914
 20
487.457726
 30
0.0
  0
ENDBLK
  5
105
100
AcDbEntity
  8
0
100
AcDbBlockEnd
  0
BLOCK
  5
F7
100
AcDbEntity
  8
0
100
AcDbBlockBegin
  2
*D12
 70
     1
 10
0.0
 20
0.0
 30
0.0
  3
*D12
  1

  0
LINE
  5
EB
100
AcDbEntity
  8
0
  6
BYBLOCK
100
AcDbLine
 10
3418.882687
 20
404.957726
 30
0.0
 11
3441.257184
 21
404.957726
 31
0.0
  0
LINE
  5
EC
100
AcDbEntity
  8
0
  6
BYBLOCK
100
AcDbLine
 10
3405.682687
 20
424.957726
 30
0.0
 11
3441.257184
 21
424.957726
 31
0.0
  0
LINE
  5
ED
100
AcDbEntity
  8
0
  6
BYBLOCK
100
AcDbLine
 10
3435.257184
 20
389.957726
 30
0.0
 11
3435.257184
 21
374.957726
 31
0.0
  0
LINE
  5
EE
100
AcDbEntity
  8
0
  6
BYBLOCK
100
AcDbLine
 10
3435.257184
 20
439.957726
 30
0.0
 11
3435.257184
 21
454.957726
 31
0.0
  0
MTEXT
  5
EF
100
AcDbEntity
  8
0
  6
BYBLOCK
 62
     5
100
AcDbMText
 10
3419.507184
 20
379.969145
 30
0.0
 40
19.32
 41
0.0
 71
     5
 72
     1
  1
\A1;20
 11
0.0
 21
1.0
 31
0.0
  0
LINE
  5
F0
100
AcDbEntity
  8
0
  6
BYBLOCK
100
AcDbLine
 10
3435.257184
 20
404.957726
 30
0.0
 11
3435.257184
 21
424.957726
 31
0.0
  0
LINE
  5
F1
100
AcDbEntity
  8
0
  6
BYBLOCK
100
AcDbLine
 10
3435.257184
 20
404.957726
 30
0.0
 11
3435.257184
 21
424.957726
 31
0.0
  0
SOLID
  5
F2
100
AcDbEntity
  8
0
  6
BYBLOCK
100
AcDbTrace
 10
3432.757184
 20
389.957726
 30
0.0
 11
3437.757184
 21
389.957726
 31
0.0
 12
3435.257184
 22
404.957726
 32
0.0
 13
3435.257184
 23
404.957726
 33
0.0
  0
SOLID
  5
F3
100
AcDbEntity
  8
0
  6
BYBLOCK
100
AcDbTrace
 10
3432.757184
 20
439.957726
 30
0.0
 11
3437.757184
 21
439.957726
 31
0.0
 12
3435.257184
 22
424.957726
 32
0.0
 13
3435.257184
 23
424.957726
 33
0.0
  0
POINT
  5
F4
100
AcDbEntity
  8
DEFPOINTS
  6
BYBLOCK
 62
     0
100
AcDbPoint
 10
3415.882687
 20
404.957726
 30
0.0
  0
POINT
  5
F5
100
AcDbEntity
  8
DEFPOINTS
  6
BYBLOCK
 62
     0
100
AcDbPoint
 10
3402.682687
 20
424.957726
 30
0.0
  0
POINT
  5
F6
100
AcDbEntity
  8
DEFPOINTS
  6
BYBLOCK
 62
     0
100
AcDbPoint
 10
3435.257184
 20
424.957726
 30
0.0
  0
ENDBLK
  5
F8
100
AcDbEntity
  8
0
100
AcDbBlockEnd
  0
BLOCK
  5
D7
100
AcDbEntity
  8
0
100
AcDbBlockBegin
  2
*D13
 70
     1
 10
0.0
 20
0.0
 30
0.0
  3
*D13
  1

  0
LINE
  5
CB
100
AcDbEntity
  8
0
  6
BYBLOCK
100
AcDbLine
 10
3405.682687
 20
424.957726
 30
0.0
 11
3441.257184
 21
424.957726
 31
0.0
  0
LINE
  5
CC
100
AcDbEntity
  8
0
  6
BYBLOCK
100
AcDbLine
 10
3396.382687
 20
429.957726
 30
0.0
 11
3441.257184
 21
429.957726
 31
0.0
  0
LINE
  5
CD
100
AcDbEntity
  8
0
  6
BYBLOCK
100
AcDbLine
 10
3435.257184
 20
409.957726
 30
0.0
 11
3435.257184
 21
394.957726
 31
0.0
  0
LINE
  5
CE
100
AcDbEntity
  8
0
  6
BYBLOCK
100
AcDbLine
 10
3435.257184
 20
444.957726
 30
0.0
 11
3435.257184
 21
459.957726
 31
0.0
  0
MTEXT
  5
CF
100
AcDbEntity
  8
0
  6
BYBLOCK
 62
     5
100
AcDbMText
 10
3455.169406
 20
436.317355
 30
0.0
 40
19.32
 41
0.0
 71
     5
 72
     1
  1
\A1;5
 11
0.0
 21
1.0
 31
0.0
  0
LINE
  5
D0
100
AcDbEntity
  8
0
  6
BYBLOCK
100
AcDbLine
 10
3435.257184
 20
424.957726
 30
0.0
 11
3435.257184
 21
429.957726
 31
0.0
  0
LINE
  5
D1
100
AcDbEntity
  8
0
  6
BYBLOCK
100
AcDbLine
 10
3435.257184
 20
424.957726
 30
0.0
 11
3435.257184
 21
429.957726
 31
0.0
  0
SOLID
  5
D2
100
AcDbEntity
  8
0
  6
BYBLOCK
100
AcDbTrace
 10
3432.757184
 20
409.957726
 30
0.0
 11
3437.757184
 21
409.957726
 31
0.0
 12
3435.257184
 22
424.957726
 32
0.0
 13
3435.257184
 23
424.957726
 33
0.0
  0
SOLID
  5
D3
100
AcDbEntity
  8
0
  6
BYBLOCK
100
AcDbTrace
 10
3432.757184
 20
444.957726
 30
0.0
 11
3437.757184
 21
444.957726
 31
0.0
 12
3435.257184
 22
429.957726
 32
0.0
 13
3435.257184
 23
429.957726
 33
0.0
  0
POINT
  5
D4
100
AcDbEntity
  8
DEFPOINTS
  6
BYBLOCK
 62
     0
100
AcDbPoint
 10
3402.682687
 20
424.957726
 30
0.0
  0
POINT
  5
D5
100
AcDbEntity
  8
DEFPOINTS
  6
BYBLOCK
 62
     0
100
AcDbPoint
 10
3393.382687
 20
429.957726
 30
0.0
  0
POINT
  5
D6
100
AcDbEntity
  8
DEFPOINTS
  6
BYBLOCK
 62
     0
100
AcDbPoint
 10
3435.257184
 20
429.957726
 30
0.0
  0
ENDBLK
  5
D8
100
AcDbEntity
  8
0
100
AcDbBlockEnd
  0
BLOCK
  5
C7
100
AcDbEntity
  8
0
100
AcDbBlockBegin
  2
*D14
 70
     1
 10
0.0
 20
0.0
 30
0.0
  3
*D14
  1

  0
LINE
  5
BC
100
AcDbEntity
  8
0
  6
BYBLOCK
100
AcDbLine
 10
3396.382687
 20
429.957726
 30
0.0
 11
3441.257184
 21
429.957726
 31
0.0
  0
LINE
  5
BD
100
AcDbEntity
  8
0
  6
BYBLOCK
100
AcDbLine
 10
3358.432687
 20
487.457726
 30
0.0
 11
3441.257184
 21
487.457726
 31
0.0
  0
LINE
  5
BE
100
AcDbEntity
  8
0
  6
BYBLOCK
100
AcDbLine
 10
3435.257184
 20
414.957726
 30
0.0
 11
3435.257184
 21
399.957726
 31
0.0
  0
LINE
  5
BF
100
AcDbEntity
  8
0
  6
BYBLOCK
100
AcDbLine
 10
3435.257184
 20
502.457726
 30
0.0
 11
3435.257184
 21
517.457726
 31
0.0
  0
LINE
  5
C0
100
AcDbEntity
  8
0
  6
BYBLOCK
100
AcDbLine
 10
3435.257184
 20
429.957726
 30
0.0
 11
3435.257184
 21
487.457726
 31
0.0
  0
SOLID
  5
C1
100
AcDbEntity
  8
0
  6
BYBLOCK
100
AcDbTrace
 10
3432.757184
 20
414.957726
 30
0.0
 11
3437.757184
 21
414.957726
 31
0.0
 12
3435.257184
 22
429.957726
 32
0.0
 13
3435.257184
 23
429.957726
 33
0.0
  0
SOLID
  5
C2
100
AcDbEntity
  8
0
  6
BYBLOCK
100
AcDbTrace
 10
3432.757184
 20
502.457726
 30
0.0
 11
3437.757184
 21
502.457726
 31
0.0
 12
3435.257184
 22
487.457726
 32
0.0
 13
3435.257184
 23
487.457726
 33
0.0
  0
MTEXT
  5
C3
100
AcDbEntity
  8
0
  6
BYBLOCK
 62
     5
100
AcDbMText
 10
3417.757184
 20
458.707726
 30
0.0
 40
19.32
 41
0.0
 71
     5
 72
     1
  1
\A1;57,5
 11
0.0
 21
1.0
 31
0.0
  0
POINT
  5
C4
100
AcDbEntity
  8
DEFPOINTS
  6
BYBLOCK
 62
     0
100
AcDbPoint
 10
3393.382687
 20
429.957726
 30
0.0
  0
POINT
  5
C5
100
AcDbEntity
  8
DEFPOINTS
  6
BYBLOCK
 62
     0
100
AcDbPoint
 10
3355.432687
 20
487.457726
 30
0.0
  0
POINT
  5
C6
100
AcDbEntity
  8
DEFPOINTS
  6
BYBLOCK
 62
     0
100
AcDbPoint
 10
3435.257184
 20
487.457726
 30
0.0
  0
ENDBLK
  5
C8
100
AcDbEntity
  8
0
100
AcDbBlockEnd
  0
ENDSEC
  0
SECTION
  2
ENTITIES
  0
DIMENSION
  5
1E
100
AcDbEntity
  8
KOTY-UPLNE
100
AcDbDimension
  2
*D8
 10
809.233242
 20
-125.448648
 30
0.0
 11
815.769713
 21
-110.99945
 31
0.0
 12
-2443.32739
 22
-637.342654
 32
0.0
 70
     1
  3
UPLNE
100
AcDbAlignedDimension
 13
745.855297
 23
-212.384928
 33
0.0
 14
750.034734
 24
-215.143357
 34
0.0
1001
ACAD
1000
DSTYLE
1002
{
1070
    40
1040
3.0
1070
   147
1040
2.0
1002
}
  0
DIMENSION
  5
2E
100
AcDbEntity
  8
KOTY-UPLNE
100
AcDbDimension
  2
*D7
 10
732.655297
 20
-292.384928
 30
0.0
 11
712.655297
 21
-276.724928
 31
0.0
 12
-2443.32739
 22
-637.342654
 32
0.0
  3
UPLNE
100
AcDbAlignedDimension
 13
692.655297
 23
-232.384928
 33
0.0
 14
732.655297
 24
-232.384928
 34
0.0
100
AcDbRotatedDimension
1001
ACAD
1000
DSTYLE
1002
{
1070
    40
1040
3.0
1070
   147
1040
2.0
1002
}
  0
DIMENSION
  5
3D
100
AcDbEntity
  8
KOTY-UPLNE
100
AcDbDimension
  2
*D1
 10
1272.455297
 20
-352.384928
 30
0.0
 11
712.655297
 21
-336.724928
 31
0.0
 12
-2443.32739
 22
-637.342654
 32
0.0
  3
UPLNE
100
AcDbAlignedDimension
 13
152.855297
 23
-232.384928
 33
0.0
 14
1272.455297
 24
-232.384928
 34
0.0
100
AcDbRotatedDimension
1001
ACAD
1000
DSTYLE
1002
{
1070
    40
1040
3.0
1070
   147
1040
2.0
1002
}
  0
MTEXT
  5
4A
100
AcDbEntity
  8
KOTY-UPLNE
  6
BYBLOCK
 62
     5
100
AcDbMText
 10
669.486575
 20
-85.198963
 30
0.0
 40
16.5
 41
0.0
 71
     5
 72
     1
  1
všechna zaoblení R=6
  0
LWPOLYLINE
  5
4B
100
AcDbEntity
  8
TRAPEZ-VELKY
100
AcDbPolyline
 90
       97
 70
     0
 43
5.0
 10
1302.355297
 20
-217.384928
 10
1294.233962
 20
-229.689981
 42
-0.251995
 10
1289.226306
 20
-232.384928
 10
1272.455297
 20
-232.384928
 10
1255.684289
 20
-232.384928
 42
-0.251995
 10
1250.676632
 20
-229.689981
 10
1240.088879
 20
-213.647931
 42
0.124163
 10
1237.922432
 20
-211.668334
 10
1231.288162
 20
-208.101522
 42
-0.124163
 10
1229.121715
 20
-206.121925
 10
1193.783962
 20
-152.579875
 42
0.251995
 10
1188.776306
 20
-149.884928
 10
1144.879885
 20
-149.884928
 42
0.152579
 10
1141.464132
 20
-150.952117
 10
1135.92105
 20
-154.790455
 42
-0.312431
 10
1129.089544
 20
-154.790455
 10
1123.546462
 20
-150.952117
 42
0.152579
 10
1120.130709
 20
-149.884928
 10
1076.234289
 20
-149.884928
 42
0.251995
 10
1071.226632
 20
-152.579875
 10
1035.888879
 20
-206.121925
 42
-0.124163
 10
1033.722432
 20
-208.101522
 10
1027.088162
 20
-211.668334
 42
0.124163
 10
1024.921715
 20
-213.647931
 10
1014.333962
 20
-229.689981
 42
-0.251995
 10
1009.326306
 20
-232.384928
 10
992.555297
 20
-232.384928
 10
975.784289
 20
-232.384928
 42
-0.251995
 10
970.776632
 20
-229.689981
 10
960.188879
 20
-213.647931
 42
0.124163
 10
958.022432
 20
-211.668334
 10
951.388162
 20
-208.101522
 42
-0.124163
 10
949.221715
 20
-206.121925
 10
913.883962
 20
-152.579875
 42
0.251995
 10
908.876306
 20
-149.884928
 10
864.979885
 20
-149.884928
 42
0.152579
 10
861.564132
 20
-150.952117
 10
856.02105
 20
-154.790455
 42
-0.312431
 10
849.189544
 20
-154.790455
 10
843.646462
 20
-150.952116
 42
0.152579
 10
840.230709
 20
-149.884928
 10
796.334289
 20
-149.884928
 42
0.251995
 10
791.326632
 20
-152.579875
 10
755.988879
 20
-206.121925
 42
-0.124163
 10
753.822432
 20
-208.101522
 10
747.188162
 20
-211.668334
 42
0.124163
 10
745.021715
 20
-213.647931
 10
734.433962
 20
-229.689981
 42
-0.251995
 10
729.426306
 20
-232.384928
 10
712.655297
 20
-232.384928
 10
695.884289
 20
-232.384928
 42
-0.251995
 10
690.876632
 20
-229.689981
 10
680.288879
 20
-213.647931
 42
0.124163
 10
678.122432
 20
-211.668334
 10
671.488162
 20
-208.101522
 42
-0.124163
 10
669.321715
 20
-206.121925
 10
633.983962
 20
-152.579875
 42
0.251995
 10
628.976306
 20
-149.884928
 10
585.079885
 20
-149.884928
 42
0.152579
 10
581.664132
 20
-150.952117
 10
576.12105
 20
-154.790455
 42
-0.312431
 10
569.289544
 20
-154.790455
 10
563.746462
 20
-150.952116
 42
0.152579
 10
560.330709
 20
-149.884928
 10
516.434289
 20
-149.884928
 42
0.251995
 10
511.426632
 20
-152.579875
 10
476.088879
 20
-206.121925
 42
-0.124163
 10
473.922432
 20
-208.101522
 10
467.288162
 20
-211.668334
 42
0.124163
 10
465.121715
 20
-213.647931
 10
454.533962
 20
-229.689981
 42
-0.251995
 10
449.526306
 20
-232.384928
 10
432.755297
 20
-232.384928
 10
415.984289
 20
-232.384928
 42
-0.251995
 10
410.976632
 20
-229.689981
 10
400.388879
 20
-213.647931
 42
0.124163
 10
398.222432
 20
-211.668334
 10
391.588162
 20
-208.101522
 42
-0.124163
 10
389.421715
 20
-206.121925
 10
354.083962
 20
-152.579875
 42
0.251995
 10
349.076306
 20
-149.884928
 10
305.179885
 20
-149.884928
 42
0.152579
 10
301.764132
 20
-150.952117
 10
296.22105
 20
-154.790455
 42
-0.312431
 10
289.389544
 20
-154.790455
 10
283.846462
 20
-150.952117
 42
0.152579
 10
280.430709
 20
-149.884928
 10
236.534289
 20
-149.884928
 42
0.251995
 10
231.526632
 20
-152.579875
 10
196.188879
 20
-206.121925
 42
-0.124163
 10
194.022432
 20
-208.101522
 10
187.388162
 20
-211.668334
 42
0.124163
 10
185.221715
 20
-213.647931
 10
174.633962
 20
-229.689981
 42
-0.251995
 10
169.626306
 20
-232.384928
 10
152.855297
 20
-232.384928
 10
147.855297
 20
-232.384928
  0
LWPOLYLINE
  5
4D
100
AcDbEntity
  8
RAMEC
100
AcDbPolyline
 90
        4
 70
     1
 43
0.0
 10
0.0
 20
0.0
 10
0.0
 20
-461.501233
 10
1349.672502
 20
-461.501233
 10
1349.672502
 20
0.0
  0
MTEXT
  5
4F
100
AcDbEntity
  8
POPIS
100
AcDbMText
 10
661.730741
 20
-42.124031
 30
0.0
 40
40.0
 41
1.0
 71
     5
 72
     1
  1
TR 85/280
  7
STYLE1
  0
DIMENSION
  5
52
100
AcDbEntity
  8
KOTY-UPLNE
100
AcDbDimension
  2
*D4
 10
412.755297
 20
-101.074478
 30
0.0
 11
382.530297
 21
-83.574478
 31
0.0
 12
-2443.32739
 22
-637.342654
 32
0.0
  1
60,5
  3
UPLNE
100
AcDbAlignedDimension
 13
352.305297
 23
-149.884928
 33
0.0
 14
412.755297
 24
-232.384928
 34
0.0
100
AcDbRotatedDimension
1001
ACAD
1000
DSTYLE
1002
{
1070
    40
1040
3.0
1070
   147
1040
2.0
1002
}
  0
DIMENSION
  5
61
100
AcDbEntity
  8
KOTY-UPLNE
100
AcDbDimension
  2
*D3
 10
352.305297
 20
-101.074478
 30
0.0
 11
292.805297
 21
-85.414478
 31
0.0
 12
-2443.32739
 22
-637.342654
 32
0.0
  3
UPLNE
100
AcDbAlignedDimension
 13
233.305297
 23
-149.884928
 33
0.0
 14
352.305297
 24
-149.884928
 34
0.0
100
AcDbRotatedDimension
1001
ACAD
1000
DSTYLE
1002
{
1070
    40
1040
3.0
1070
   147
1040
2.0
1002
}
  0
DIMENSION
  5
6E
100
AcDbEntity
  8
KOTY-UPLNE
100
AcDbDimension
  2
*D0
 10
432.755297
 20
-292.384928
 30
0.0
 11
292.805297
 21
-276.724928
 31
0.0
 12
-2443.32739
 22
-637.342654
 32
0.0
  3
UPLNE
100
AcDbAlignedDimension
 13
152.855297
 23
-232.384928
 33
0.0
 14
432.755297
 24
-232.384928
 34
0.0
100
AcDbRotatedDimension
1001
ACAD
1000
DSTYLE
1002
{
1070
    40
1040
3.0
1070
   147
1040
2.0
1002
}
  0
DIMENSION
  5
7B
100
AcDbEntity
  8
KOTY-UPLNE
100
AcDbDimension
  2
*D2
 10
233.305297
 20
-101.074478
 30
0.0
 11
203.080297
 21
-83.574478
 31
0.0
 12
-2443.32739
 22
-637.342654
 32
0.0
  1
60,5
  3
UPLNE
100
AcDbAlignedDimension
 13
172.855297
 23
-232.384928
 33
0.0
 14
233.305297
 24
-149.884928
 34
0.0
100
AcDbRotatedDimension
1001
ACAD
1000
DSTYLE
1002
{
1070
    40
1040
3.0
1070
   147
1040
2.0
1002
}
  0
DIMENSION
  5
8A
100
AcDbEntity
  8
KOTY-UPLNE
100
AcDbDimension
  2
*D5
 10
583.205297
 20
-292.384928
 30
0.0
 11
572.705297
 21
-276.724928
 31
0.0
 12
-2443.32739
 22
-637.342654
 32
0.0
  3
UPLNE
100
AcDbAlignedDimension
 13
562.205297
 23
-149.884928
 33
0.0
 14
583.205297
 24
-149.884928
 34
0.0
100
AcDbRotatedDimension
1001
ACAD
1000
DSTYLE
1002
{
1070
    40
1040
3.0
1070
   147
1040
2.0
1002
}
  0
DIMENSION
  5
99
100
AcDbEntity
  8
KOTY-UPLNE
100
AcDbDimension
  2
*D6
 10
690.083808
 20
-149.884928
 30
0.0
 11
674.333808
 21
-131.385543
 31
0.0
 12
-2443.32739
 22
-637.342654
 32
0.0
 70
   128
  3
UPLNE
100
AcDbAlignedDimension
 13
572.705297
 23
-155.884928
 33
0.0
 14
632.205297
 24
-149.884928
 34
0.0
 50
90.0
100
AcDbRotatedDimension
1001
ACAD
1000
DSTYLE
1002
{
1070
    40
1040
3.0
1070
   147
1040
2.0
1002
}
  0
MTEXT
  5
A9
100
AcDbEntity
  8
POZICE
100
AcDbMText
 10
725.273537
 20
-155.194643
 30
0.0
 40
41.73
 41
1.0
 71
     5
 72
     1
  1
A
  7
STYLE1
  0
DIMENSION
  5
AB
100
AcDbEntity
  8
KOTY-UPLNE
100
AcDbDimension
  2
*D9
 10
1012.555297
 20
-232.384928
 30
0.0
 11
1173.102449
 21
-109.741202
 31
0.0
 12
-2443.32739
 22
-637.342654
 32
0.0
 70
   130
  1
56,58%%D
  3
UPLNE
100
AcDb2LineAngularDimension
 13
1012.555297
 23
-232.384928
 33
0.0
 14
992.555297
 24
-232.384928
 34
0.0
 15
1025.755297
 25
-212.384928
 35
0.0
 16
1184.040846
 26
-173.811383
 36
0.0
1001
ACAD
1000
DSTYLE
1002
{
1070
    40
1040
3.0
1070
   147
1040
2.0
1002
}
  0
DIMENSION
  5
BA
100
AcDbEntity
  8
KOTY-UPLNE
100
AcDbDimension
  2
*D14
 10
991.929794
 20
-149.884928
 30
0.0
 11
974.429794
 21
-178.634928
 31
0.0
 12
-2443.32739
 22
-637.342654
 32
0.0
  1
57,5
  3
UPLNE
100
AcDbAlignedDimension
 13
950.055297
 23
-207.384928
 33
0.0
 14
912.105297
 24
-149.884928
 34
0.0
 50
90.0
100
AcDbRotatedDimension
1001
ACAD
1000
DSTYLE
1002
{
1070
    40
1040
3.0
1070
   147
1040
2.0
1002
}
  0
DIMENSION
  5
C9
100
AcDbEntity
  8
KOTY-UPLNE
100
AcDbDimension
  2
*D13
 10
991.929794
 20
-207.384928
 30
0.0
 11
1011.842016
 21
-201.025299
 31
0.0
 12
-2443.32739
 22
-637.342654
 32
0.0
 70
   128
  3
UPLNE
100
AcDbAlignedDimension
 13
959.355297
 23
-212.384928
 33
0.0
 14
950.055297
 24
-207.384928
 34
0.0
 50
90.0
100
AcDbRotatedDimension
1001
ACAD
1000
DSTYLE
1002
{
1070
    40
1040
3.0
1070
   147
1040
2.0
1002
}
  0
MTEXT
  5
D9
100
AcDbEntity
  8
POZICE
100
AcDbMText
 10
822.340005
 20
-242.972745
 30
0.0
 40
41.73
 41
1.0
 71
     5
 72
     1
  1
B
  7
STYLE1
  0
DIMENSION
  5
DA
100
AcDbEntity
  8
KOTY-UPLNE
100
AcDbDimension
  2
*D10
 10
1025.755297
 20
-212.384928
 30
0.0
 11
1130.789014
 21
-198.406763
 31
0.0
 12
-2443.32739
 22
-637.342654
 32
0.0
 70
   130
  1
28,26%%D
  3
UPLNE
100
AcDb2LineAngularDimension
 13
1025.755297
 23
-212.384928
 33
0.0
 14
1115.025184
 24
-212.384928
 34
0.0
 15
1035.055297
 25
-207.384928
 35
0.0
 16
1105.615368
 26
-185.13196
 36
0.0
1001
ACAD
1000
DSTYLE
1002
{
1070
    40
1040
3.0
1070
   147
1040
2.0
1002
}
  0
LINE
  5
E8
100
AcDbEntity
  8
KOTY-UPLNE
100
AcDbLine
 10
1025.755297
 20
-212.384928
 30
0.0
 11
1115.025184
 21
-212.384928
 31
0.0
  0
DIMENSION
  5
E9
100
AcDbEntity
  8
KOTY-UPLNE
100
AcDbDimension
  2
*D12
 10
991.929794
 20
-212.384928
 30
0.0
 11
976.179794
 21
-257.373509
 31
0.0
 12
-2443.32739
 22
-637.342654
 32
0.0
 70
   128
  3
UPLNE
100
AcDbAlignedDimension
 13
972.555297
 23
-232.384928
 33
0.0
 14
959.355297
 24
-212.384928
 34
0.0
 50
90.0
100
AcDbRotatedDimension
1001
ACAD
1000
DSTYLE
1002
{
1070
    40
1040
3.0
1070
   147
1040
2.0
1002
}
  0
DIMENSION
  5
F9
100
AcDbEntity
  8
KOTY-UPLNE
100
AcDbDimension
  2
*D11
 10
1329.662524
 20
-149.884928
 30
0.0
 11
1312.162524
 21
-191.134928
 31
0.0
 12
-2443.32739
 22
-637.342654
 32
0.0
  1
82,5
  3
UPLNE
100
AcDbAlignedDimension
 13
1292.455297
 23
-232.384928
 33
0.0
 14
1192.005297
 24
-149.884928
 34
0.0
 50
90.0
100
AcDbRotatedDimension
1001
ACAD
1000
DSTYLE
1002
{
1070
    40
1040
3.0
1070
   147
1040
2.0
1002
}
  0
ENDSEC
  0
SECTION
  2
OBJECTS
  0
DICTIONARY
  5
1A
100
AcDbDictionary
  3
ACAD_GROUP
350
18
  3
ACAD_MLINESTYLE
350
19
  0
DICTIONARY
  5
18
102
{ACAD_REACTORS
330
1A
102
}
100
AcDbDictionary
  0
DICTIONARY
  5
19
102
{ACAD_REACTORS
330
1A
102
}
100
AcDbDictionary
  3
STANDARD
350
1C
  0
MLINESTYLE
  5
1C
102
{ACAD_REACTORS
330
19
102
}
100
AcDbMlineStyle
  2
STANDARD
 70
     0
  3

 62
   256
 51
90.0
 52
90.0
 71
     2
 49
0.5
 62
   256
  6
BYLAYER
 49
-0.5
 62
   256
  6
BYLAYER
  0
ENDSEC
  0
EOF
