  0
SECTION
  2
HEADER
  9
$ACADVER
  1
AC1014
  9
$ACADMAINTVER
 70
     0
  9
$DWGCODEPAGE
  3
ANSI_1250
  9
$INSBASE
 10
0.0
 20
0.0
 30
0.0
  9
$EXTMIN
 10
0.0
 20
-378.501233
 30
0.0
  9
$EXTMAX
 10
1349.672502
 20
0.0
 30
0.0
  9
$LIMMIN
 10
-1000.0
 20
-1000.0
  9
$LIMMAX
 10
1000.0
 20
1000.0
  9
$ORTHOMODE
 70
     0
  9
$REGENMODE
 70
     1
  9
$FILLMODE
 70
     1
  9
$QTEXTMODE
 70
     0
  9
$MIRRTEXT
 70
     0
  9
$DRAGMODE
 70
     2
  9
$LTSCALE
 40
3.0
  9
$OSMODE
 70
    32
  9
$ATTMODE
 70
     1
  9
$TEXTSIZE
 40
50.0
  9
$TRACEWID
 40
0.05
  9
$TEXTSTYLE
  7
STANDARD
  9
$CLAYER
  8
KOTY-UPLNE
  9
$CELTYPE
  6
BYLAYER
  9
$CECOLOR
 62
   256
  9
$CELTSCALE
 40
1.0
  9
$DELOBJ
 70
     1
  9
$DISPSILH
 70
     0
  9
$DIMSCALE
 40
3.0
  9
$DIMASZ
 40
5.0
  9
$DIMEXO
 40
1.0
  9
$DIMDLI
 40
0.0
  9
$DIMRND
 40
1.0
  9
$DIMDLE
 40
1.0
  9
$DIMEXE
 40
2.0
  9
$DIMTP
 40
0.0
  9
$DIMTM
 40
0.0
  9
$DIMTXT
 40
6.44
  9
$DIMCEN
 40
1.0
  9
$DIMTSZ
 40
0.0
  9
$DIMTOL
 70
     0
  9
$DIMLIM
 70
     0
  9
$DIMTIH
 70
     0
  9
$DIMTOH
 70
     0
  9
$DIMSE1
 70
     0
  9
$DIMSE2
 70
     0
  9
$DIMTAD
 70
     3
  9
$DIMZIN
 70
     0
  9
$DIMBLK
  1

  9
$DIMASO
 70
     1
  9
$DIMSHO
 70
     0
  9
$DIMPOST
  1

  9
$DIMAPOST
  1

  9
$DIMALT
 70
     0
  9
$DIMALTD
 70
     2
  9
$DIMALTF
 40
25.4
  9
$DIMLFAC
 40
1.0
  9
$DIMTOFL
 70
     1
  9
$DIMTVP
 40
0.0
  9
$DIMTIX
 70
     1
  9
$DIMSOXD
 70
     0
  9
$DIMSAH
 70
     0
  9
$DIMBLK1
  1

  9
$DIMBLK2
  1

  9
$DIMSTYLE
  2
UPLNE
  9
$DIMCLRD
 70
   256
  9
$DIMCLRE
 70
   256
  9
$DIMCLRT
 70
     5
  9
$DIMTFAC
 40
1.0
  9
$DIMGAP
 40
2.0
  9
$DIMJUST
 70
     0
  9
$DIMSD1
 70
     0
  9
$DIMSD2
 70
     0
  9
$DIMTOLJ
 70
     1
  9
$DIMTZIN
 70
     0
  9
$DIMALTZ
 70
     0
  9
$DIMALTTZ
 70
     0
  9
$DIMFIT
 70
     5
  9
$DIMUPT
 70
     0
  9
$DIMUNIT
 70
     2
  9
$DIMDEC
 70
     0
  9
$DIMTDEC
 70
     0
  9
$DIMALTU
 70
     2
  9
$DIMALTTD
 70
     2
  9
$DIMTXSTY
  7
STANDARD
  9
$DIMAUNIT
 70
     0
  9
$LUNITS
 70
     2
  9
$LUPREC
 70
     2
  9
$SKETCHINC
 40
0.1
  9
$FILLETRAD
 40
5.0
  9
$AUNITS
 70
     0
  9
$AUPREC
 70
     2
  9
$MENU
  1
acad
  9
$ELEVATION
 40
0.0
  9
$PELEVATION
 40
0.0
  9
$THICKNESS
 40
0.0
  9
$LIMCHECK
 70
     0
  9
$BLIPMODE
 70
     1
  9
$CHAMFERA
 40
0.0
  9
$CHAMFERB
 40
0.0
  9
$CHAMFERC
 40
0.0
  9
$CHAMFERD
 40
0.0
  9
$SKPOLY
 70
     0
  9
$TDCREATE
 40
2448722.252204629
  9
$TDUPDATE
 40
2452465.891998842
  9
$TDINDWG
 40
2.5235993056
  9
$TDUSRTIMER
 40
2.5235993056
  9
$USRTIMER
 70
     1
  9
$ANGBASE
 50
0.0
  9
$ANGDIR
 70
     0
  9
$PDMODE
 70
     0
  9
$PDSIZE
 40
0.0
  9
$PLINEWID
 40
0.0
  9
$COORDS
 70
     2
  9
$SPLFRAME
 70
     0
  9
$SPLINETYPE
 70
     6
  9
$SPLINESEGS
 70
     8
  9
$ATTDIA
 70
     0
  9
$ATTREQ
 70
     1
  9
$HANDLING
 70
     1
  9
$HANDSEED
  5
116
  9
$SURFTAB1
 70
     6
  9
$SURFTAB2
 70
     6
  9
$SURFTYPE
 70
     6
  9
$SURFU
 70
     6
  9
$SURFV
 70
     6
  9
$UCSNAME
  2

  9
$UCSORG
 10
0.0
 20
0.0
 30
0.0
  9
$UCSXDIR
 10
1.0
 20
0.0
 30
0.0
  9
$UCSYDIR
 10
0.0
 20
1.0
 30
0.0
  9
$PUCSNAME
  2

  9
$PUCSORG
 10
0.0
 20
0.0
 30
0.0
  9
$PUCSXDIR
 10
1.0
 20
0.0
 30
0.0
  9
$PUCSYDIR
 10
0.0
 20
1.0
 30
0.0
  9
$USERI1
 70
     1
  9
$USERI2
 70
     0
  9
$USERI3
 70
     0
  9
$USERI4
 70
     0
  9
$USERI5
 70
     0
  9
$USERR1
 40
0.0
  9
$USERR2
 40
0.0
  9
$USERR3
 40
0.0
  9
$USERR4
 40
0.0
  9
$USERR5
 40
0.0
  9
$WORLDVIEW
 70
     1
  9
$SHADEDGE
 70
     3
  9
$SHADEDIF
 70
    70
  9
$TILEMODE
 70
     1
  9
$MAXACTVP
 70
    16
  9
$PINSBASE
 10
0.0
 20
0.0
 30
0.0
  9
$PLIMCHECK
 70
     0
  9
$PEXTMIN
 10
1.000000E+20
 20
1.000000E+20
 30
1.000000E+20
  9
$PEXTMAX
 10
-1.000000E+20
 20
-1.000000E+20
 30
-1.000000E+20
  9
$PLIMMIN
 10
0.0
 20
0.0
  9
$PLIMMAX
 10
12.0
 20
9.0
  9
$UNITMODE
 70
     0
  9
$VISRETAIN
 70
     0
  9
$PLINEGEN
 70
     0
  9
$PSLTSCALE
 70
     0
  9
$TREEDEPTH
 70
  3020
  9
$PICKSTYLE
 70
     0
  9
$CMLSTYLE
  2
STANDARD
  9
$CMLJUST
 70
     0
  9
$CMLSCALE
 40
1.0
  9
$PROXYGRAPHICS
 70
     1
  9
$MEASUREMENT
 70
     0
  0
ENDSEC
  0
SECTION
  2
CLASSES
  0
CLASS
  1
LWPOLYLINE
  2
AcDbPolyline
  3
"AutoCAD"
 90
        0
280
     0
281
     1
  0
CLASS
  1
DICTIONARYVAR
  2
AcDbDictionaryVar
  3
"AutoCAD"
 90
        0
280
     0
281
     0
  0
ENDSEC
  0
SECTION
  2
TABLES
  0
TABLE
  2
VPORT
  5
12
100
AcDbSymbolTable
 70
     2
  0
VPORT
  5
115
100
AcDbSymbolTableRecord
100
AcDbViewportTableRecord
  2
*ACTIVE
 70
     0
 10
0.0
 20
0.0
 11
1.0
 21
1.0
 12
759.256401
 22
-150.512646
 13
0.0
 23
0.0
 14
1.0
 24
1.0
 15
600.0
 25
600.0
 16
0.0
 26
0.0
 36
1.0
 17
0.0
 27
0.0
 37
0.0
 40
698.613839
 41
2.224444
 42
50.0
 43
0.0
 44
0.0
 50
0.0
 51
0.0
 71
     0
 72
   100
 73
     1
 74
     0
 75
     0
 76
     0
 77
     0
 78
     0
  0
ENDTAB
  0
TABLE
  2
LTYPE
  5
D
100
AcDbSymbolTable
 70
     1
  0
LTYPE
  5
E
100
AcDbSymbolTableRecord
100
AcDbLinetypeTableRecord
  2
BYBLOCK
 70
     0
  3

 72
    65
 73
     0
 40
0.0
  0
LTYPE
  5
F
100
AcDbSymbolTableRecord
100
AcDbLinetypeTableRecord
  2
BYLAYER
 70
     0
  3

 72
    65
 73
     0
 40
0.0
  0
LTYPE
  5
5
100
AcDbSymbolTableRecord
100
AcDbLinetypeTableRecord
  2
CONTINUOUS
 70
     0
  3
Solid line
 72
    65
 73
     0
 40
0.0
  0
ENDTAB
  0
TABLE
  2
LAYER
  5
A
100
AcDbSymbolTable
 70
     7
  0
LAYER
  5
4
100
AcDbSymbolTableRecord
100
AcDbLayerTableRecord
  2
0
 70
     0
 62
     7
  6
CONTINUOUS
  0
LAYER
  5
1B
100
AcDbSymbolTableRecord
100
AcDbLayerTableRecord
  2
KOTY-UPLNE
 70
     0
 62
     7
  6
CONTINUOUS
  0
LAYER
  5
5B
100
AcDbSymbolTableRecord
100
AcDbLayerTableRecord
  2
RAMEC
 70
     0
 62
     5
  6
CONTINUOUS
  0
LAYER
  5
58
100
AcDbSymbolTableRecord
100
AcDbLayerTableRecord
  2
POZICE
 70
     0
 62
     1
  6
CONTINUOUS
  0
LAYER
  5
6F
100
AcDbSymbolTableRecord
100
AcDbLayerTableRecord
  2
POPIS
 70
     0
 62
     1
  6
CONTINUOUS
  0
LAYER
  5
29
100
AcDbSymbolTableRecord
100
AcDbLayerTableRecord
  2
DEFPOINTS
 70
     0
 62
     7
  6
CONTINUOUS
  0
LAYER
  5
6D
100
AcDbSymbolTableRecord
100
AcDbLayerTableRecord
  2
TRAPEZ-VELKY
 70
     0
 62
     7
  6
CONTINUOUS
  0
ENDTAB
  0
TABLE
  2
STYLE
  5
B
100
AcDbSymbolTable
 70
     2
  0
STYLE
  5
C
100
AcDbSymbolTableRecord
100
AcDbTextStyleTableRecord
  2
STANDARD
 70
     0
 40
0.0
 41
0.9
 50
0.0
 71
     0
 42
50.0
  3
simplex.shx
  4

  0
STYLE
  5
59
100
AcDbSymbolTableRecord
100
AcDbTextStyleTableRecord
  2
STYLE1
 70
     0
 40
0.0
 41
0.9
 50
0.0
 71
     0
 42
50.0
  3
simplex.shx
  4

  0
ENDTAB
  0
TABLE
  2
VIEW
  5
10
100
AcDbSymbolTable
 70
     0
  0
ENDTAB
  0
TABLE
  2
UCS
  5
11
100
AcDbSymbolTable
 70
     0
  0
ENDTAB
  0
TABLE
  2
APPID
  5
14
100
AcDbSymbolTable
 70
     1
  0
APPID
  5
15
100
AcDbSymbolTableRecord
100
AcDbRegAppTableRecord
  2
ACAD
 70
     0
  0
ENDTAB
  0
TABLE
  2
DIMSTYLE
  5
16
100
AcDbSymbolTable
 70
     1
  0
DIMSTYLE
105
1D
102
{ACAD_REACTORS
330
70
330
8E
330
7F
330
4A
330
3D
330
2E
330
5C
330
C3
330
9B
330
B3
330
102
330
F2
330
E2
330
D3
330
1E
102
}
100
AcDbSymbolTableRecord
100
AcDbDimStyleTableRecord
  2
UPLNE
 70
     0
  3

  4

  5

  6

  7

 40
5.0
 41
5.0
 42
1.0
 43
0.0
 44
2.0
 45
1.0
 46
1.0
 47
0.0
 48
0.0
140
6.44
141
1.0
142
0.0
143
25.4
144
1.0
145
0.0
146
1.0
147
1.0
 71
     0
 72
     0
 73
     0
 74
     0
 75
     0
 76
     0
 77
     3
 78
     0
170
     0
171
     2
172
     1
173
     0
174
     1
175
     0
176
   256
177
   256
178
     5
270
     2
271
     0
272
     0
273
     2
274
     2
340
C
275
     0
280
     0
281
     0
282
     0
283
     1
284
     0
285
     0
286
     0
287
     5
288
     0
  0
ENDTAB
  0
TABLE
  2
BLOCK_RECORD
  5
1
100
AcDbSymbolTable
 70
    15
  0
BLOCK_RECORD
  5
2
100
AcDbSymbolTableRecord
100
AcDbBlockTableRecord
  2
*MODEL_SPACE
  0
BLOCK_RECORD
  5
7
100
AcDbSymbolTableRecord
100
AcDbBlockTableRecord
  2
*PAPER_SPACE
  0
BLOCK_RECORD
  5
71
100
AcDbSymbolTableRecord
100
AcDbBlockTableRecord
  2
*D0
  0
BLOCK_RECORD
  5
8F
100
AcDbSymbolTableRecord
100
AcDbBlockTableRecord
  2
*D1
  0
BLOCK_RECORD
  5
80
100
AcDbSymbolTableRecord
100
AcDbBlockTableRecord
  2
*D2
  0
BLOCK_RECORD
  5
4B
100
AcDbSymbolTableRecord
100
AcDbBlockTableRecord
  2
*D3
  0
BLOCK_RECORD
  5
3E
100
AcDbSymbolTableRecord
100
AcDbBlockTableRecord
  2
*D4
  0
BLOCK_RECORD
  5
2F
100
AcDbSymbolTableRecord
100
AcDbBlockTableRecord
  2
*D5
  0
BLOCK_RECORD
  5
5D
100
AcDbSymbolTableRecord
100
AcDbBlockTableRecord
  2
*D6
  0
BLOCK_RECORD
  5
C4
100
AcDbSymbolTableRecord
100
AcDbBlockTableRecord
  2
*D7
  0
BLOCK_RECORD
  5
9C
100
AcDbSymbolTableRecord
100
AcDbBlockTableRecord
  2
*D8
  0
BLOCK_RECORD
  5
B4
100
AcDbSymbolTableRecord
100
AcDbBlockTableRecord
  2
*D9
  0
BLOCK_RECORD
  5
103
100
AcDbSymbolTableRecord
100
AcDbBlockTableRecord
  2
*D10
  0
BLOCK_RECORD
  5
F3
100
AcDbSymbolTableRecord
100
AcDbBlockTableRecord
  2
*D11
  0
BLOCK_RECORD
  5
E3
100
AcDbSymbolTableRecord
100
AcDbBlockTableRecord
  2
*D12
  0
BLOCK_RECORD
  5
D4
100
AcDbSymbolTableRecord
100
AcDbBlockTableRecord
  2
*D13
  0
BLOCK_RECORD
  5
1F
100
AcDbSymbolTableRecord
100
AcDbBlockTableRecord
  2
*D14
  0
ENDTAB
  0
ENDSEC
  0
SECTION
  2
BLOCKS
  0
BLOCK
  5
3
100
AcDbEntity
  8
0
100
AcDbBlockBegin
  2
*MODEL_SPACE
 70
     0
 10
0.0
 20
0.0
 30
0.0
  3
*MODEL_SPACE
  1

  0
ENDBLK
  5
6
100
AcDbEntity
  8
0
100
AcDbBlockEnd
  0
BLOCK
  5
8
100
AcDbEntity
 67
     1
  8
0
100
AcDbBlockBegin
  2
*PAPER_SPACE
 70
     0
 10
0.0
 20
0.0
 30
0.0
  3
*PAPER_SPACE
  1

  0
ENDBLK
  5
9
100
AcDbEntity
 67
     1
  8
0
100
AcDbBlockEnd
  0
BLOCK
  5
7D
100
AcDbEntity
  8
0
100
AcDbBlockBegin
  2
*D0
 70
     1
 10
0.0
 20
0.0
 30
0.0
  3
*D0
  1

  0
LINE
  5
72
100
AcDbEntity
  8
0
  6
BYBLOCK
100
AcDbLine
 10
1116.182687
 20
-3769.042274
 30
0.0
 11
1116.182687
 21
-3667.731824
 31
0.0
  0
LINE
  5
73
100
AcDbEntity
  8
0
  6
BYBLOCK
100
AcDbLine
 10
1153.685043
 20
-3709.542274
 30
0.0
 11
1153.685043
 21
-3667.731824
 31
0.0
  0
LINE
  5
74
100
AcDbEntity
  8
0
  6
BYBLOCK
100
AcDbLine
 10
1101.182687
 20
-3673.731824
 30
0.0
 11
1086.182687
 21
-3673.731824
 31
0.0
  0
LINE
  5
75
100
AcDbEntity
  8
0
  6
BYBLOCK
100
AcDbLine
 10
1168.685043
 20
-3673.731824
 30
0.0
 11
1183.685043
 21
-3673.731824
 31
0.0
  0
LINE
  5
76
100
AcDbEntity
  8
0
  6
BYBLOCK
100
AcDbLine
 10
1116.182687
 20
-3673.731824
 30
0.0
 11
1153.685043
 21
-3673.731824
 31
0.0
  0
SOLID
  5
77
100
AcDbEntity
  8
0
  6
BYBLOCK
100
AcDbTrace
 10
1101.182687
 20
-3671.231824
 30
0.0
 11
1101.182687
 21
-3676.231824
 31
0.0
 12
1116.182687
 22
-3673.731824
 32
0.0
 13
1116.182687
 23
-3673.731824
 33
0.0
  0
SOLID
  5
78
100
AcDbEntity
  8
0
  6
BYBLOCK
100
AcDbTrace
 10
1168.685043
 20
-3671.231824
 30
0.0
 11
1168.685043
 21
-3676.231824
 31
0.0
 12
1153.685043
 22
-3673.731824
 32
0.0
 13
1153.685043
 23
-3673.731824
 33
0.0
  0
MTEXT
  5
79
100
AcDbEntity
  8
0
  6
BYBLOCK
 62
     5
100
AcDbMText
 10
1134.933865
 20
-3656.231824
 30
0.0
 40
19.32
 41
0.0
 71
     5
 72
     1
  1
\A1;37,5
  0
POINT
  5
7A
100
AcDbEntity
  8
DEFPOINTS
  6
BYBLOCK
 62
     0
100
AcDbPoint
 10
1116.182687
 20
-3772.042274
 30
0.0
  0
POINT
  5
7B
100
AcDbEntity
  8
DEFPOINTS
  6
BYBLOCK
 62
     0
100
AcDbPoint
 10
1153.685043
 20
-3712.542274
 30
0.0
  0
POINT
  5
7C
100
AcDbEntity
  8
DEFPOINTS
  6
BYBLOCK
 62
     0
100
AcDbPoint
 10
1153.685043
 20
-3673.731824
 30
0.0
  0
ENDBLK
  5
7E
100
AcDbEntity
  8
0
100
AcDbBlockEnd
  0
BLOCK
  5
99
100
AcDbEntity
  8
0
100
AcDbBlockBegin
  2
*D1
 70
     1
 10
0.0
 20
0.0
 30
0.0
  3
*D1
  1

  0
LINE
  5
90
100
AcDbEntity
  8
0
  6
BYBLOCK
100
AcDbLine
 10
1153.685043
 20
-3709.542274
 30
0.0
 11
1153.685043
 21
-3667.731824
 31
0.0
  0
LINE
  5
91
100
AcDbEntity
  8
0
  6
BYBLOCK
100
AcDbLine
 10
1273.685043
 20
-3709.542274
 30
0.0
 11
1273.685043
 21
-3667.731824
 31
0.0
  0
LINE
  5
92
100
AcDbEntity
  8
0
  6
BYBLOCK
100
AcDbLine
 10
1168.685043
 20
-3673.731824
 30
0.0
 11
1258.685043
 21
-3673.731824
 31
0.0
  0
SOLID
  5
93
100
AcDbEntity
  8
0
  6
BYBLOCK
100
AcDbTrace
 10
1168.685043
 20
-3671.231824
 30
0.0
 11
1168.685043
 21
-3676.231824
 31
0.0
 12
1153.685043
 22
-3673.731824
 32
0.0
 13
1153.685043
 23
-3673.731824
 33
0.0
  0
SOLID
  5
94
100
AcDbEntity
  8
0
  6
BYBLOCK
100
AcDbTrace
 10
1258.685043
 20
-3671.231824
 30
0.0
 11
1258.685043
 21
-3676.231824
 31
0.0
 12
1273.685043
 22
-3673.731824
 32
0.0
 13
1273.685043
 23
-3673.731824
 33
0.0
  0
MTEXT
  5
95
100
AcDbEntity
  8
0
  6
BYBLOCK
 62
     5
100
AcDbMText
 10
1213.685043
 20
-3658.071824
 30
0.0
 40
19.32
 41
0.0
 71
     5
 72
     1
  1
\A1;120
  0
POINT
  5
96
100
AcDbEntity
  8
DEFPOINTS
  6
BYBLOCK
 62
     0
100
AcDbPoint
 10
1153.685043
 20
-3712.542274
 30
0.0
  0
POINT
  5
97
100
AcDbEntity
  8
DEFPOINTS
  6
BYBLOCK
 62
     0
100
AcDbPoint
 10
1273.685043
 20
-3712.542274
 30
0.0
  0
POINT
  5
98
100
AcDbEntity
  8
DEFPOINTS
  6
BYBLOCK
 62
     0
100
AcDbPoint
 10
1273.685043
 20
-3673.731824
 30
0.0
  0
ENDBLK
  5
9A
100
AcDbEntity
  8
0
100
AcDbBlockEnd
  0
BLOCK
  5
8C
100
AcDbEntity
  8
0
100
AcDbBlockBegin
  2
*D2
 70
     1
 10
0.0
 20
0.0
 30
0.0
  3
*D2
  1

  0
LINE
  5
81
100
AcDbEntity
  8
0
  6
BYBLOCK
100
AcDbLine
 10
1273.685043
 20
-3709.542274
 30
0.0
 11
1273.685043
 21
-3667.731824
 31
0.0
  0
LINE
  5
82
100
AcDbEntity
  8
0
  6
BYBLOCK
100
AcDbLine
 10
1311.1874
 20
-3769.042274
 30
0.0
 11
1311.1874
 21
-3667.731824
 31
0.0
  0
LINE
  5
83
100
AcDbEntity
  8
0
  6
BYBLOCK
100
AcDbLine
 10
1258.685043
 20
-3673.731824
 30
0.0
 11
1243.685043
 21
-3673.731824
 31
0.0
  0
LINE
  5
84
100
AcDbEntity
  8
0
  6
BYBLOCK
100
AcDbLine
 10
1326.1874
 20
-3673.731824
 30
0.0
 11
1341.1874
 21
-3673.731824
 31
0.0
  0
LINE
  5
85
100
AcDbEntity
  8
0
  6
BYBLOCK
100
AcDbLine
 10
1273.685043
 20
-3673.731824
 30
0.0
 11
1311.1874
 21
-3673.731824
 31
0.0
  0
SOLID
  5
86
100
AcDbEntity
  8
0
  6
BYBLOCK
100
AcDbTrace
 10
1258.685043
 20
-3671.231824
 30
0.0
 11
1258.685043
 21
-3676.231824
 31
0.0
 12
1273.685043
 22
-3673.731824
 32
0.0
 13
1273.685043
 23
-3673.731824
 33
0.0
  0
SOLID
  5
87
100
AcDbEntity
  8
0
  6
BYBLOCK
100
AcDbTrace
 10
1326.1874
 20
-3671.231824
 30
0.0
 11
1326.1874
 21
-3676.231824
 31
0.0
 12
1311.1874
 22
-3673.731824
 32
0.0
 13
1311.1874
 23
-3673.731824
 33
0.0
  0
MTEXT
  5
88
100
AcDbEntity
  8
0
  6
BYBLOCK
 62
     5
100
AcDbMText
 10
1292.436222
 20
-3656.231824
 30
0.0
 40
19.32
 41
0.0
 71
     5
 72
     1
  1
\A1;37,5
  0
POINT
  5
89
100
AcDbEntity
  8
DEFPOINTS
  6
BYBLOCK
 62
     0
100
AcDbPoint
 10
1273.685043
 20
-3712.542274
 30
0.0
  0
POINT
  5
8A
100
AcDbEntity
  8
DEFPOINTS
  6
BYBLOCK
 62
     0
100
AcDbPoint
 10
1311.1874
 20
-3772.042274
 30
0.0
  0
POINT
  5
8B
100
AcDbEntity
  8
DEFPOINTS
  6
BYBLOCK
 62
     0
100
AcDbPoint
 10
1311.1874
 20
-3673.731824
 30
0.0
  0
ENDBLK
  5
8D
100
AcDbEntity
  8
0
100
AcDbBlockEnd
  0
BLOCK
  5
55
100
AcDbEntity
  8
0
100
AcDbBlockBegin
  2
*D3
 70
     1
 10
0.0
 20
0.0
 30
0.0
  3
*D3
  1

  0
LINE
  5
4C
100
AcDbEntity
  8
0
  6
BYBLOCK
100
AcDbLine
 10
1096.182687
 20
-3775.042274
 30
0.0
 11
1096.182687
 21
-3838.042274
 31
0.0
  0
LINE
  5
4D
100
AcDbEntity
  8
0
  6
BYBLOCK
100
AcDbLine
 10
1331.1874
 20
-3775.042274
 30
0.0
 11
1331.1874
 21
-3838.042274
 31
0.0
  0
LINE
  5
4E
100
AcDbEntity
  8
0
  6
BYBLOCK
100
AcDbLine
 10
1111.182687
 20
-3832.042274
 30
0.0
 11
1316.1874
 21
-3832.042274
 31
0.0
  0
SOLID
  5
4F
100
AcDbEntity
  8
0
  6
BYBLOCK
100
AcDbTrace
 10
1111.182687
 20
-3829.542274
 30
0.0
 11
1111.182687
 21
-3834.542274
 31
0.0
 12
1096.182687
 22
-3832.042274
 32
0.0
 13
1096.182687
 23
-3832.042274
 33
0.0
  0
SOLID
  5
50
100
AcDbEntity
  8
0
  6
BYBLOCK
100
AcDbTrace
 10
1316.1874
 20
-3829.542274
 30
0.0
 11
1316.1874
 21
-3834.542274
 31
0.0
 12
1331.1874
 22
-3832.042274
 32
0.0
 13
1331.1874
 23
-3832.042274
 33
0.0
  0
MTEXT
  5
51
100
AcDbEntity
  8
0
  6
BYBLOCK
 62
     5
100
AcDbMText
 10
1213.685043
 20
-3816.382274
 30
0.0
 40
19.32
 41
0.0
 71
     5
 72
     1
  1
\A1;235
  0
POINT
  5
52
100
AcDbEntity
  8
DEFPOINTS
  6
BYBLOCK
 62
     0
100
AcDbPoint
 10
1096.182687
 20
-3772.042274
 30
0.0
  0
POINT
  5
53
100
AcDbEntity
  8
DEFPOINTS
  6
BYBLOCK
 62
     0
100
AcDbPoint
 10
1331.1874
 20
-3772.042274
 30
0.0
  0
POINT
  5
54
100
AcDbEntity
  8
DEFPOINTS
  6
BYBLOCK
 62
     0
100
AcDbPoint
 10
1331.1874
 20
-3832.042274
 30
0.0
  0
ENDBLK
  5
56
100
AcDbEntity
  8
0
100
AcDbBlockEnd
  0
BLOCK
  5
48
100
AcDbEntity
  8
0
100
AcDbBlockBegin
  2
*D4
 70
     1
 10
0.0
 20
0.0
 30
0.0
  3
*D4
  1

  0
LINE
  5
3F
100
AcDbEntity
  8
0
  6
BYBLOCK
100
AcDbLine
 10
1096.182687
 20
-3790.042274
 30
0.0
 11
1096.182687
 21
-3898.042274
 31
0.0
  0
LINE
  5
40
100
AcDbEntity
  8
0
  6
BYBLOCK
100
AcDbLine
 10
2036.201537
 20
-3775.042274
 30
0.0
 11
2036.201537
 21
-3898.042274
 31
0.0
  0
LINE
  5
41
100
AcDbEntity
  8
0
  6
BYBLOCK
100
AcDbLine
 10
1111.182687
 20
-3892.042274
 30
0.0
 11
2021.201537
 21
-3892.042274
 31
0.0
  0
SOLID
  5
42
100
AcDbEntity
  8
0
  6
BYBLOCK
100
AcDbTrace
 10
1111.182687
 20
-3889.542274
 30
0.0
 11
1111.182687
 21
-3894.542274
 31
0.0
 12
1096.182687
 22
-3892.042274
 32
0.0
 13
1096.182687
 23
-3892.042274
 33
0.0
  0
SOLID
  5
43
100
AcDbEntity
  8
0
  6
BYBLOCK
100
AcDbTrace
 10
2021.201537
 20
-3889.542274
 30
0.0
 11
2021.201537
 21
-3894.542274
 31
0.0
 12
2036.201537
 22
-3892.042274
 32
0.0
 13
2036.201537
 23
-3892.042274
 33
0.0
  0
MTEXT
  5
44
100
AcDbEntity
  8
0
  6
BYBLOCK
 62
     5
100
AcDbMText
 10
1566.192112
 20
-3876.382274
 30
0.0
 40
19.32
 41
0.0
 71
     5
 72
     1
  1
\A1;940
  0
POINT
  5
45
100
AcDbEntity
  8
DEFPOINTS
  6
BYBLOCK
 62
     0
100
AcDbPoint
 10
1096.182687
 20
-3787.042274
 30
0.0
  0
POINT
  5
46
100
AcDbEntity
  8
DEFPOINTS
  6
BYBLOCK
 62
     0
100
AcDbPoint
 10
2036.201537
 20
-3772.042274
 30
0.0
  0
POINT
  5
47
100
AcDbEntity
  8
DEFPOINTS
  6
BYBLOCK
 62
     0
100
AcDbPoint
 10
2036.201537
 20
-3892.042274
 30
0.0
  0
ENDBLK
  5
49
100
AcDbEntity
  8
0
100
AcDbBlockEnd
  0
BLOCK
  5
3B
100
AcDbEntity
  8
0
100
AcDbBlockBegin
  2
*D5
 70
     1
 10
0.0
 20
0.0
 30
0.0
  3
*D5
  1

  0
LINE
  5
30
100
AcDbEntity
  8
0
  6
BYBLOCK
100
AcDbLine
 10
1436.957705
 20
-3715.542274
 30
0.0
 11
1436.957705
 21
-3838.042274
 31
0.0
  0
LINE
  5
31
100
AcDbEntity
  8
0
  6
BYBLOCK
100
AcDbLine
 10
1460.421807
 20
-3715.542274
 30
0.0
 11
1460.421807
 21
-3838.042274
 31
0.0
  0
LINE
  5
32
100
AcDbEntity
  8
0
  6
BYBLOCK
100
AcDbLine
 10
1421.957705
 20
-3832.042274
 30
0.0
 11
1406.957705
 21
-3832.042274
 31
0.0
  0
LINE
  5
33
100
AcDbEntity
  8
0
  6
BYBLOCK
100
AcDbLine
 10
1475.421807
 20
-3832.042274
 30
0.0
 11
1490.421807
 21
-3832.042274
 31
0.0
  0
LINE
  5
34
100
AcDbEntity
  8
0
  6
BYBLOCK
100
AcDbLine
 10
1436.957705
 20
-3832.042274
 30
0.0
 11
1460.421807
 21
-3832.042274
 31
0.0
  0
SOLID
  5
35
100
AcDbEntity
  8
0
  6
BYBLOCK
100
AcDbTrace
 10
1421.957705
 20
-3829.542274
 30
0.0
 11
1421.957705
 21
-3834.542274
 31
0.0
 12
1436.957705
 22
-3832.042274
 32
0.0
 13
1436.957705
 23
-3832.042274
 33
0.0
  0
SOLID
  5
36
100
AcDbEntity
  8
0
  6
BYBLOCK
100
AcDbTrace
 10
1475.421807
 20
-3829.542274
 30
0.0
 11
1475.421807
 21
-3834.542274
 31
0.0
 12
1460.421807
 22
-3832.042274
 32
0.0
 13
1460.421807
 23
-3832.042274
 33
0.0
  0
MTEXT
  5
37
100
AcDbEntity
  8
0
  6
BYBLOCK
 62
     5
100
AcDbMText
 10
1448.689756
 20
-3814.542274
 30
0.0
 40
19.32
 41
0.0
 71
     5
 72
     1
  1
\A1;23,46
  0
POINT
  5
38
100
AcDbEntity
  8
DEFPOINTS
  6
BYBLOCK
 62
     0
100
AcDbPoint
 10
1436.957705
 20
-3712.542274
 30
0.0
  0
POINT
  5
39
100
AcDbEntity
  8
DEFPOINTS
  6
BYBLOCK
 62
     0
100
AcDbPoint
 10
1460.421807
 20
-3712.542274
 30
0.0
  0
POINT
  5
3A
100
AcDbEntity
  8
DEFPOINTS
  6
BYBLOCK
 62
     0
100
AcDbPoint
 10
1460.421807
 20
-3832.042274
 30
0.0
  0
ENDBLK
  5
3C
100
AcDbEntity
  8
0
100
AcDbBlockEnd
  0
BLOCK
  5
6A
100
AcDbEntity
  8
0
100
AcDbBlockBegin
  2
*D6
 70
     1
 10
0.0
 20
0.0
 30
0.0
  3
*D6
  1

  0
LINE
  5
5E
100
AcDbEntity
  8
0
  6
BYBLOCK
100
AcDbLine
 10
1511.689756
 20
-3712.542274
 30
0.0
 11
1565.266588
 21
-3712.542274
 31
0.0
  0
LINE
  5
5F
100
AcDbEntity
  8
0
  6
BYBLOCK
100
AcDbLine
 10
1451.689756
 20
-3718.542274
 30
0.0
 11
1565.266588
 21
-3718.542274
 31
0.0
  0
LINE
  5
60
100
AcDbEntity
  8
0
  6
BYBLOCK
100
AcDbLine
 10
1559.266588
 20
-3697.542274
 30
0.0
 11
1559.266588
 21
-3682.542274
 31
0.0
  0
LINE
  5
61
100
AcDbEntity
  8
0
  6
BYBLOCK
100
AcDbLine
 10
1559.266588
 20
-3733.542274
 30
0.0
 11
1559.266588
 21
-3748.542274
 31
0.0
  0
MTEXT
  5
62
100
AcDbEntity
  8
0
  6
BYBLOCK
 62
     5
100
AcDbMText
 10
1543.516588
 20
-3699.854625
 30
0.0
 40
19.32
 41
0.0
 71
     5
 72
     1
  1
\A1;6
 11
0.0
 21
1.0
 31
0.0
  0
LINE
  5
63
100
AcDbEntity
  8
0
  6
BYBLOCK
100
AcDbLine
 10
1559.266588
 20
-3712.542274
 30
0.0
 11
1559.266588
 21
-3718.542274
 31
0.0
  0
LINE
  5
64
100
AcDbEntity
  8
0
  6
BYBLOCK
100
AcDbLine
 10
1559.266588
 20
-3712.542274
 30
0.0
 11
1559.266588
 21
-3718.542274
 31
0.0
  0
SOLID
  5
65
100
AcDbEntity
  8
0
  6
BYBLOCK
100
AcDbTrace
 10
1556.766588
 20
-3697.542274
 30
0.0
 11
1561.766588
 21
-3697.542274
 31
0.0
 12
1559.266588
 22
-3712.542274
 32
0.0
 13
1559.266588
 23
-3712.542274
 33
0.0
  0
SOLID
  5
66
100
AcDbEntity
  8
0
  6
BYBLOCK
100
AcDbTrace
 10
1556.766588
 20
-3733.542274
 30
0.0
 11
1561.766588
 21
-3733.542274
 31
0.0
 12
1559.266588
 22
-3718.542274
 32
0.0
 13
1559.266588
 23
-3718.542274
 33
0.0
  0
POINT
  5
67
100
AcDbEntity
  8
DEFPOINTS
  6
BYBLOCK
 62
     0
100
AcDbPoint
 10
1508.689756
 20
-3712.542274
 30
0.0
  0
POINT
  5
68
100
AcDbEntity
  8
DEFPOINTS
  6
BYBLOCK
 62
     0
100
AcDbPoint
 10
1448.689756
 20
-3718.542274
 30
0.0
  0
POINT
  5
69
100
AcDbEntity
  8
DEFPOINTS
  6
BYBLOCK
 62
     0
100
AcDbPoint
 10
1559.266588
 20
-3718.542274
 30
0.0
  0
ENDBLK
  5
6B
100
AcDbEntity
  8
0
100
AcDbBlockEnd
  0
BLOCK
  5
CF
100
AcDbEntity
  8
0
100
AcDbBlockBegin
  2
*D7
 70
     1
 10
0.0
 20
0.0
 30
0.0
  3
*D7
  1

  0
LINE
  5
C5
100
AcDbEntity
  8
0
  6
BYBLOCK
100
AcDbLine
 10
1840.74928
 20
-3749.031129
 30
0.0
 11
1879.523582
 21
-3722.105517
 31
0.0
  0
ARC
  5
C6
100
AcDbEntity
  8
0
  6
BYBLOCK
100
AcDbCircle
 10
1829.212809
 20
-3757.042274
 30
0.0
 40
55.251538
100
AcDbArc
 50
15.603152
 51
19.173695
  0
SOLID
  5
C7
100
AcDbEntity
  8
0
  6
BYBLOCK
100
AcDbTrace
 10
1884.905065
 20
-3741.841756
 30
0.0
 11
1879.951344
 21
-3742.52047
 31
0.0
 12
1884.464347
 22
-3757.042274
 32
0.0
 13
1884.464347
 23
-3757.042274
 33
0.0
  0
SOLID
  5
C8
100
AcDbEntity
  8
0
  6
BYBLOCK
100
AcDbTrace
 10
1879.171386
 20
-3740.029858
 30
0.0
 11
1883.627398
 21
-3737.761828
 31
0.0
 12
1874.595304
 22
-3725.527807
 32
0.0
 13
1874.595304
 23
-3725.527807
 33
0.0
  0
MTEXT
  5
C9
100
AcDbEntity
  8
0
  6
BYBLOCK
 62
     5
100
AcDbMText
 10
1896.883741
 20
-3735.850503
 30
0.0
 40
19.32
 41
0.0
 71
     5
 72
     1
  1
\A1;35°
 11
0.298848
 21
-0.954301
 31
0.0
  0
POINT
  5
CA
100
AcDbEntity
  8
DEFPOINTS
  6
BYBLOCK
 62
     0
100
AcDbPoint
 10
1883.337344
 20
-3745.9397
 30
0.0
  0
POINT
  5
CB
100
AcDbEntity
  8
DEFPOINTS
  6
BYBLOCK
 62
     0
100
AcDbPoint
 10
1838.285141
 20
-3750.742274
 30
0.0
  0
POINT
  5
CC
100
AcDbEntity
  8
DEFPOINTS
  6
BYBLOCK
 62
     0
100
AcDbPoint
 10
1829.212809
 20
-3757.042274
 30
0.0
  0
POINT
  5
CD
100
AcDbEntity
  8
DEFPOINTS
  6
BYBLOCK
 62
     0
100
AcDbPoint
 10
1929.515229
 20
-3757.042274
 30
0.0
  0
POINT
  5
CE
100
AcDbEntity
  8
DEFPOINTS
  6
BYBLOCK
 62
     0
100
AcDbPoint
 10
1829.212809
 20
-3757.042274
 30
0.0
  0
ENDBLK
  5
D0
100
AcDbEntity
  8
0
100
AcDbBlockEnd
  0
BLOCK
  5
A8
100
AcDbEntity
  8
0
100
AcDbBlockBegin
  2
*D8
 70
     1
 10
0.0
 20
0.0
 30
0.0
  3
*D8
  1

  0
LINE
  5
9D
100
AcDbEntity
  8
0
  6
BYBLOCK
100
AcDbLine
 10
1824.196824
 20
-3772.042274
 30
0.0
 11
1975.498518
 21
-3772.042274
 31
0.0
  0
LINE
  5
9E
100
AcDbEntity
  8
0
  6
BYBLOCK
100
AcDbLine
 10
1830.626768
 20
-3754.396387
 30
0.0
 11
1893.922264
 21
-3635.953983
 31
0.0
  0
ARC
  5
9F
100
AcDbEntity
  8
0
  6
BYBLOCK
100
AcDbCircle
 10
1821.196824
 20
-3772.042274
 30
0.0
 40
148.301694
100
AcDbArc
 50
5.797664
 51
56.082336
  0
SOLID
  5
A0
100
AcDbEntity
  8
0
  6
BYBLOCK
100
AcDbTrace
 10
1971.23673
 20
-3756.935037
 30
0.0
 11
1966.243128
 21
-3757.1879
 31
0.0
 12
1969.498518
 22
-3772.042274
 32
0.0
 13
1969.498518
 23
-3772.042274
 33
0.0
  0
SOLID
  5
A1
100
AcDbEntity
  8
0
  6
BYBLOCK
100
AcDbTrace
 10
1902.661015
 20
-3651.118049
 30
0.0
 11
1905.237614
 21
-3646.833059
 31
0.0
 12
1891.094345
 22
-3641.245757
 32
0.0
 13
1891.094345
 23
-3641.245757
 33
0.0
  0
MTEXT
  5
A2
100
AcDbEntity
  8
0
  6
BYBLOCK
 62
     5
100
AcDbMText
 10
1951.181207
 20
-3667.00723
 30
0.0
 40
19.32
 41
0.0
 71
     5
 72
     1
  1
\A1;61,88°
 11
0.62851
 21
-0.777802
 31
0.0
  0
POINT
  5
A3
100
AcDbEntity
  8
DEFPOINTS
  6
BYBLOCK
 62
     0
100
AcDbPoint
 10
1959.991739
 20
-3719.798958
 30
0.0
  0
POINT
  5
A4
100
AcDbEntity
  8
DEFPOINTS
  6
BYBLOCK
 62
     0
100
AcDbPoint
 10
1829.212809
 20
-3757.042274
 30
0.0
  0
POINT
  5
A5
100
AcDbEntity
  8
DEFPOINTS
  6
BYBLOCK
 62
     0
100
AcDbPoint
 10
1821.196824
 20
-3772.042274
 30
0.0
  0
POINT
  5
A6
100
AcDbEntity
  8
DEFPOINTS
  6
BYBLOCK
 62
     0
100
AcDbPoint
 10
1801.196824
 20
-3772.042274
 30
0.0
  0
POINT
  5
A7
100
AcDbEntity
  8
DEFPOINTS
  6
BYBLOCK
 62
     0
100
AcDbPoint
 10
1821.196824
 20
-3772.042274
 30
0.0
  0
ENDBLK
  5
A9
100
AcDbEntity
  8
0
100
AcDbBlockEnd
  0
BLOCK
  5
C1
100
AcDbEntity
  8
0
100
AcDbBlockBegin
  2
*D9
 70
     1
 10
0.0
 20
0.0
 30
0.0
  3
*D9
  1

  0
LINE
  5
B5
100
AcDbEntity
  8
0
  6
BYBLOCK
100
AcDbLine
 10
1860.11314
 20
-3709.896387
 30
0.0
 11
1881.994659
 21
-3668.950349
 31
0.0
  0
LINE
  5
B6
100
AcDbEntity
  8
0
  6
BYBLOCK
100
AcDbLine
 10
1855.67498
 20
-3707.524639
 30
0.0
 11
1877.5565
 21
-3666.578601
 31
0.0
  0
LINE
  5
B7
100
AcDbEntity
  8
0
  6
BYBLOCK
100
AcDbLine
 10
1892.396177
 20
-3681.31192
 30
0.0
 11
1905.625613
 21
-3688.381716
 31
0.0
  0
LINE
  5
B8
100
AcDbEntity
  8
0
  6
BYBLOCK
100
AcDbLine
 10
1861.499145
 20
-3664.800579
 30
0.0
 11
1848.269709
 21
-3657.730782
 31
0.0
  0
MTEXT
  5
B9
100
AcDbEntity
  8
0
  6
BYBLOCK
 62
     5
100
AcDbMText
 10
1869.227329
 20
-3649.131375
 30
0.0
 40
19.32
 41
0.0
 71
     5
 72
     1
  1
\A1;5
 11
0.881962
 21
-0.47132
 31
0.0
  0
LINE
  5
BA
100
AcDbEntity
  8
0
  6
BYBLOCK
100
AcDbLine
 10
1879.166741
 20
-3674.242123
 30
0.0
 11
1874.728581
 21
-3671.870375
 31
0.0
  0
LINE
  5
BB
100
AcDbEntity
  8
0
  6
BYBLOCK
100
AcDbLine
 10
1879.166741
 20
-3674.242123
 30
0.0
 11
1874.728581
 21
-3671.870375
 31
0.0
  0
SOLID
  5
BC
100
AcDbEntity
  8
0
  6
BYBLOCK
100
AcDbTrace
 10
1893.574476
 20
-3679.107014
 30
0.0
 11
1891.217877
 21
-3683.516826
 31
0.0
 12
1879.166741
 22
-3674.242123
 32
0.0
 13
1879.166741
 23
-3674.242123
 33
0.0
  0
SOLID
  5
BD
100
AcDbEntity
  8
0
  6
BYBLOCK
100
AcDbTrace
 10
1862.677445
 20
-3662.595673
 30
0.0
 11
1860.320846
 21
-3667.005485
 31
0.0
 12
1874.728581
 22
-3671.870375
 32
0.0
 13
1874.728581
 23
-3671.870375
 33
0.0
  0
POINT
  5
BE
100
AcDbEntity
  8
DEFPOINTS
  6
BYBLOCK
 62
     0
100
AcDbPoint
 10
1858.699181
 20
-3712.542274
 30
0.0
  0
POINT
  5
BF
100
AcDbEntity
  8
DEFPOINTS
  6
BYBLOCK
 62
     0
100
AcDbPoint
 10
1854.261021
 20
-3710.170526
 30
0.0
  0
POINT
  5
C0
100
AcDbEntity
  8
DEFPOINTS
  6
BYBLOCK
 62
     0
100
AcDbPoint
 10
1874.728581
 20
-3671.870375
 30
0.0
  0
ENDBLK
  5
C2
100
AcDbEntity
  8
0
100
AcDbBlockEnd
  0
BLOCK
  5
110
100
AcDbEntity
  8
0
100
AcDbBlockBegin
  2
*D10
 70
     1
 10
0.0
 20
0.0
 30
0.0
  3
*D10
  1

  0
LINE
  5
104
100
AcDbEntity
  8
0
  6
BYBLOCK
100
AcDbLine
 10
2059.201537
 20
-3772.042274
 30
0.0
 11
2108.84294
 21
-3772.042274
 31
0.0
  0
LINE
  5
105
100
AcDbEntity
  8
0
  6
BYBLOCK
100
AcDbLine
 10
2011.185553
 20
-3757.042274
 30
0.0
 11
2108.84294
 21
-3757.042274
 31
0.0
  0
LINE
  5
106
100
AcDbEntity
  8
0
  6
BYBLOCK
100
AcDbLine
 10
2102.84294
 20
-3787.042274
 30
0.0
 11
2102.84294
 21
-3802.042274
 31
0.0
  0
LINE
  5
107
100
AcDbEntity
  8
0
  6
BYBLOCK
100
AcDbLine
 10
2102.84294
 20
-3742.042274
 30
0.0
 11
2102.84294
 21
-3727.042274
 31
0.0
  0
MTEXT
  5
108
100
AcDbEntity
  8
0
  6
BYBLOCK
 62
     5
100
AcDbMText
 10
2087.09294
 20
-3790.951985
 30
0.0
 40
19.32
 41
0.0
 71
     5
 72
     1
  1
\A1;15
 11
0.0
 21
1.0
 31
0.0
  0
LINE
  5
109
100
AcDbEntity
  8
0
  6
BYBLOCK
100
AcDbLine
 10
2102.84294
 20
-3772.042274
 30
0.0
 11
2102.84294
 21
-3757.042274
 31
0.0
  0
LINE
  5
10A
100
AcDbEntity
  8
0
  6
BYBLOCK
100
AcDbLine
 10
2102.84294
 20
-3772.042274
 30
0.0
 11
2102.84294
 21
-3757.042274
 31
0.0
  0
SOLID
  5
10B
100
AcDbEntity
  8
0
  6
BYBLOCK
100
AcDbTrace
 10
2100.34294
 20
-3787.042274
 30
0.0
 11
2105.34294
 21
-3787.042274
 31
0.0
 12
2102.84294
 22
-3772.042274
 32
0.0
 13
2102.84294
 23
-3772.042274
 33
0.0
  0
SOLID
  5
10C
100
AcDbEntity
  8
0
  6
BYBLOCK
100
AcDbTrace
 10
2100.34294
 20
-3742.042274
 30
0.0
 11
2105.34294
 21
-3742.042274
 31
0.0
 12
2102.84294
 22
-3757.042274
 32
0.0
 13
2102.84294
 23
-3757.042274
 33
0.0
  0
POINT
  5
10D
100
AcDbEntity
  8
DEFPOINTS
  6
BYBLOCK
 62
     0
100
AcDbPoint
 10
2056.201537
 20
-3772.042274
 30
0.0
  0
POINT
  5
10E
100
AcDbEntity
  8
DEFPOINTS
  6
BYBLOCK
 62
     0
100
AcDbPoint
 10
2008.185553
 20
-3757.042274
 30
0.0
  0
POINT
  5
10F
100
AcDbEntity
  8
DEFPOINTS
  6
BYBLOCK
 62
     0
100
AcDbPoint
 10
2102.84294
 20
-3757.042274
 30
0.0
  0
ENDBLK
  5
111
100
AcDbEntity
  8
0
100
AcDbBlockEnd
  0
BLOCK
  5
100
100
AcDbEntity
  8
0
100
AcDbBlockBegin
  2
*D11
 70
     1
 10
0.0
 20
0.0
 30
0.0
  3
*D11
  1

  0
LINE
  5
F4
100
AcDbEntity
  8
0
  6
BYBLOCK
100
AcDbLine
 10
2011.185553
 20
-3757.042274
 30
0.0
 11
2108.84294
 21
-3757.042274
 31
0.0
  0
LINE
  5
F5
100
AcDbEntity
  8
0
  6
BYBLOCK
100
AcDbLine
 10
2002.11322
 20
-3750.742274
 30
0.0
 11
2108.84294
 21
-3750.742274
 31
0.0
  0
LINE
  5
F6
100
AcDbEntity
  8
0
  6
BYBLOCK
100
AcDbLine
 10
2102.84294
 20
-3772.042274
 30
0.0
 11
2102.84294
 21
-3787.042274
 31
0.0
  0
LINE
  5
F7
100
AcDbEntity
  8
0
  6
BYBLOCK
100
AcDbLine
 10
2102.84294
 20
-3735.742274
 30
0.0
 11
2102.84294
 21
-3720.742274
 31
0.0
  0
MTEXT
  5
F8
100
AcDbEntity
  8
0
  6
BYBLOCK
 62
     5
100
AcDbMText
 10
2123.854382
 20
-3753.892274
 30
0.0
 40
19.32
 41
0.0
 71
     5
 72
     1
  1
\A1;5,3
 11
0.0
 21
1.0
 31
0.0
  0
LINE
  5
F9
100
AcDbEntity
  8
0
  6
BYBLOCK
100
AcDbLine
 10
2102.84294
 20
-3757.042274
 30
0.0
 11
2102.84294
 21
-3750.742274
 31
0.0
  0
LINE
  5
FA
100
AcDbEntity
  8
0
  6
BYBLOCK
100
AcDbLine
 10
2102.84294
 20
-3757.042274
 30
0.0
 11
2102.84294
 21
-3750.742274
 31
0.0
  0
SOLID
  5
FB
100
AcDbEntity
  8
0
  6
BYBLOCK
100
AcDbTrace
 10
2100.34294
 20
-3772.042274
 30
0.0
 11
2105.34294
 21
-3772.042274
 31
0.0
 12
2102.84294
 22
-3757.042274
 32
0.0
 13
2102.84294
 23
-3757.042274
 33
0.0
  0
SOLID
  5
FC
100
AcDbEntity
  8
0
  6
BYBLOCK
100
AcDbTrace
 10
2100.34294
 20
-3735.742274
 30
0.0
 11
2105.34294
 21
-3735.742274
 31
0.0
 12
2102.84294
 22
-3750.742274
 32
0.0
 13
2102.84294
 23
-3750.742274
 33
0.0
  0
POINT
  5
FD
100
AcDbEntity
  8
DEFPOINTS
  6
BYBLOCK
 62
     0
100
AcDbPoint
 10
2008.185553
 20
-3757.042274
 30
0.0
  0
POINT
  5
FE
100
AcDbEntity
  8
DEFPOINTS
  6
BYBLOCK
 62
     0
100
AcDbPoint
 10
1999.11322
 20
-3750.742274
 30
0.0
  0
POINT
  5
FF
100
AcDbEntity
  8
DEFPOINTS
  6
BYBLOCK
 62
     0
100
AcDbPoint
 10
2102.84294
 20
-3750.742274
 30
0.0
  0
ENDBLK
  5
101
100
AcDbEntity
  8
0
100
AcDbBlockEnd
  0
BLOCK
  5
F0
100
AcDbEntity
  8
0
100
AcDbBlockBegin
  2
*D12
 70
     1
 10
0.0
 20
0.0
 30
0.0
  3
*D12
  1

  0
LINE
  5
E4
100
AcDbEntity
  8
0
  6
BYBLOCK
100
AcDbLine
 10
2002.11322
 20
-3750.742274
 30
0.0
 11
2108.84294
 21
-3750.742274
 31
0.0
  0
LINE
  5
E5
100
AcDbEntity
  8
0
  6
BYBLOCK
100
AcDbLine
 10
1981.699181
 20
-3712.542274
 30
0.0
 11
2108.84294
 21
-3712.542274
 31
0.0
  0
LINE
  5
E6
100
AcDbEntity
  8
0
  6
BYBLOCK
100
AcDbLine
 10
2102.84294
 20
-3765.742274
 30
0.0
 11
2102.84294
 21
-3780.742274
 31
0.0
  0
LINE
  5
E7
100
AcDbEntity
  8
0
  6
BYBLOCK
100
AcDbLine
 10
2102.84294
 20
-3697.542274
 30
0.0
 11
2102.84294
 21
-3682.542274
 31
0.0
  0
MTEXT
  5
E8
100
AcDbEntity
  8
0
  6
BYBLOCK
 62
     5
100
AcDbMText
 10
2085.521512
 20
-3686.11026
 30
0.0
 40
19.32
 41
0.0
 71
     5
 72
     1
  1
\A1;38,2
 11
0.0
 21
1.0
 31
0.0
  0
LINE
  5
E9
100
AcDbEntity
  8
0
  6
BYBLOCK
100
AcDbLine
 10
2102.84294
 20
-3750.742274
 30
0.0
 11
2102.84294
 21
-3712.542274
 31
0.0
  0
LINE
  5
EA
100
AcDbEntity
  8
0
  6
BYBLOCK
100
AcDbLine
 10
2102.84294
 20
-3750.742274
 30
0.0
 11
2102.84294
 21
-3712.542274
 31
0.0
  0
SOLID
  5
EB
100
AcDbEntity
  8
0
  6
BYBLOCK
100
AcDbTrace
 10
2100.34294
 20
-3765.742274
 30
0.0
 11
2105.34294
 21
-3765.742274
 31
0.0
 12
2102.84294
 22
-3750.742274
 32
0.0
 13
2102.84294
 23
-3750.742274
 33
0.0
  0
SOLID
  5
EC
100
AcDbEntity
  8
0
  6
BYBLOCK
100
AcDbTrace
 10
2100.34294
 20
-3697.542274
 30
0.0
 11
2105.34294
 21
-3697.542274
 31
0.0
 12
2102.84294
 22
-3712.542274
 32
0.0
 13
2102.84294
 23
-3712.542274
 33
0.0
  0
POINT
  5
ED
100
AcDbEntity
  8
DEFPOINTS
  6
BYBLOCK
 62
     0
100
AcDbPoint
 10
1999.11322
 20
-3750.742274
 30
0.0
  0
POINT
  5
EE
100
AcDbEntity
  8
DEFPOINTS
  6
BYBLOCK
 62
     0
100
AcDbPoint
 10
1978.699181
 20
-3712.542274
 30
0.0
  0
POINT
  5
EF
100
AcDbEntity
  8
DEFPOINTS
  6
BYBLOCK
 62
     0
100
AcDbPoint
 10
2102.84294
 20
-3712.542274
 30
0.0
  0
ENDBLK
  5
F1
100
AcDbEntity
  8
0
100
AcDbBlockEnd
  0
BLOCK
  5
E0
100
AcDbEntity
  8
0
100
AcDbBlockBegin
  2
*D13
 70
     1
 10
0.0
 20
0.0
 30
0.0
  3
*D13
  1

  0
LINE
  5
D5
100
AcDbEntity
  8
0
  6
BYBLOCK
100
AcDbLine
 10
2059.201537
 20
-3772.042274
 30
0.0
 11
2186.086821
 21
-3772.042274
 31
0.0
  0
LINE
  5
D6
100
AcDbEntity
  8
0
  6
BYBLOCK
100
AcDbLine
 10
1981.699181
 20
-3712.542274
 30
0.0
 11
2186.086821
 21
-3712.542274
 31
0.0
  0
LINE
  5
D7
100
AcDbEntity
  8
0
  6
BYBLOCK
100
AcDbLine
 10
2180.086821
 20
-3787.042274
 30
0.0
 11
2180.086821
 21
-3802.042274
 31
0.0
  0
LINE
  5
D8
100
AcDbEntity
  8
0
  6
BYBLOCK
100
AcDbLine
 10
2180.086821
 20
-3697.542274
 30
0.0
 11
2180.086821
 21
-3682.542274
 31
0.0
  0
LINE
  5
D9
100
AcDbEntity
  8
0
  6
BYBLOCK
100
AcDbLine
 10
2180.086821
 20
-3772.042274
 30
0.0
 11
2180.086821
 21
-3712.542274
 31
0.0
  0
SOLID
  5
DA
100
AcDbEntity
  8
0
  6
BYBLOCK
100
AcDbTrace
 10
2177.586821
 20
-3787.042274
 30
0.0
 11
2182.586821
 21
-3787.042274
 31
0.0
 12
2180.086821
 22
-3772.042274
 32
0.0
 13
2180.086821
 23
-3772.042274
 33
0.0
  0
SOLID
  5
DB
100
AcDbEntity
  8
0
  6
BYBLOCK
100
AcDbTrace
 10
2177.586821
 20
-3697.542274
 30
0.0
 11
2182.586821
 21
-3697.542274
 31
0.0
 12
2180.086821
 22
-3712.542274
 32
0.0
 13
2180.086821
 23
-3712.542274
 33
0.0
  0
MTEXT
  5
DC
100
AcDbEntity
  8
0
  6
BYBLOCK
 62
     5
100
AcDbMText
 10
2162.586821
 20
-3742.292274
 30
0.0
 40
19.32
 41
0.0
 71
     5
 72
     1
  1
\A1;59,5
 11
0.0
 21
1.0
 31
0.0
  0
POINT
  5
DD
100
AcDbEntity
  8
DEFPOINTS
  6
BYBLOCK
 62
     0
100
AcDbPoint
 10
2056.201537
 20
-3772.042274
 30
0.0
  0
POINT
  5
DE
100
AcDbEntity
  8
DEFPOINTS
  6
BYBLOCK
 62
     0
100
AcDbPoint
 10
1978.699181
 20
-3712.542274
 30
0.0
  0
POINT
  5
DF
100
AcDbEntity
  8
DEFPOINTS
  6
BYBLOCK
 62
     0
100
AcDbPoint
 10
2180.086821
 20
-3712.542274
 30
0.0
  0
ENDBLK
  5
E1
100
AcDbEntity
  8
0
100
AcDbBlockEnd
  0
BLOCK
  5
2C
100
AcDbEntity
  8
0
100
AcDbBlockBegin
  2
*D14
 70
     1
 10
0.0
 20
0.0
 30
0.0
  3
*D14
  1

  0
LINE
  5
20
100
AcDbEntity
  8
0
  6
BYBLOCK
100
AcDbLine
 10
1781.196824
 20
-3775.042274
 30
0.0
 11
1781.196824
 21
-3838.042274
 31
0.0
  0
LINE
  5
21
100
AcDbEntity
  8
0
  6
BYBLOCK
100
AcDbLine
 10
1821.196824
 20
-3775.042274
 30
0.0
 11
1821.196824
 21
-3838.042274
 31
0.0
  0
LINE
  5
22
100
AcDbEntity
  8
0
  6
BYBLOCK
100
AcDbLine
 10
1766.196824
 20
-3832.042274
 30
0.0
 11
1751.196824
 21
-3832.042274
 31
0.0
  0
LINE
  5
23
100
AcDbEntity
  8
0
  6
BYBLOCK
100
AcDbLine
 10
1836.196824
 20
-3832.042274
 30
0.0
 11
1851.196824
 21
-3832.042274
 31
0.0
  0
LINE
  5
24
100
AcDbEntity
  8
0
  6
BYBLOCK
100
AcDbLine
 10
1781.196824
 20
-3832.042274
 30
0.0
 11
1821.196824
 21
-3832.042274
 31
0.0
  0
SOLID
  5
25
100
AcDbEntity
  8
0
  6
BYBLOCK
100
AcDbTrace
 10
1766.196824
 20
-3829.542274
 30
0.0
 11
1766.196824
 21
-3834.542274
 31
0.0
 12
1781.196824
 22
-3832.042274
 32
0.0
 13
1781.196824
 23
-3832.042274
 33
0.0
  0
SOLID
  5
26
100
AcDbEntity
  8
0
  6
BYBLOCK
100
AcDbTrace
 10
1836.196824
 20
-3829.542274
 30
0.0
 11
1836.196824
 21
-3834.542274
 31
0.0
 12
1821.196824
 22
-3832.042274
 32
0.0
 13
1821.196824
 23
-3832.042274
 33
0.0
  0
MTEXT
  5
27
100
AcDbEntity
  8
0
  6
BYBLOCK
 62
     5
100
AcDbMText
 10
1801.196824
 20
-3816.382274
 30
0.0
 40
19.32
 41
0.0
 71
     5
 72
     1
  1
\A1;40
  0
POINT
  5
28
100
AcDbEntity
  8
DEFPOINTS
  6
BYBLOCK
 62
     0
100
AcDbPoint
 10
1781.196824
 20
-3772.042274
 30
0.0
  0
POINT
  5
2A
100
AcDbEntity
  8
DEFPOINTS
  6
BYBLOCK
 62
     0
100
AcDbPoint
 10
1821.196824
 20
-3772.042274
 30
0.0
  0
POINT
  5
2B
100
AcDbEntity
  8
DEFPOINTS
  6
BYBLOCK
 62
     0
100
AcDbPoint
 10
1821.196824
 20
-3832.042274
 30
0.0
  0
ENDBLK
  5
2D
100
AcDbEntity
  8
0
100
AcDbBlockEnd
  0
ENDSEC
  0
SECTION
  2
ENTITIES
  0
DIMENSION
  5
1E
100
AcDbEntity
  8
KOTY-UPLNE
100
AcDbDimension
  2
*D14
 10
877.869434
 20
-269.384928
 30
0.0
 11
857.869434
 21
-253.724928
 31
0.0
 12
-943.32739
 22
3562.657346
 32
0.0
  3
UPLNE
100
AcDbAlignedDimension
 13
837.869434
 23
-209.384928
 33
0.0
 14
877.869434
 24
-209.384928
 34
0.0
100
AcDbRotatedDimension
1001
ACAD
1000
DSTYLE
1002
{
1070
    40
1040
3.0
1070
   147
1040
2.0
1002
}
  0
DIMENSION
  5
2E
100
AcDbEntity
  8
KOTY-UPLNE
100
AcDbDimension
  2
*D5
 10
517.094417
 20
-269.384928
 30
0.0
 11
505.362366
 21
-251.884928
 31
0.0
 12
-943.32739
 22
3562.657346
 32
0.0
  1
23,46
  3
UPLNE
100
AcDbAlignedDimension
 13
493.630315
 23
-149.884928
 33
0.0
 14
517.094417
 24
-149.884928
 34
0.0
100
AcDbRotatedDimension
1001
ACAD
1000
DSTYLE
1002
{
1070
    40
1040
3.0
1070
   147
1040
2.0
1002
}
  0
DIMENSION
  5
3D
100
AcDbEntity
  8
KOTY-UPLNE
100
AcDbDimension
  2
*D4
 10
1092.874147
 20
-329.384928
 30
0.0
 11
622.864722
 21
-313.724928
 31
0.0
 12
-943.32739
 22
3562.657346
 32
0.0
  3
UPLNE
100
AcDbAlignedDimension
 13
152.855297
 23
-224.384928
 33
0.0
 14
1092.874147
 24
-209.384928
 34
0.0
100
AcDbRotatedDimension
1001
ACAD
1000
DSTYLE
1002
{
1070
    40
1040
3.0
1070
   147
1040
2.0
1002
}
  0
DIMENSION
  5
4A
100
AcDbEntity
  8
KOTY-UPLNE
100
AcDbDimension
  2
*D3
 10
387.86001
 20
-269.384928
 30
0.0
 11
270.357653
 21
-253.724928
 31
0.0
 12
-943.32739
 22
3562.657346
 32
0.0
  3
UPLNE
100
AcDbAlignedDimension
 13
152.855297
 23
-209.384928
 33
0.0
 14
387.86001
 24
-209.384928
 34
0.0
100
AcDbRotatedDimension
1001
ACAD
1000
DSTYLE
1002
{
1070
    40
1040
3.0
1070
   147
1040
2.0
1002
}
  0
MTEXT
  5
57
100
AcDbEntity
  8
POZICE
100
AcDbMText
 10
951.940514
 20
-256.154138
 30
0.0
 40
41.73
 41
1.0
 71
     5
 72
     1
  1
B
  7
STYLE1
  0
LWPOLYLINE
  5
5A
100
AcDbEntity
  8
RAMEC
100
AcDbPolyline
 90
        4
 70
     1
 43
0.0
 10
0.0
 20
0.0
 10
0.0
 20
-378.501233
 10
1349.672502
 20
-378.501233
 10
1349.672502
 20
0.0
  0
DIMENSION
  5
5C
100
AcDbEntity
  8
KOTY-UPLNE
100
AcDbDimension
  2
*D6
 10
615.939198
 20
-155.884928
 30
0.0
 11
600.189198
 21
-137.197279
 31
0.0
 12
-943.32739
 22
3562.657346
 32
0.0
 70
   128
  3
UPLNE
100
AcDbAlignedDimension
 13
565.362366
 23
-149.884928
 33
0.0
 14
505.362366
 24
-155.884928
 34
0.0
 50
90.0
100
AcDbRotatedDimension
1001
ACAD
1000
DSTYLE
1002
{
1070
    40
1040
3.0
1070
   147
1040
2.0
1002
}
  0
LWPOLYLINE
  5
6C
100
AcDbEntity
  8
TRAPEZ-VELKY
100
AcDbPolyline
 90
       97
 70
     0
 43
5.0
 10
147.855297
 20
-209.384928
 10
152.855297
 20
-209.384928
 10
168.059807
 20
-209.384928
 42
0.276761
 10
175.115506
 20
-205.155486
 10
180.076062
 20
-195.87299
 42
-0.118814
 10
182.257127
 20
-193.42257
 10
188.557768
 20
-189.047286
 42
0.118814
 10
190.738833
 20
-186.596866
 10
208.37997
 20
-153.58569
 42
-0.276761
 10
214.553707
 20
-149.884928
 10
257.285857
 20
-149.884928
 42
-0.131652
 10
259.785857
 20
-150.554801
 10
267.857653
 20
-155.215055
 42
0.267949
 10
272.857653
 20
-155.215055
 10
280.92945
 20
-150.554801
 42
-0.131652
 10
283.42945
 20
-149.884928
 10
326.1616
 20
-149.884928
 42
-0.276761
 10
332.335336
 20
-153.58569
 10
349.976474
 20
-186.596866
 42
0.118814
 10
352.157539
 20
-189.047286
 10
358.458179
 20
-193.42257
 42
-0.118814
 10
360.639244
 20
-195.87299
 10
365.5998
 20
-205.155486
 42
0.276761
 10
372.655499
 20
-209.384928
 10
387.86001
 20
-209.384928
 10
403.06452
 20
-209.384928
 42
0.276761
 10
410.120219
 20
-205.155486
 10
415.080775
 20
-195.87299
 42
-0.118814
 10
417.26184
 20
-193.42257
 10
423.56248
 20
-189.047286
 42
0.118814
 10
425.743545
 20
-186.596866
 10
443.384683
 20
-153.58569
 42
-0.276761
 10
449.558419
 20
-149.884928
 10
492.290569
 20
-149.884928
 42
-0.131652
 10
494.790569
 20
-150.554801
 10
502.862366
 20
-155.215055
 42
0.267949
 10
507.862366
 20
-155.215055
 10
515.934162
 20
-150.554801
 42
-0.131652
 10
518.434162
 20
-149.884928
 10
561.166312
 20
-149.884928
 42
-0.276761
 10
567.340049
 20
-153.58569
 10
584.981186
 20
-186.596866
 42
0.118814
 10
587.162251
 20
-189.047286
 10
593.462892
 20
-193.42257
 42
-0.118814
 10
595.643957
 20
-195.87299
 10
600.604513
 20
-205.155486
 42
0.276761
 10
607.660212
 20
-209.384928
 10
622.864722
 20
-209.384928
 10
638.069232
 20
-209.384928
 42
0.276761
 10
645.124931
 20
-205.155486
 10
650.085487
 20
-195.87299
 42
-0.118814
 10
652.266552
 20
-193.42257
 10
658.567192
 20
-189.047286
 42
0.118814
 10
660.748257
 20
-186.596866
 10
678.389395
 20
-153.58569
 42
-0.276761
 10
684.563132
 20
-149.884928
 10
727.295281
 20
-149.884928
 42
-0.131652
 10
729.795281
 20
-150.554801
 10
737.867078
 20
-155.215055
 42
0.267949
 10
742.867078
 20
-155.215055
 10
750.938875
 20
-150.554801
 42
-0.131652
 10
753.438875
 20
-149.884928
 10
796.171024
 20
-149.884928
 42
-0.276761
 10
802.344761
 20
-153.58569
 10
819.985899
 20
-186.596866
 42
0.118814
 10
822.166964
 20
-189.047286
 10
828.467604
 20
-193.42257
 42
-0.118814
 10
830.648669
 20
-195.87299
 10
835.609225
 20
-205.155486
 42
0.276761
 10
842.664924
 20
-209.384928
 10
857.869434
 20
-209.384928
 10
873.073944
 20
-209.384928
 42
0.276761
 10
880.129643
 20
-205.155486
 10
885.0902
 20
-195.87299
 42
-0.118814
 10
887.271264
 20
-193.42257
 10
893.571905
 20
-189.047286
 42
0.118814
 10
895.75297
 20
-186.596866
 10
913.394107
 20
-153.58569
 42
-0.276761
 10
919.567844
 20
-149.884928
 10
962.299994
 20
-149.884928
 42
-0.131652
 10
964.799994
 20
-150.554801
 10
972.87179
 20
-155.215055
 42
0.267949
 10
977.87179
 20
-155.215055
 10
985.943587
 20
-150.554801
 42
-0.131652
 10
988.443587
 20
-149.884928
 10
1031.175737
 20
-149.884928
 42
-0.276761
 10
1037.349474
 20
-153.58569
 10
1054.990611
 20
-186.596866
 42
0.118814
 10
1057.171676
 20
-189.047286
 10
1063.472316
 20
-193.42257
 42
-0.118814
 10
1065.653381
 20
-195.87299
 10
1070.613937
 20
-205.155486
 42
0.276761
 10
1077.669637
 20
-209.384928
 10
1092.874147
 20
-209.384928
 10
1108.078657
 20
-209.384928
 42
0.276761
 10
1115.134356
 20
-205.155486
 10
1118.058084
 20
-199.684428
  0
MTEXT
  5
6E
100
AcDbEntity
  8
POPIS
100
AcDbMText
 10
661.730741
 20
-42.124031
 30
0.0
 40
40.0
 41
1.0
 71
     5
 72
     1
  1
TR 60/235
  7
STYLE1
  0
DIMENSION
  5
70
100
AcDbEntity
  8
KOTY-UPLNE
100
AcDbDimension
  2
*D0
 10
210.357653
 20
-111.074478
 30
0.0
 11
191.606475
 21
-93.574478
 31
0.0
 12
-943.32739
 22
3562.657346
 32
0.0
  1
37,5
  3
UPLNE
100
AcDbAlignedDimension
 13
172.855297
 23
-209.384928
 33
0.0
 14
210.357653
 24
-149.884928
 34
0.0
100
AcDbRotatedDimension
1001
ACAD
1000
DSTYLE
1002
{
1070
    40
1040
3.0
1070
   147
1040
2.0
1002
}
  0
DIMENSION
  5
7F
100
AcDbEntity
  8
KOTY-UPLNE
100
AcDbDimension
  2
*D2
 10
367.86001
 20
-111.074478
 30
0.0
 11
349.108831
 21
-93.574478
 31
0.0
 12
-943.32739
 22
3562.657346
 32
0.0
  1
37,5
  3
UPLNE
100
AcDbAlignedDimension
 13
330.357653
 23
-149.884928
 33
0.0
 14
367.86001
 24
-209.384928
 34
0.0
100
AcDbRotatedDimension
1001
ACAD
1000
DSTYLE
1002
{
1070
    40
1040
3.0
1070
   147
1040
2.0
1002
}
  0
DIMENSION
  5
8E
100
AcDbEntity
  8
KOTY-UPLNE
100
AcDbDimension
  2
*D1
 10
330.357653
 20
-111.074478
 30
0.0
 11
270.357653
 21
-95.414478
 31
0.0
 12
-943.32739
 22
3562.657346
 32
0.0
  3
UPLNE
100
AcDbAlignedDimension
 13
210.357653
 23
-149.884928
 33
0.0
 14
330.357653
 24
-149.884928
 34
0.0
100
AcDbRotatedDimension
1001
ACAD
1000
DSTYLE
1002
{
1070
    40
1040
3.0
1070
   147
1040
2.0
1002
}
  0
DIMENSION
  5
9B
100
AcDbEntity
  8
KOTY-UPLNE
100
AcDbDimension
  2
*D8
 10
877.869434
 20
-209.384928
 30
0.0
 11
1007.853816
 21
-104.349884
 31
0.0
 12
-943.32739
 22
3562.657346
 32
0.0
 70
   130
  1
61,88%%D
  3
UPLNE
100
AcDb2LineAngularDimension
 13
877.869434
 23
-209.384928
 33
0.0
 14
857.869434
 24
-209.384928
 34
0.0
 15
885.885418
 25
-194.384928
 35
0.0
 16
1016.664349
 26
-157.141612
 36
0.0
1001
ACAD
1000
DSTYLE
1002
{
1070
    40
1040
3.0
1070
   147
1040
2.0
1002
}
  0
MTEXT
  5
AA
102
{ACAD_REACTORS
330
AB
102
}
100
AcDbEntity
  8
KOTY-UPLNE
 62
     5
100
AcDbMText
 10
773.421631
 20
-106.049482
 30
0.0
 40
16.5
 41
0.0
 71
     4
 72
     1
  1
\A1;R=5
  0
LEADER
  5
AB
100
AcDbEntity
  8
KOTY-UPLNE
100
AcDbLeader
  3
UPLNE
 73
     0
 74
     0
 75
     1
 40
16.5
 41
43.135714
 76
     3
 10
737.867078
 20
-155.215055
 30
0.0
 10
752.421631
 20
-120.299482
 30
0.0
 10
767.421631
 20
-120.299482
 30
0.0
 77
   256
340
AA
1001
ACAD
1000
DSTYLE
1002
{
1070
    40
1040
3.0
1070
   147
1040
2.0
1002
}
  0
MTEXT
  5
AC
102
{ACAD_REACTORS
330
AD
102
}
100
AcDbEntity
  8
KOTY-UPLNE
 62
     5
100
AcDbMText
 10
672.293871
 20
-107.732851
 30
0.0
 40
16.5
 41
0.0
 71
     4
 72
     1
  1
\A1;R=8
  0
LEADER
  5
AD
100
AcDbEntity
  8
KOTY-UPLNE
100
AcDbLeader
  3
UPLNE
 73
     0
 74
     0
 75
     1
 40
16.5
 41
43.135714
 76
     3
 10
642.864722
 20
-209.384928
 30
0.0
 10
651.293871
 20
-121.982851
 30
0.0
 10
666.293871
 20
-121.982851
 30
0.0
 77
   256
340
AC
1001
ACAD
1000
DSTYLE
1002
{
1070
    40
1040
3.0
1070
   147
1040
2.0
1002
}
  0
MTEXT
  5
AE
102
{ACAD_REACTORS
330
AF
102
}
100
AcDbEntity
  8
KOTY-UPLNE
 62
     5
100
AcDbMText
 10
710.216781
 20
-245.770089
 30
0.0
 40
16.5
 41
0.0
 71
     4
 72
     1
  1
\A1;R=7
  0
LEADER
  5
AF
100
AcDbEntity
  8
KOTY-UPLNE
100
AcDbLeader
  3
UPLNE
 73
     0
 74
     0
 75
     1
 40
16.5
 41
43.135714
 76
     3
 10
680.367078
 20
-149.884928
 30
0.0
 10
689.216781
 20
-260.020089
 30
0.0
 10
704.216781
 20
-260.020089
 30
0.0
 77
   256
340
AE
1001
ACAD
1000
DSTYLE
1002
{
1070
    40
1040
3.0
1070
   147
1040
2.0
1002
}
  0
LEADER
  5
B0
100
AcDbEntity
  8
KOTY-UPLNE
100
AcDbLeader
  3
UPLNE
 76
     2
 10
650.880706
 20
-194.384928
 30
0.0
 10
686.216781
 20
-261.520089
 30
0.0
 77
   256
1001
ACAD
1000
DSTYLE
1002
{
1070
    40
1040
3.0
1070
   147
1040
2.0
1002
}
  0
MTEXT
  5
B1
102
{ACAD_REACTORS
330
B2
102
}
100
AcDbEntity
  8
KOTY-UPLNE
 62
     5
100
AcDbMText
 10
767.415414
 20
-207.894013
 30
0.0
 40
16.5
 41
0.0
 71
     6
 72
     1
  1
\A1;R=5
  0
LEADER
  5
B2
100
AcDbEntity
  8
KOTY-UPLNE
100
AcDbLeader
  3
UPLNE
 73
     0
 75
     1
 40
16.5
 41
43.135714
 76
     3
 10
752.099129
 20
-149.884928
 30
0.0
 10
788.415414
 20
-222.144013
 30
0.0
 10
773.415414
 20
-222.144013
 30
0.0
 77
   256
340
B1
1001
ACAD
1000
DSTYLE
1002
{
1070
    40
1040
3.0
1070
   147
1040
2.0
1002
}
  0
DIMENSION
  5
B3
100
AcDbEntity
  8
KOTY-UPLNE
100
AcDbDimension
  2
*D9
 10
931.401191
 20
-109.213029
 30
0.0
 11
925.899939
 21
-86.474029
 31
0.0
 12
-943.32739
 22
3562.657346
 32
0.0
 70
   129
  3
UPLNE
100
AcDbAlignedDimension
 13
915.37179
 23
-149.884928
 33
0.0
 14
910.933631
 24
-147.51318
 34
0.0
1001
ACAD
1000
DSTYLE
1002
{
1070
    40
1040
3.0
1070
   147
1040
2.0
1002
}
  0
DIMENSION
  5
C3
100
AcDbEntity
  8
KOTY-UPLNE
100
AcDbDimension
  2
*D7
 10
885.885418
 20
-194.384928
 30
0.0
 11
953.556351
 21
-173.193157
 31
0.0
 12
-943.32739
 22
3562.657346
 32
0.0
 70
     2
  3
UPLNE
100
AcDb2LineAngularDimension
 13
885.885418
 23
-194.384928
 33
0.0
 14
986.187839
 24
-194.384928
 34
0.0
 15
894.957751
 25
-188.084928
 35
0.0
 16
940.009954
 26
-183.282354
 36
0.0
1001
ACAD
1000
DSTYLE
1002
{
1070
    40
1040
3.0
1070
   147
1040
2.0
1002
}
  0
LINE
  5
D1
100
AcDbEntity
  8
KOTY-UPLNE
100
AcDbLine
 10
885.885418
 20
-194.384928
 30
0.0
 11
986.187839
 21
-194.384928
 31
0.0
  0
MTEXT
  5
D2
100
AcDbEntity
  8
POZICE
100
AcDbMText
 10
857.106674
 20
-139.590171
 30
0.0
 40
41.73
 41
1.0
 71
     5
 72
     1
  1
A
  7
STYLE1
  0
DIMENSION
  5
D3
100
AcDbEntity
  8
KOTY-UPLNE
100
AcDbDimension
  2
*D13
 10
1236.759431
 20
-149.884928
 30
0.0
 11
1219.259431
 21
-179.634928
 31
0.0
 12
-943.32739
 22
3562.657346
 32
0.0
  1
59,5
  3
UPLNE
100
AcDbAlignedDimension
 13
1112.874147
 23
-209.384928
 33
0.0
 14
1035.37179
 24
-149.884928
 34
0.0
 50
90.0
100
AcDbRotatedDimension
1001
ACAD
1000
DSTYLE
1002
{
1070
    40
1040
3.0
1070
   147
1040
2.0
1002
}
  0
DIMENSION
  5
E2
100
AcDbEntity
  8
KOTY-UPLNE
100
AcDbDimension
  2
*D12
 10
1159.51555
 20
-149.884928
 30
0.0
 11
1142.194122
 21
-123.452914
 31
0.0
 12
-943.32739
 22
3562.657346
 32
0.0
 70
   128
  1
38,2
  3
UPLNE
100
AcDbAlignedDimension
 13
1055.78583
 23
-188.084928
 33
0.0
 14
1035.37179
 24
-149.884928
 34
0.0
 50
90.0
100
AcDbRotatedDimension
1001
ACAD
1000
DSTYLE
1002
{
1070
    40
1040
3.0
1070
   147
1040
2.0
1002
}
  0
DIMENSION
  5
F2
100
AcDbEntity
  8
KOTY-UPLNE
100
AcDbDimension
  2
*D11
 10
1159.51555
 20
-188.084928
 30
0.0
 11
1180.526991
 21
-191.234928
 31
0.0
 12
-943.32739
 22
3562.657346
 32
0.0
 70
   128
  1
5,3
  3
UPLNE
100
AcDbAlignedDimension
 13
1064.858162
 23
-194.384928
 33
0.0
 14
1055.78583
 24
-188.084928
 34
0.0
 50
90.0
100
AcDbRotatedDimension
1001
ACAD
1000
DSTYLE
1002
{
1070
    40
1040
3.0
1070
   147
1040
2.0
1002
}
  0
DIMENSION
  5
102
100
AcDbEntity
  8
KOTY-UPLNE
100
AcDbDimension
  2
*D10
 10
1159.51555
 20
-194.384928
 30
0.0
 11
1143.76555
 21
-228.294639
 31
0.0
 12
-943.32739
 22
3562.657346
 32
0.0
 70
   128
  3
UPLNE
100
AcDbAlignedDimension
 13
1112.874147
 23
-209.384928
 33
0.0
 14
1064.858162
 24
-194.384928
 34
0.0
 50
90.0
100
AcDbRotatedDimension
1001
ACAD
1000
DSTYLE
1002
{
1070
    40
1040
3.0
1070
   147
1040
2.0
1002
}
  0
ENDSEC
  0
SECTION
  2
OBJECTS
  0
DICTIONARY
  5
1A
100
AcDbDictionary
  3
ACAD_GROUP
350
18
  3
ACAD_MLINESTYLE
350
19
  0
DICTIONARY
  5
18
102
{ACAD_REACTORS
330
1A
102
}
100
AcDbDictionary
  0
DICTIONARY
  5
19
102
{ACAD_REACTORS
330
1A
102
}
100
AcDbDictionary
  3
STANDARD
350
1C
  0
MLINESTYLE
  5
1C
102
{ACAD_REACTORS
330
19
102
}
100
AcDbMlineStyle
  2
STANDARD
 70
     0
  3

 62
   256
 51
90.0
 52
90.0
 71
     2
 49
0.5
 62
   256
  6
BYLAYER
 49
-0.5
 62
   256
  6
BYLAYER
  0
ENDSEC
  0
EOF
