  0
SECTION
  2
HEADER
  9
$ACADVER
  1
AC1014
  9
$ACADMAINTVER
 70
     0
  9
$DWGCODEPAGE
  3
ANSI_1250
  9
$INSBASE
 10
0.0
 20
0.0
 30
0.0
  9
$EXTMIN
 10
0.0
 20
-378.501233
 30
0.0
  9
$EXTMAX
 10
1349.672502
 20
0.0
 30
0.0
  9
$LIMMIN
 10
-1000.0
 20
-1000.0
  9
$LIMMAX
 10
1000.0
 20
1000.0
  9
$ORTHOMODE
 70
     0
  9
$REGENMODE
 70
     1
  9
$FILLMODE
 70
     1
  9
$QTEXTMODE
 70
     0
  9
$MIRRTEXT
 70
     0
  9
$DRAGMODE
 70
     2
  9
$LTSCALE
 40
3.0
  9
$OSMODE
 70
    32
  9
$ATTMODE
 70
     1
  9
$TEXTSIZE
 40
50.0
  9
$TRACEWID
 40
0.05
  9
$TEXTSTYLE
  7
STANDARD
  9
$CLAYER
  8
KOTY-UPLNE
  9
$CELTYPE
  6
BYLAYER
  9
$CECOLOR
 62
   256
  9
$CELTSCALE
 40
1.0
  9
$DELOBJ
 70
     1
  9
$DISPSILH
 70
     0
  9
$DIMSCALE
 40
3.0
  9
$DIMASZ
 40
5.0
  9
$DIMEXO
 40
1.0
  9
$DIMDLI
 40
0.0
  9
$DIMRND
 40
1.0
  9
$DIMDLE
 40
1.0
  9
$DIMEXE
 40
2.0
  9
$DIMTP
 40
0.0
  9
$DIMTM
 40
0.0
  9
$DIMTXT
 40
6.44
  9
$DIMCEN
 40
1.0
  9
$DIMTSZ
 40
0.0
  9
$DIMTOL
 70
     0
  9
$DIMLIM
 70
     0
  9
$DIMTIH
 70
     0
  9
$DIMTOH
 70
     0
  9
$DIMSE1
 70
     0
  9
$DIMSE2
 70
     0
  9
$DIMTAD
 70
     3
  9
$DIMZIN
 70
     0
  9
$DIMBLK
  1

  9
$DIMASO
 70
     1
  9
$DIMSHO
 70
     0
  9
$DIMPOST
  1

  9
$DIMAPOST
  1

  9
$DIMALT
 70
     0
  9
$DIMALTD
 70
     2
  9
$DIMALTF
 40
25.4
  9
$DIMLFAC
 40
1.0
  9
$DIMTOFL
 70
     1
  9
$DIMTVP
 40
0.0
  9
$DIMTIX
 70
     1
  9
$DIMSOXD
 70
     0
  9
$DIMSAH
 70
     0
  9
$DIMBLK1
  1

  9
$DIMBLK2
  1

  9
$DIMSTYLE
  2
UPLNE
  9
$DIMCLRD
 70
   256
  9
$DIMCLRE
 70
   256
  9
$DIMCLRT
 70
     5
  9
$DIMTFAC
 40
1.0
  9
$DIMGAP
 40
2.0
  9
$DIMJUST
 70
     0
  9
$DIMSD1
 70
     0
  9
$DIMSD2
 70
     0
  9
$DIMTOLJ
 70
     1
  9
$DIMTZIN
 70
     0
  9
$DIMALTZ
 70
     0
  9
$DIMALTTZ
 70
     0
  9
$DIMFIT
 70
     5
  9
$DIMUPT
 70
     0
  9
$DIMUNIT
 70
     2
  9
$DIMDEC
 70
     0
  9
$DIMTDEC
 70
     0
  9
$DIMALTU
 70
     2
  9
$DIMALTTD
 70
     2
  9
$DIMTXSTY
  7
STANDARD
  9
$DIMAUNIT
 70
     0
  9
$LUNITS
 70
     2
  9
$LUPREC
 70
     2
  9
$SKETCHINC
 40
0.1
  9
$FILLETRAD
 40
5.0
  9
$AUNITS
 70
     0
  9
$AUPREC
 70
     2
  9
$MENU
  1
acad
  9
$ELEVATION
 40
0.0
  9
$PELEVATION
 40
0.0
  9
$THICKNESS
 40
0.0
  9
$LIMCHECK
 70
     0
  9
$BLIPMODE
 70
     1
  9
$CHAMFERA
 40
0.0
  9
$CHAMFERB
 40
0.0
  9
$CHAMFERC
 40
0.0
  9
$CHAMFERD
 40
0.0
  9
$SKPOLY
 70
     0
  9
$TDCREATE
 40
2448722.252204629
  9
$TDUPDATE
 40
2452465.891677777
  9
$TDINDWG
 40
2.5235636574
  9
$TDUSRTIMER
 40
2.5235636574
  9
$USRTIMER
 70
     1
  9
$ANGBASE
 50
0.0
  9
$ANGDIR
 70
     0
  9
$PDMODE
 70
     0
  9
$PDSIZE
 40
0.0
  9
$PLINEWID
 40
0.0
  9
$COORDS
 70
     2
  9
$SPLFRAME
 70
     0
  9
$SPLINETYPE
 70
     6
  9
$SPLINESEGS
 70
     8
  9
$ATTDIA
 70
     0
  9
$ATTREQ
 70
     1
  9
$HANDLING
 70
     1
  9
$HANDSEED
  5
100
  9
$SURFTAB1
 70
     6
  9
$SURFTAB2
 70
     6
  9
$SURFTYPE
 70
     6
  9
$SURFU
 70
     6
  9
$SURFV
 70
     6
  9
$UCSNAME
  2

  9
$UCSORG
 10
0.0
 20
0.0
 30
0.0
  9
$UCSXDIR
 10
1.0
 20
0.0
 30
0.0
  9
$UCSYDIR
 10
0.0
 20
1.0
 30
0.0
  9
$PUCSNAME
  2

  9
$PUCSORG
 10
0.0
 20
0.0
 30
0.0
  9
$PUCSXDIR
 10
1.0
 20
0.0
 30
0.0
  9
$PUCSYDIR
 10
0.0
 20
1.0
 30
0.0
  9
$USERI1
 70
     1
  9
$USERI2
 70
     0
  9
$USERI3
 70
     0
  9
$USERI4
 70
     0
  9
$USERI5
 70
     0
  9
$USERR1
 40
0.0
  9
$USERR2
 40
0.0
  9
$USERR3
 40
0.0
  9
$USERR4
 40
0.0
  9
$USERR5
 40
0.0
  9
$WORLDVIEW
 70
     1
  9
$SHADEDGE
 70
     3
  9
$SHADEDIF
 70
    70
  9
$TILEMODE
 70
     1
  9
$MAXACTVP
 70
    16
  9
$PINSBASE
 10
0.0
 20
0.0
 30
0.0
  9
$PLIMCHECK
 70
     0
  9
$PEXTMIN
 10
1.000000E+20
 20
1.000000E+20
 30
1.000000E+20
  9
$PEXTMAX
 10
-1.000000E+20
 20
-1.000000E+20
 30
-1.000000E+20
  9
$PLIMMIN
 10
0.0
 20
0.0
  9
$PLIMMAX
 10
12.0
 20
9.0
  9
$UNITMODE
 70
     0
  9
$VISRETAIN
 70
     0
  9
$PLINEGEN
 70
     0
  9
$PSLTSCALE
 70
     0
  9
$TREEDEPTH
 70
  3020
  9
$PICKSTYLE
 70
     0
  9
$CMLSTYLE
  2
STANDARD
  9
$CMLJUST
 70
     0
  9
$CMLSCALE
 40
1.0
  9
$PROXYGRAPHICS
 70
     1
  9
$MEASUREMENT
 70
     0
  0
ENDSEC
  0
SECTION
  2
CLASSES
  0
CLASS
  1
LWPOLYLINE
  2
AcDbPolyline
  3
"AutoCAD"
 90
        0
280
     0
281
     1
  0
CLASS
  1
DICTIONARYVAR
  2
AcDbDictionaryVar
  3
"AutoCAD"
 90
        0
280
     0
281
     0
  0
ENDSEC
  0
SECTION
  2
TABLES
  0
TABLE
  2
VPORT
  5
12
100
AcDbSymbolTable
 70
     2
  0
VPORT
  5
FF
100
AcDbSymbolTableRecord
100
AcDbViewportTableRecord
  2
*ACTIVE
 70
     0
 10
0.0
 20
0.0
 11
1.0
 21
1.0
 12
672.921516
 22
-179.378088
 13
0.0
 23
0.0
 14
1.0
 24
1.0
 15
600.0
 25
600.0
 16
0.0
 26
0.0
 36
1.0
 17
0.0
 27
0.0
 37
0.0
 40
750.362995
 41
2.224444
 42
50.0
 43
0.0
 44
0.0
 50
0.0
 51
0.0
 71
     0
 72
   100
 73
     1
 74
     0
 75
     0
 76
     0
 77
     0
 78
     0
  0
ENDTAB
  0
TABLE
  2
LTYPE
  5
D
100
AcDbSymbolTable
 70
     1
  0
LTYPE
  5
E
100
AcDbSymbolTableRecord
100
AcDbLinetypeTableRecord
  2
BYBLOCK
 70
     0
  3

 72
    65
 73
     0
 40
0.0
  0
LTYPE
  5
F
100
AcDbSymbolTableRecord
100
AcDbLinetypeTableRecord
  2
BYLAYER
 70
     0
  3

 72
    65
 73
     0
 40
0.0
  0
LTYPE
  5
5
100
AcDbSymbolTableRecord
100
AcDbLinetypeTableRecord
  2
CONTINUOUS
 70
     0
  3
Solid line
 72
    65
 73
     0
 40
0.0
  0
ENDTAB
  0
TABLE
  2
LAYER
  5
A
100
AcDbSymbolTable
 70
     7
  0
LAYER
  5
4
100
AcDbSymbolTableRecord
100
AcDbLayerTableRecord
  2
0
 70
     0
 62
     7
  6
CONTINUOUS
  0
LAYER
  5
1B
100
AcDbSymbolTableRecord
100
AcDbLayerTableRecord
  2
KOTY-UPLNE
 70
     0
 62
     7
  6
CONTINUOUS
  0
LAYER
  5
43
100
AcDbSymbolTableRecord
100
AcDbLayerTableRecord
  2
RAMEC
 70
     0
 62
     5
  6
CONTINUOUS
  0
LAYER
  5
AF
100
AcDbSymbolTableRecord
100
AcDbLayerTableRecord
  2
POZICE
 70
     0
 62
     1
  6
CONTINUOUS
  0
LAYER
  5
45
100
AcDbSymbolTableRecord
100
AcDbLayerTableRecord
  2
POPIS
 70
     0
 62
     1
  6
CONTINUOUS
  0
LAYER
  5
2B
100
AcDbSymbolTableRecord
100
AcDbLayerTableRecord
  2
DEFPOINTS
 70
     0
 62
     7
  6
CONTINUOUS
  0
LAYER
  5
40
100
AcDbSymbolTableRecord
100
AcDbLayerTableRecord
  2
TRAPEZ-VELKY
 70
     0
 62
     7
  6
CONTINUOUS
  0
ENDTAB
  0
TABLE
  2
STYLE
  5
B
100
AcDbSymbolTable
 70
     2
  0
STYLE
  5
C
100
AcDbSymbolTableRecord
100
AcDbTextStyleTableRecord
  2
STANDARD
 70
     0
 40
0.0
 41
0.9
 50
0.0
 71
     0
 42
50.0
  3
simplex.shx
  4

  0
STYLE
  5
46
100
AcDbSymbolTableRecord
100
AcDbTextStyleTableRecord
  2
STYLE1
 70
     0
 40
0.0
 41
0.9
 50
0.0
 71
     0
 42
50.0
  3
simplex.shx
  4

  0
ENDTAB
  0
TABLE
  2
VIEW
  5
10
100
AcDbSymbolTable
 70
     0
  0
ENDTAB
  0
TABLE
  2
UCS
  5
11
100
AcDbSymbolTable
 70
     0
  0
ENDTAB
  0
TABLE
  2
APPID
  5
14
100
AcDbSymbolTable
 70
     1
  0
APPID
  5
15
100
AcDbSymbolTableRecord
100
AcDbRegAppTableRecord
  2
ACAD
 70
     0
  0
ENDTAB
  0
TABLE
  2
DIMSTYLE
  5
16
100
AcDbSymbolTable
 70
     1
  0
DIMSTYLE
105
1D
102
{ACAD_REACTORS
330
47
330
30
330
63
330
54
330
71
330
BD
330
EB
330
9E
330
B0
330
CD
330
DC
330
80
330
1F
330
8F
102
}
100
AcDbSymbolTableRecord
100
AcDbDimStyleTableRecord
  2
UPLNE
 70
     0
  3

  4

  5

  6

  7

 40
5.0
 41
5.0
 42
1.0
 43
0.0
 44
2.0
 45
1.0
 46
1.0
 47
0.0
 48
0.0
140
6.44
141
1.0
142
0.0
143
25.4
144
1.0
145
0.0
146
1.0
147
1.0
 71
     0
 72
     0
 73
     0
 74
     0
 75
     0
 76
     0
 77
     3
 78
     0
170
     0
171
     2
172
     1
173
     0
174
     1
175
     0
176
   256
177
   256
178
     5
270
     2
271
     0
272
     0
273
     2
274
     2
340
C
275
     0
280
     0
281
     0
282
     0
283
     1
284
     0
285
     0
286
     0
287
     5
288
     0
  0
ENDTAB
  0
TABLE
  2
BLOCK_RECORD
  5
1
100
AcDbSymbolTable
 70
    14
  0
BLOCK_RECORD
  5
2
100
AcDbSymbolTableRecord
100
AcDbBlockTableRecord
  2
*MODEL_SPACE
  0
BLOCK_RECORD
  5
7
100
AcDbSymbolTableRecord
100
AcDbBlockTableRecord
  2
*PAPER_SPACE
  0
BLOCK_RECORD
  5
48
100
AcDbSymbolTableRecord
100
AcDbBlockTableRecord
  2
*D0
  0
BLOCK_RECORD
  5
31
100
AcDbSymbolTableRecord
100
AcDbBlockTableRecord
  2
*D1
  0
BLOCK_RECORD
  5
64
100
AcDbSymbolTableRecord
100
AcDbBlockTableRecord
  2
*D2
  0
BLOCK_RECORD
  5
55
100
AcDbSymbolTableRecord
100
AcDbBlockTableRecord
  2
*D3
  0
BLOCK_RECORD
  5
72
100
AcDbSymbolTableRecord
100
AcDbBlockTableRecord
  2
*D4
  0
BLOCK_RECORD
  5
BE
100
AcDbSymbolTableRecord
100
AcDbBlockTableRecord
  2
*D5
  0
BLOCK_RECORD
  5
EC
100
AcDbSymbolTableRecord
100
AcDbBlockTableRecord
  2
*D6
  0
BLOCK_RECORD
  5
9F
100
AcDbSymbolTableRecord
100
AcDbBlockTableRecord
  2
*D7
  0
BLOCK_RECORD
  5
B1
100
AcDbSymbolTableRecord
100
AcDbBlockTableRecord
  2
*D8
  0
BLOCK_RECORD
  5
CE
100
AcDbSymbolTableRecord
100
AcDbBlockTableRecord
  2
*D9
  0
BLOCK_RECORD
  5
DD
100
AcDbSymbolTableRecord
100
AcDbBlockTableRecord
  2
*D10
  0
BLOCK_RECORD
  5
81
100
AcDbSymbolTableRecord
100
AcDbBlockTableRecord
  2
*D11
  0
BLOCK_RECORD
  5
20
100
AcDbSymbolTableRecord
100
AcDbBlockTableRecord
  2
*D12
  0
BLOCK_RECORD
  5
90
100
AcDbSymbolTableRecord
100
AcDbBlockTableRecord
  2
*D13
  0
ENDTAB
  0
ENDSEC
  0
SECTION
  2
BLOCKS
  0
BLOCK
  5
3
100
AcDbEntity
  8
0
100
AcDbBlockBegin
  2
*MODEL_SPACE
 70
     0
 10
0.0
 20
0.0
 30
0.0
  3
*MODEL_SPACE
  1

  0
ENDBLK
  5
6
100
AcDbEntity
  8
0
100
AcDbBlockEnd
  0
BLOCK
  5
8
100
AcDbEntity
 67
     1
  8
0
100
AcDbBlockBegin
  2
*PAPER_SPACE
 70
     0
 10
0.0
 20
0.0
 30
0.0
  3
*PAPER_SPACE
  1

  0
ENDBLK
  5
9
100
AcDbEntity
 67
     1
  8
0
100
AcDbBlockEnd
  0
BLOCK
  5
52
100
AcDbEntity
  8
0
100
AcDbBlockBegin
  2
*D0
 70
     1
 10
0.0
 20
0.0
 30
0.0
  3
*D0
  1

  0
LINE
  5
49
100
AcDbEntity
  8
0
  6
BYBLOCK
100
AcDbLine
 10
1096.182687
 20
-3175.042274
 30
0.0
 11
1096.182687
 21
-3238.042274
 31
0.0
  0
LINE
  5
4A
100
AcDbEntity
  8
0
  6
BYBLOCK
100
AcDbLine
 10
1321.182687
 20
-3175.042274
 30
0.0
 11
1321.182687
 21
-3238.042274
 31
0.0
  0
LINE
  5
4B
100
AcDbEntity
  8
0
  6
BYBLOCK
100
AcDbLine
 10
1111.182687
 20
-3232.042274
 30
0.0
 11
1306.182687
 21
-3232.042274
 31
0.0
  0
SOLID
  5
4C
100
AcDbEntity
  8
0
  6
BYBLOCK
100
AcDbTrace
 10
1111.182687
 20
-3229.542274
 30
0.0
 11
1111.182687
 21
-3234.542274
 31
0.0
 12
1096.182687
 22
-3232.042274
 32
0.0
 13
1096.182687
 23
-3232.042274
 33
0.0
  0
SOLID
  5
4D
100
AcDbEntity
  8
0
  6
BYBLOCK
100
AcDbTrace
 10
1306.182687
 20
-3229.542274
 30
0.0
 11
1306.182687
 21
-3234.542274
 31
0.0
 12
1321.182687
 22
-3232.042274
 32
0.0
 13
1321.182687
 23
-3232.042274
 33
0.0
  0
MTEXT
  5
4E
100
AcDbEntity
  8
0
  6
BYBLOCK
 62
     5
100
AcDbMText
 10
1208.682687
 20
-3216.382274
 30
0.0
 40
19.32
 41
0.0
 71
     5
 72
     1
  1
\A1;225
  0
POINT
  5
4F
100
AcDbEntity
  8
DEFPOINTS
  6
BYBLOCK
 62
     0
100
AcDbPoint
 10
1096.182687
 20
-3172.042274
 30
0.0
  0
POINT
  5
50
100
AcDbEntity
  8
DEFPOINTS
  6
BYBLOCK
 62
     0
100
AcDbPoint
 10
1321.182687
 20
-3172.042274
 30
0.0
  0
POINT
  5
51
100
AcDbEntity
  8
DEFPOINTS
  6
BYBLOCK
 62
     0
100
AcDbPoint
 10
1321.182687
 20
-3232.042274
 30
0.0
  0
ENDBLK
  5
53
100
AcDbEntity
  8
0
100
AcDbBlockEnd
  0
BLOCK
  5
3D
100
AcDbEntity
  8
0
100
AcDbBlockBegin
  2
*D1
 70
     1
 10
0.0
 20
0.0
 30
0.0
  3
*D1
  1

  0
LINE
  5
32
100
AcDbEntity
  8
0
  6
BYBLOCK
100
AcDbLine
 10
1528.682687
 20
-3175.042274
 30
0.0
 11
1528.682687
 21
-3238.042274
 31
0.0
  0
LINE
  5
33
100
AcDbEntity
  8
0
  6
BYBLOCK
100
AcDbLine
 10
1563.682687
 20
-3175.042274
 30
0.0
 11
1563.682687
 21
-3238.042274
 31
0.0
  0
LINE
  5
34
100
AcDbEntity
  8
0
  6
BYBLOCK
100
AcDbLine
 10
1513.682687
 20
-3232.042274
 30
0.0
 11
1498.682687
 21
-3232.042274
 31
0.0
  0
LINE
  5
35
100
AcDbEntity
  8
0
  6
BYBLOCK
100
AcDbLine
 10
1578.682687
 20
-3232.042274
 30
0.0
 11
1593.682687
 21
-3232.042274
 31
0.0
  0
LINE
  5
36
100
AcDbEntity
  8
0
  6
BYBLOCK
100
AcDbLine
 10
1528.682687
 20
-3232.042274
 30
0.0
 11
1563.682687
 21
-3232.042274
 31
0.0
  0
SOLID
  5
37
100
AcDbEntity
  8
0
  6
BYBLOCK
100
AcDbTrace
 10
1513.682687
 20
-3229.542274
 30
0.0
 11
1513.682687
 21
-3234.542274
 31
0.0
 12
1528.682687
 22
-3232.042274
 32
0.0
 13
1528.682687
 23
-3232.042274
 33
0.0
  0
SOLID
  5
38
100
AcDbEntity
  8
0
  6
BYBLOCK
100
AcDbTrace
 10
1578.682687
 20
-3229.542274
 30
0.0
 11
1578.682687
 21
-3234.542274
 31
0.0
 12
1563.682687
 22
-3232.042274
 32
0.0
 13
1563.682687
 23
-3232.042274
 33
0.0
  0
MTEXT
  5
39
100
AcDbEntity
  8
0
  6
BYBLOCK
 62
     5
100
AcDbMText
 10
1546.182687
 20
-3216.382274
 30
0.0
 40
19.32
 41
0.0
 71
     5
 72
     1
  1
\A1;35
  0
POINT
  5
3A
100
AcDbEntity
  8
DEFPOINTS
  6
BYBLOCK
 62
     0
100
AcDbPoint
 10
1528.682687
 20
-3172.042274
 30
0.0
  0
POINT
  5
3B
100
AcDbEntity
  8
DEFPOINTS
  6
BYBLOCK
 62
     0
100
AcDbPoint
 10
1563.682687
 20
-3172.042274
 30
0.0
  0
POINT
  5
3C
100
AcDbEntity
  8
DEFPOINTS
  6
BYBLOCK
 62
     0
100
AcDbPoint
 10
1563.682687
 20
-3232.042274
 30
0.0
  0
ENDBLK
  5
3E
100
AcDbEntity
  8
0
100
AcDbBlockEnd
  0
BLOCK
  5
6E
100
AcDbEntity
  8
0
100
AcDbBlockBegin
  2
*D2
 70
     1
 10
0.0
 20
0.0
 30
0.0
  3
*D2
  1

  0
LINE
  5
65
100
AcDbEntity
  8
0
  6
BYBLOCK
100
AcDbLine
 10
1278.682687
 20
-3110.042274
 30
0.0
 11
1278.682687
 21
-3067.731824
 31
0.0
  0
LINE
  5
66
100
AcDbEntity
  8
0
  6
BYBLOCK
100
AcDbLine
 10
1138.682687
 20
-3110.042274
 30
0.0
 11
1138.682687
 21
-3067.731824
 31
0.0
  0
LINE
  5
67
100
AcDbEntity
  8
0
  6
BYBLOCK
100
AcDbLine
 10
1263.682687
 20
-3073.731824
 30
0.0
 11
1153.682687
 21
-3073.731824
 31
0.0
  0
SOLID
  5
68
100
AcDbEntity
  8
0
  6
BYBLOCK
100
AcDbTrace
 10
1263.682687
 20
-3071.231824
 30
0.0
 11
1263.682687
 21
-3076.231824
 31
0.0
 12
1278.682687
 22
-3073.731824
 32
0.0
 13
1278.682687
 23
-3073.731824
 33
0.0
  0
SOLID
  5
69
100
AcDbEntity
  8
0
  6
BYBLOCK
100
AcDbTrace
 10
1153.682687
 20
-3071.231824
 30
0.0
 11
1153.682687
 21
-3076.231824
 31
0.0
 12
1138.682687
 22
-3073.731824
 32
0.0
 13
1138.682687
 23
-3073.731824
 33
0.0
  0
MTEXT
  5
6A
100
AcDbEntity
  8
0
  6
BYBLOCK
 62
     5
100
AcDbMText
 10
1208.682687
 20
-3058.071824
 30
0.0
 40
19.32
 41
0.0
 71
     5
 72
     1
  1
\A1;140
  0
POINT
  5
6B
100
AcDbEntity
  8
DEFPOINTS
  6
BYBLOCK
 62
     0
100
AcDbPoint
 10
1278.682687
 20
-3113.042274
 30
0.0
  0
POINT
  5
6C
100
AcDbEntity
  8
DEFPOINTS
  6
BYBLOCK
 62
     0
100
AcDbPoint
 10
1138.682687
 20
-3113.042274
 30
0.0
  0
POINT
  5
6D
100
AcDbEntity
  8
DEFPOINTS
  6
BYBLOCK
 62
     0
100
AcDbPoint
 10
1138.682687
 20
-3073.731824
 30
0.0
  0
ENDBLK
  5
6F
100
AcDbEntity
  8
0
100
AcDbBlockEnd
  0
BLOCK
  5
61
100
AcDbEntity
  8
0
100
AcDbBlockBegin
  2
*D3
 70
     1
 10
0.0
 20
0.0
 30
0.0
  3
*D3
  1

  0
LINE
  5
56
100
AcDbEntity
  8
0
  6
BYBLOCK
100
AcDbLine
 10
1138.682687
 20
-3110.042274
 30
0.0
 11
1138.682687
 21
-3067.731824
 31
0.0
  0
LINE
  5
57
100
AcDbEntity
  8
0
  6
BYBLOCK
100
AcDbLine
 10
1113.682687
 20
-3169.042274
 30
0.0
 11
1113.682687
 21
-3067.731824
 31
0.0
  0
LINE
  5
58
100
AcDbEntity
  8
0
  6
BYBLOCK
100
AcDbLine
 10
1153.682687
 20
-3073.731824
 30
0.0
 11
1168.682687
 21
-3073.731824
 31
0.0
  0
LINE
  5
59
100
AcDbEntity
  8
0
  6
BYBLOCK
100
AcDbLine
 10
1098.682687
 20
-3073.731824
 30
0.0
 11
1083.682687
 21
-3073.731824
 31
0.0
  0
LINE
  5
5A
100
AcDbEntity
  8
0
  6
BYBLOCK
100
AcDbLine
 10
1138.682687
 20
-3073.731824
 30
0.0
 11
1113.682687
 21
-3073.731824
 31
0.0
  0
SOLID
  5
5B
100
AcDbEntity
  8
0
  6
BYBLOCK
100
AcDbTrace
 10
1153.682687
 20
-3071.231824
 30
0.0
 11
1153.682687
 21
-3076.231824
 31
0.0
 12
1138.682687
 22
-3073.731824
 32
0.0
 13
1138.682687
 23
-3073.731824
 33
0.0
  0
SOLID
  5
5C
100
AcDbEntity
  8
0
  6
BYBLOCK
100
AcDbTrace
 10
1098.682687
 20
-3071.231824
 30
0.0
 11
1098.682687
 21
-3076.231824
 31
0.0
 12
1113.682687
 22
-3073.731824
 32
0.0
 13
1113.682687
 23
-3073.731824
 33
0.0
  0
MTEXT
  5
5D
100
AcDbEntity
  8
0
  6
BYBLOCK
 62
     5
100
AcDbMText
 10
1126.182687
 20
-3058.071824
 30
0.0
 40
19.32
 41
0.0
 71
     5
 72
     1
  1
\A1;25
  0
POINT
  5
5E
100
AcDbEntity
  8
DEFPOINTS
  6
BYBLOCK
 62
     0
100
AcDbPoint
 10
1138.682687
 20
-3113.042274
 30
0.0
  0
POINT
  5
5F
100
AcDbEntity
  8
DEFPOINTS
  6
BYBLOCK
 62
     0
100
AcDbPoint
 10
1113.682687
 20
-3172.042274
 30
0.0
  0
POINT
  5
60
100
AcDbEntity
  8
DEFPOINTS
  6
BYBLOCK
 62
     0
100
AcDbPoint
 10
1113.682687
 20
-3073.731824
 30
0.0
  0
ENDBLK
  5
62
100
AcDbEntity
  8
0
100
AcDbBlockEnd
  0
BLOCK
  5
7E
100
AcDbEntity
  8
0
100
AcDbBlockBegin
  2
*D4
 70
     1
 10
0.0
 20
0.0
 30
0.0
  3
*D4
  1

  0
LINE
  5
73
100
AcDbEntity
  8
0
  6
BYBLOCK
100
AcDbLine
 10
1303.682687
 20
-3169.042274
 30
0.0
 11
1303.682687
 21
-3067.731824
 31
0.0
  0
LINE
  5
74
100
AcDbEntity
  8
0
  6
BYBLOCK
100
AcDbLine
 10
1278.682687
 20
-3110.042274
 30
0.0
 11
1278.682687
 21
-3067.731824
 31
0.0
  0
LINE
  5
75
100
AcDbEntity
  8
0
  6
BYBLOCK
100
AcDbLine
 10
1318.682687
 20
-3073.731824
 30
0.0
 11
1333.682687
 21
-3073.731824
 31
0.0
  0
LINE
  5
76
100
AcDbEntity
  8
0
  6
BYBLOCK
100
AcDbLine
 10
1263.682687
 20
-3073.731824
 30
0.0
 11
1248.682687
 21
-3073.731824
 31
0.0
  0
LINE
  5
77
100
AcDbEntity
  8
0
  6
BYBLOCK
100
AcDbLine
 10
1303.682687
 20
-3073.731824
 30
0.0
 11
1278.682687
 21
-3073.731824
 31
0.0
  0
SOLID
  5
78
100
AcDbEntity
  8
0
  6
BYBLOCK
100
AcDbTrace
 10
1318.682687
 20
-3071.231824
 30
0.0
 11
1318.682687
 21
-3076.231824
 31
0.0
 12
1303.682687
 22
-3073.731824
 32
0.0
 13
1303.682687
 23
-3073.731824
 33
0.0
  0
SOLID
  5
79
100
AcDbEntity
  8
0
  6
BYBLOCK
100
AcDbTrace
 10
1263.682687
 20
-3071.231824
 30
0.0
 11
1263.682687
 21
-3076.231824
 31
0.0
 12
1278.682687
 22
-3073.731824
 32
0.0
 13
1278.682687
 23
-3073.731824
 33
0.0
  0
MTEXT
  5
7A
100
AcDbEntity
  8
0
  6
BYBLOCK
 62
     5
100
AcDbMText
 10
1291.182687
 20
-3058.071824
 30
0.0
 40
19.32
 41
0.0
 71
     5
 72
     1
  1
\A1;25
  0
POINT
  5
7B
100
AcDbEntity
  8
DEFPOINTS
  6
BYBLOCK
 62
     0
100
AcDbPoint
 10
1303.682687
 20
-3172.042274
 30
0.0
  0
POINT
  5
7C
100
AcDbEntity
  8
DEFPOINTS
  6
BYBLOCK
 62
     0
100
AcDbPoint
 10
1278.682687
 20
-3113.042274
 30
0.0
  0
POINT
  5
7D
100
AcDbEntity
  8
DEFPOINTS
  6
BYBLOCK
 62
     0
100
AcDbPoint
 10
1278.682687
 20
-3073.731824
 30
0.0
  0
ENDBLK
  5
7F
100
AcDbEntity
  8
0
100
AcDbBlockEnd
  0
BLOCK
  5
CA
100
AcDbEntity
  8
0
100
AcDbBlockBegin
  2
*D5
 70
     1
 10
0.0
 20
0.0
 30
0.0
  3
*D5
  1

  0
LINE
  5
BF
100
AcDbEntity
  8
0
  6
BYBLOCK
100
AcDbLine
 10
1956.682687
 20
-3113.042274
 30
0.0
 11
2063.762512
 21
-3113.042274
 31
0.0
  0
LINE
  5
C0
100
AcDbEntity
  8
0
  6
BYBLOCK
100
AcDbLine
 10
1968.592687
 20
-3147.042274
 30
0.0
 11
2063.762512
 21
-3147.042274
 31
0.0
  0
LINE
  5
C1
100
AcDbEntity
  8
0
  6
BYBLOCK
100
AcDbLine
 10
2057.762512
 20
-3098.042274
 30
0.0
 11
2057.762512
 21
-3083.042274
 31
0.0
  0
LINE
  5
C2
100
AcDbEntity
  8
0
  6
BYBLOCK
100
AcDbLine
 10
2057.762512
 20
-3162.042274
 30
0.0
 11
2057.762512
 21
-3177.042274
 31
0.0
  0
LINE
  5
C3
100
AcDbEntity
  8
0
  6
BYBLOCK
100
AcDbLine
 10
2057.762512
 20
-3113.042274
 30
0.0
 11
2057.762512
 21
-3147.042274
 31
0.0
  0
SOLID
  5
C4
100
AcDbEntity
  8
0
  6
BYBLOCK
100
AcDbTrace
 10
2055.262512
 20
-3098.042274
 30
0.0
 11
2060.262512
 21
-3098.042274
 31
0.0
 12
2057.762512
 22
-3113.042274
 32
0.0
 13
2057.762512
 23
-3113.042274
 33
0.0
  0
SOLID
  5
C5
100
AcDbEntity
  8
0
  6
BYBLOCK
100
AcDbTrace
 10
2055.262512
 20
-3162.042274
 30
0.0
 11
2060.262512
 21
-3162.042274
 31
0.0
 12
2057.762512
 22
-3147.042274
 32
0.0
 13
2057.762512
 23
-3147.042274
 33
0.0
  0
MTEXT
  5
C6
100
AcDbEntity
  8
0
  6
BYBLOCK
 62
     5
100
AcDbMText
 10
2042.102512
 20
-3130.042274
 30
0.0
 40
19.32
 41
0.0
 71
     5
 72
     1
  1
\A1;34
 11
0.0
 21
1.0
 31
0.0
  0
POINT
  5
C7
100
AcDbEntity
  8
DEFPOINTS
  6
BYBLOCK
 62
     0
100
AcDbPoint
 10
1953.682687
 20
-3113.042274
 30
0.0
  0
POINT
  5
C8
100
AcDbEntity
  8
DEFPOINTS
  6
BYBLOCK
 62
     0
100
AcDbPoint
 10
1965.592687
 20
-3147.042274
 30
0.0
  0
POINT
  5
C9
100
AcDbEntity
  8
DEFPOINTS
  6
BYBLOCK
 62
     0
100
AcDbPoint
 10
2057.762512
 20
-3147.042274
 30
0.0
  0
ENDBLK
  5
CB
100
AcDbEntity
  8
0
100
AcDbBlockEnd
  0
BLOCK
  5
F9
100
AcDbEntity
  8
0
100
AcDbBlockBegin
  2
*D6
 70
     1
 10
0.0
 20
0.0
 30
0.0
  3
*D6
  1

  0
LINE
  5
ED
100
AcDbEntity
  8
0
  6
BYBLOCK
100
AcDbLine
 10
1968.592687
 20
-3147.042274
 30
0.0
 11
2063.762512
 21
-3147.042274
 31
0.0
  0
LINE
  5
EE
100
AcDbEntity
  8
0
  6
BYBLOCK
100
AcDbLine
 10
1975.343887
 20
-3154.042274
 30
0.0
 11
2063.762512
 21
-3154.042274
 31
0.0
  0
LINE
  5
EF
100
AcDbEntity
  8
0
  6
BYBLOCK
100
AcDbLine
 10
2057.762512
 20
-3132.042274
 30
0.0
 11
2057.762512
 21
-3117.042274
 31
0.0
  0
LINE
  5
F0
100
AcDbEntity
  8
0
  6
BYBLOCK
100
AcDbLine
 10
2057.762512
 20
-3169.042274
 30
0.0
 11
2057.762512
 21
-3184.042274
 31
0.0
  0
MTEXT
  5
F1
100
AcDbEntity
  8
0
  6
BYBLOCK
 62
     5
100
AcDbMText
 10
2081.38515
 20
-3150.542274
 30
0.0
 40
19.32
 41
0.0
 71
     5
 72
     1
  1
\A1;7
 11
0.0
 21
1.0
 31
0.0
  0
LINE
  5
F2
100
AcDbEntity
  8
0
  6
BYBLOCK
100
AcDbLine
 10
2057.762512
 20
-3147.042274
 30
0.0
 11
2057.762512
 21
-3154.042274
 31
0.0
  0
LINE
  5
F3
100
AcDbEntity
  8
0
  6
BYBLOCK
100
AcDbLine
 10
2057.762512
 20
-3147.042274
 30
0.0
 11
2057.762512
 21
-3154.042274
 31
0.0
  0
SOLID
  5
F4
100
AcDbEntity
  8
0
  6
BYBLOCK
100
AcDbTrace
 10
2055.262512
 20
-3132.042274
 30
0.0
 11
2060.262512
 21
-3132.042274
 31
0.0
 12
2057.762512
 22
-3147.042274
 32
0.0
 13
2057.762512
 23
-3147.042274
 33
0.0
  0
SOLID
  5
F5
100
AcDbEntity
  8
0
  6
BYBLOCK
100
AcDbTrace
 10
2055.262512
 20
-3169.042274
 30
0.0
 11
2060.262512
 21
-3169.042274
 31
0.0
 12
2057.762512
 22
-3154.042274
 32
0.0
 13
2057.762512
 23
-3154.042274
 33
0.0
  0
POINT
  5
F6
100
AcDbEntity
  8
DEFPOINTS
  6
BYBLOCK
 62
     0
100
AcDbPoint
 10
1965.592687
 20
-3147.042274
 30
0.0
  0
POINT
  5
F7
100
AcDbEntity
  8
DEFPOINTS
  6
BYBLOCK
 62
     0
100
AcDbPoint
 10
1972.343887
 20
-3154.042274
 30
0.0
  0
POINT
  5
F8
100
AcDbEntity
  8
DEFPOINTS
  6
BYBLOCK
 62
     0
100
AcDbPoint
 10
2057.762512
 20
-3154.042274
 30
0.0
  0
ENDBLK
  5
FA
100
AcDbEntity
  8
0
100
AcDbBlockEnd
  0
BLOCK
  5
AC
100
AcDbEntity
  8
0
100
AcDbBlockBegin
  2
*D7
 70
     1
 10
0.0
 20
0.0
 30
0.0
  3
*D7
  1

  0
LINE
  5
A0
100
AcDbEntity
  8
0
  6
BYBLOCK
100
AcDbLine
 10
1975.343887
 20
-3154.042274
 30
0.0
 11
2063.762512
 21
-3154.042274
 31
0.0
  0
LINE
  5
A1
100
AcDbEntity
  8
0
  6
BYBLOCK
100
AcDbLine
 10
2016.682687
 20
-3172.042274
 30
0.0
 11
2063.762512
 21
-3172.042274
 31
0.0
  0
LINE
  5
A2
100
AcDbEntity
  8
0
  6
BYBLOCK
100
AcDbLine
 10
2057.762512
 20
-3139.042274
 30
0.0
 11
2057.762512
 21
-3124.042274
 31
0.0
  0
LINE
  5
A3
100
AcDbEntity
  8
0
  6
BYBLOCK
100
AcDbLine
 10
2057.762512
 20
-3187.042274
 30
0.0
 11
2057.762512
 21
-3202.042274
 31
0.0
  0
MTEXT
  5
A4
100
AcDbEntity
  8
0
  6
BYBLOCK
 62
     5
100
AcDbMText
 10
2042.012512
 20
-3190.716299
 30
0.0
 40
19.32
 41
0.0
 71
     5
 72
     1
  1
\A1;18
 11
0.0
 21
1.0
 31
0.0
  0
LINE
  5
A5
100
AcDbEntity
  8
0
  6
BYBLOCK
100
AcDbLine
 10
2057.762512
 20
-3154.042274
 30
0.0
 11
2057.762512
 21
-3172.042274
 31
0.0
  0
LINE
  5
A6
100
AcDbEntity
  8
0
  6
BYBLOCK
100
AcDbLine
 10
2057.762512
 20
-3154.042274
 30
0.0
 11
2057.762512
 21
-3172.042274
 31
0.0
  0
SOLID
  5
A7
100
AcDbEntity
  8
0
  6
BYBLOCK
100
AcDbTrace
 10
2055.262512
 20
-3139.042274
 30
0.0
 11
2060.262512
 21
-3139.042274
 31
0.0
 12
2057.762512
 22
-3154.042274
 32
0.0
 13
2057.762512
 23
-3154.042274
 33
0.0
  0
SOLID
  5
A8
100
AcDbEntity
  8
0
  6
BYBLOCK
100
AcDbTrace
 10
2055.262512
 20
-3187.042274
 30
0.0
 11
2060.262512
 21
-3187.042274
 31
0.0
 12
2057.762512
 22
-3172.042274
 32
0.0
 13
2057.762512
 23
-3172.042274
 33
0.0
  0
POINT
  5
A9
100
AcDbEntity
  8
DEFPOINTS
  6
BYBLOCK
 62
     0
100
AcDbPoint
 10
1972.343887
 20
-3154.042274
 30
0.0
  0
POINT
  5
AA
100
AcDbEntity
  8
DEFPOINTS
  6
BYBLOCK
 62
     0
100
AcDbPoint
 10
2013.682687
 20
-3172.042274
 30
0.0
  0
POINT
  5
AB
100
AcDbEntity
  8
DEFPOINTS
  6
BYBLOCK
 62
     0
100
AcDbPoint
 10
2057.762512
 20
-3172.042274
 30
0.0
  0
ENDBLK
  5
AD
100
AcDbEntity
  8
0
100
AcDbBlockEnd
  0
BLOCK
  5
BB
100
AcDbEntity
  8
0
100
AcDbBlockBegin
  2
*D8
 70
     1
 10
0.0
 20
0.0
 30
0.0
  3
*D8
  1

  0
LINE
  5
B2
100
AcDbEntity
  8
0
  6
BYBLOCK
100
AcDbLine
 10
1956.682687
 20
-3113.042274
 30
0.0
 11
2133.721845
 21
-3113.042274
 31
0.0
  0
LINE
  5
B3
100
AcDbEntity
  8
0
  6
BYBLOCK
100
AcDbLine
 10
2016.682687
 20
-3172.042274
 30
0.0
 11
2133.721845
 21
-3172.042274
 31
0.0
  0
LINE
  5
B4
100
AcDbEntity
  8
0
  6
BYBLOCK
100
AcDbLine
 10
2127.721845
 20
-3128.042274
 30
0.0
 11
2127.721845
 21
-3157.042274
 31
0.0
  0
SOLID
  5
B5
100
AcDbEntity
  8
0
  6
BYBLOCK
100
AcDbTrace
 10
2125.221845
 20
-3128.042274
 30
0.0
 11
2130.221845
 21
-3128.042274
 31
0.0
 12
2127.721845
 22
-3113.042274
 32
0.0
 13
2127.721845
 23
-3113.042274
 33
0.0
  0
SOLID
  5
B6
100
AcDbEntity
  8
0
  6
BYBLOCK
100
AcDbTrace
 10
2125.221845
 20
-3157.042274
 30
0.0
 11
2130.221845
 21
-3157.042274
 31
0.0
 12
2127.721845
 22
-3172.042274
 32
0.0
 13
2127.721845
 23
-3172.042274
 33
0.0
  0
MTEXT
  5
B7
100
AcDbEntity
  8
0
  6
BYBLOCK
 62
     5
100
AcDbMText
 10
2112.061845
 20
-3142.542274
 30
0.0
 40
19.32
 41
0.0
 71
     5
 72
     1
  1
\A1;59
 11
0.0
 21
1.0
 31
0.0
  0
POINT
  5
B8
100
AcDbEntity
  8
DEFPOINTS
  6
BYBLOCK
 62
     0
100
AcDbPoint
 10
1953.682687
 20
-3113.042274
 30
0.0
  0
POINT
  5
B9
100
AcDbEntity
  8
DEFPOINTS
  6
BYBLOCK
 62
     0
100
AcDbPoint
 10
2013.682687
 20
-3172.042274
 30
0.0
  0
POINT
  5
BA
100
AcDbEntity
  8
DEFPOINTS
  6
BYBLOCK
 62
     0
100
AcDbPoint
 10
2127.721845
 20
-3172.042274
 30
0.0
  0
ENDBLK
  5
BC
100
AcDbEntity
  8
0
100
AcDbBlockEnd
  0
BLOCK
  5
DA
100
AcDbEntity
  8
0
100
AcDbBlockBegin
  2
*D9
 70
     1
 10
0.0
 20
0.0
 30
0.0
  3
*D9
  1

  0
LINE
  5
CF
100
AcDbEntity
  8
0
  6
BYBLOCK
100
AcDbLine
 10
1791.682687
 20
-3172.042274
 30
0.0
 11
1941.667136
 21
-3172.042274
 31
0.0
  0
LINE
  5
D0
100
AcDbEntity
  8
0
  6
BYBLOCK
100
AcDbLine
 10
1796.017971
 20
-3151.212606
 30
0.0
 11
1839.498175
 21
-3027.743876
 31
0.0
  0
ARC
  5
D1
100
AcDbEntity
  8
0
  6
BYBLOCK
100
AcDbCircle
 10
1788.682687
 20
-3172.042274
 30
0.0
 40
146.984448
100
AcDbArc
 50
5.849667
 51
64.750333
  0
SOLID
  5
D2
100
AcDbEntity
  8
0
  6
BYBLOCK
100
AcDbTrace
 10
1937.398492
 20
-3156.93425
 30
0.0
 11
1932.405005
 21
-3157.189379
 31
0.0
 12
1935.667136
 22
-3172.042274
 32
0.0
 13
1935.667136
 23
-3172.042274
 33
0.0
  0
SOLID
  5
D3
100
AcDbEntity
  8
0
  6
BYBLOCK
100
AcDbTrace
 10
1850.431243
 20
-3041.413682
 30
0.0
 11
1852.330528
 21
-3036.788456
 31
0.0
 12
1837.505208
 22
-3033.403212
 32
0.0
 13
1837.505208
 23
-3033.403212
 33
0.0
  0
MTEXT
  5
D4
100
AcDbEntity
  8
0
  6
BYBLOCK
 62
     5
100
AcDbMText
 10
1922.924629
 20
-3076.993682
 30
0.0
 40
19.32
 41
0.0
 71
     5
 72
     1
  1
\A1;70,6°
 11
0.577858
 21
-0.816138
 31
0.0
  0
POINT
  5
D5
100
AcDbEntity
  8
DEFPOINTS
  6
BYBLOCK
 62
     0
100
AcDbPoint
 10
1923.442136
 20
-3113.353952
 30
0.0
  0
POINT
  5
D6
100
AcDbEntity
  8
DEFPOINTS
  6
BYBLOCK
 62
     0
100
AcDbPoint
 10
1788.682687
 20
-3172.042274
 30
0.0
  0
POINT
  5
D7
100
AcDbEntity
  8
DEFPOINTS
  6
BYBLOCK
 62
     0
100
AcDbPoint
 10
1795.021488
 20
-3154.042274
 30
0.0
  0
POINT
  5
D8
100
AcDbEntity
  8
DEFPOINTS
  6
BYBLOCK
 62
     0
100
AcDbPoint
 10
1788.682687
 20
-3172.042274
 30
0.0
  0
POINT
  5
D9
100
AcDbEntity
  8
DEFPOINTS
  6
BYBLOCK
 62
     0
100
AcDbPoint
 10
1771.182687
 20
-3172.042274
 30
0.0
  0
ENDBLK
  5
DB
100
AcDbEntity
  8
0
100
AcDbBlockEnd
  0
BLOCK
  5
E8
100
AcDbEntity
  8
0
100
AcDbBlockBegin
  2
*D10
 70
     1
 10
0.0
 20
0.0
 30
0.0
  3
*D10
  1

  0
LINE
  5
DE
100
AcDbEntity
  8
0
  6
BYBLOCK
100
AcDbLine
 10
1803.855286
 20
-3144.882926
 30
0.0
 11
1831.816131
 21
-3115.891646
 31
0.0
  0
ARC
  5
DF
100
AcDbEntity
  8
0
  6
BYBLOCK
100
AcDbCircle
 10
1795.021488
 20
-3154.042274
 30
0.0
 40
47.002983
100
AcDbArc
 50
18.36322
 51
27.67332
  0
SOLID
  5
E0
100
AcDbEntity
  8
0
  6
BYBLOCK
100
AcDbTrace
 10
1842.098974
 20
-3138.83555
 30
0.0
 11
1837.163037
 21
-3139.633372
 31
0.0
 12
1842.024471
 22
-3154.042274
 32
0.0
 13
1842.024471
 23
-3154.042274
 33
0.0
  0
SOLID
  5
E1
100
AcDbEntity
  8
0
  6
BYBLOCK
100
AcDbTrace
 10
1834.647407
 20
-3133.71217
 30
0.0
 11
1838.64819
 21
-3130.713215
 31
0.0
 12
1827.650934
 22
-3120.210342
 32
0.0
 13
1827.650934
 23
-3120.210342
 33
0.0
  0
MTEXT
  5
E2
100
AcDbEntity
  8
0
  6
BYBLOCK
 62
     5
100
AcDbMText
 10
1860.319999
 20
-3152.258106
 30
0.0
 40
19.32
 41
0.0
 71
     5
 72
     1
  1
\A1;46,04°
 11
0.027313
 21
-0.999627
 31
0.0
  0
POINT
  5
E3
100
AcDbEntity
  8
DEFPOINTS
  6
BYBLOCK
 62
     0
100
AcDbPoint
 10
1835.440867
 20
-3130.051564
 30
0.0
  0
POINT
  5
E4
100
AcDbEntity
  8
DEFPOINTS
  6
BYBLOCK
 62
     0
100
AcDbPoint
 10
1801.772687
 20
-3147.042274
 30
0.0
  0
POINT
  5
E5
100
AcDbEntity
  8
DEFPOINTS
  6
BYBLOCK
 62
     0
100
AcDbPoint
 10
1795.021488
 20
-3154.042274
 30
0.0
  0
POINT
  5
E6
100
AcDbEntity
  8
DEFPOINTS
  6
BYBLOCK
 62
     0
100
AcDbPoint
 10
1846.975898
 20
-3154.042274
 30
0.0
  0
POINT
  5
E7
100
AcDbEntity
  8
DEFPOINTS
  6
BYBLOCK
 62
     0
100
AcDbPoint
 10
1795.021488
 20
-3154.042274
 30
0.0
  0
ENDBLK
  5
E9
100
AcDbEntity
  8
0
100
AcDbBlockEnd
  0
BLOCK
  5
8D
100
AcDbEntity
  8
0
100
AcDbBlockBegin
  2
*D11
 70
     1
 10
0.0
 20
0.0
 30
0.0
  3
*D11
  1

  0
LINE
  5
82
100
AcDbEntity
  8
0
  6
BYBLOCK
100
AcDbLine
 10
1506.682687
 20
-3113.042274
 30
0.0
 11
1518.486223
 21
-3113.042274
 31
0.0
  0
LINE
  5
83
100
AcDbEntity
  8
0
  6
BYBLOCK
100
AcDbLine
 10
1446.282266
 20
-3111.54488
 30
0.0
 11
1508.501914
 21
-3075.705472
 31
0.0
  0
ARC
  5
84
100
AcDbEntity
  8
0
  6
BYBLOCK
100
AcDbCircle
 10
1443.682687
 20
-3113.042274
 30
0.0
 40
68.803535
100
AcDbArc
 50
12.516041
 51
17.426517
  0
SOLID
  5
85
100
AcDbEntity
  8
0
  6
BYBLOCK
100
AcDbTrace
 10
1513.336235
 20
-3097.859143
 30
0.0
 11
1508.36603
 21
-3098.404173
 31
0.0
 12
1512.486223
 22
-3113.042274
 32
0.0
 13
1512.486223
 23
-3113.042274
 33
0.0
  0
SOLID
  5
86
100
AcDbEntity
  8
0
  6
BYBLOCK
100
AcDbTrace
 10
1507.038839
 20
-3093.441079
 30
0.0
 11
1511.617694
 21
-3091.432575
 31
0.0
 12
1503.302756
 22
-3078.700261
 32
0.0
 13
1503.302756
 23
-3078.700261
 33
0.0
  0
MTEXT
  5
87
100
AcDbEntity
  8
0
  6
BYBLOCK
 62
     5
100
AcDbMText
 10
1525.279145
 20
-3091.222402
 30
0.0
 40
19.32
 41
0.0
 71
     5
 72
     1
  1
\A1;30°
 11
0.258335
 21
-0.966055
 31
0.0
  0
POINT
  5
88
100
AcDbEntity
  8
DEFPOINTS
  6
BYBLOCK
 62
     0
100
AcDbPoint
 10
1511.444931
 20
-3101.11731
 30
0.0
  0
POINT
  5
89
100
AcDbEntity
  8
DEFPOINTS
  6
BYBLOCK
 62
     0
100
AcDbPoint
 10
1443.682687
 20
-3113.042274
 30
0.0
  0
POINT
  5
8A
100
AcDbEntity
  8
DEFPOINTS
  6
BYBLOCK
 62
     0
100
AcDbPoint
 10
1503.682687
 20
-3113.042274
 30
0.0
  0
POINT
  5
8B
100
AcDbEntity
  8
DEFPOINTS
  6
BYBLOCK
 62
     0
100
AcDbPoint
 10
1443.682687
 20
-3113.042274
 30
0.0
  0
POINT
  5
8C
100
AcDbEntity
  8
DEFPOINTS
  6
BYBLOCK
 62
     0
100
AcDbPoint
 10
1435.918755
 20
-3117.51441
 30
0.0
  0
ENDBLK
  5
8E
100
AcDbEntity
  8
0
100
AcDbBlockEnd
  0
BLOCK
  5
2E
100
AcDbEntity
  8
0
100
AcDbBlockBegin
  2
*D12
 70
     1
 10
0.0
 20
0.0
 30
0.0
  3
*D12
  1

  0
LINE
  5
21
100
AcDbEntity
  8
0
  6
BYBLOCK
100
AcDbLine
 10
1436.682687
 20
-3118.042274
 30
0.0
 11
1565.321318
 21
-3118.042274
 31
0.0
  0
LINE
  5
22
100
AcDbEntity
  8
0
  6
BYBLOCK
100
AcDbLine
 10
1506.682687
 20
-3113.042274
 30
0.0
 11
1565.321318
 21
-3113.042274
 31
0.0
  0
LINE
  5
23
100
AcDbEntity
  8
0
  6
BYBLOCK
100
AcDbLine
 10
1559.321318
 20
-3133.042274
 30
0.0
 11
1559.321318
 21
-3148.042274
 31
0.0
  0
LINE
  5
24
100
AcDbEntity
  8
0
  6
BYBLOCK
100
AcDbLine
 10
1559.321318
 20
-3098.042274
 30
0.0
 11
1559.321318
 21
-3083.042274
 31
0.0
  0
MTEXT
  5
25
100
AcDbEntity
  8
0
  6
BYBLOCK
 62
     5
100
AcDbMText
 10
1544.178603
 20
-3134.00126
 30
0.0
 40
19.32
 41
0.0
 71
     5
 72
     1
  1
\A1;5
 11
0.0
 21
1.0
 31
0.0
  0
LINE
  5
26
100
AcDbEntity
  8
0
  6
BYBLOCK
100
AcDbLine
 10
1559.321318
 20
-3118.042274
 30
0.0
 11
1559.321318
 21
-3113.042274
 31
0.0
  0
LINE
  5
27
100
AcDbEntity
  8
0
  6
BYBLOCK
100
AcDbLine
 10
1559.321318
 20
-3118.042274
 30
0.0
 11
1559.321318
 21
-3113.042274
 31
0.0
  0
SOLID
  5
28
100
AcDbEntity
  8
0
  6
BYBLOCK
100
AcDbTrace
 10
1556.821318
 20
-3133.042274
 30
0.0
 11
1561.821318
 21
-3133.042274
 31
0.0
 12
1559.321318
 22
-3118.042274
 32
0.0
 13
1559.321318
 23
-3118.042274
 33
0.0
  0
SOLID
  5
29
100
AcDbEntity
  8
0
  6
BYBLOCK
100
AcDbTrace
 10
1556.821318
 20
-3098.042274
 30
0.0
 11
1561.821318
 21
-3098.042274
 31
0.0
 12
1559.321318
 22
-3113.042274
 32
0.0
 13
1559.321318
 23
-3113.042274
 33
0.0
  0
POINT
  5
2A
100
AcDbEntity
  8
DEFPOINTS
  6
BYBLOCK
 62
     0
100
AcDbPoint
 10
1433.682687
 20
-3118.042274
 30
0.0
  0
POINT
  5
2C
100
AcDbEntity
  8
DEFPOINTS
  6
BYBLOCK
 62
     0
100
AcDbPoint
 10
1503.682687
 20
-3113.042274
 30
0.0
  0
POINT
  5
2D
100
AcDbEntity
  8
DEFPOINTS
  6
BYBLOCK
 62
     0
100
AcDbPoint
 10
1559.321318
 20
-3113.042274
 30
0.0
  0
ENDBLK
  5
2F
100
AcDbEntity
  8
0
100
AcDbBlockEnd
  0
BLOCK
  5
9C
100
AcDbEntity
  8
0
100
AcDbBlockBegin
  2
*D13
 70
     1
 10
0.0
 20
0.0
 30
0.0
  3
*D13
  1

  0
LINE
  5
91
100
AcDbEntity
  8
0
  6
BYBLOCK
100
AcDbLine
 10
1364.679171
 20
-3110.212606
 30
0.0
 11
1384.639961
 21
-3053.530871
 31
0.0
  0
LINE
  5
92
100
AcDbEntity
  8
0
  6
BYBLOCK
100
AcDbLine
 10
1360.922259
 20
-3108.889589
 30
0.0
 11
1380.883049
 21
-3052.207853
 31
0.0
  0
LINE
  5
93
100
AcDbEntity
  8
0
  6
BYBLOCK
100
AcDbLine
 10
1396.795334
 20
-3064.172624
 30
0.0
 11
1410.943674
 21
-3069.155041
 31
0.0
  0
LINE
  5
94
100
AcDbEntity
  8
0
  6
BYBLOCK
100
AcDbLine
 10
1364.741742
 20
-3052.884772
 30
0.0
 11
1350.593402
 21
-3047.902355
 31
0.0
  0
LINE
  5
95
100
AcDbEntity
  8
0
  6
BYBLOCK
100
AcDbLine
 10
1382.646994
 20
-3059.190207
 30
0.0
 11
1378.890082
 21
-3057.867189
 31
0.0
  0
SOLID
  5
96
100
AcDbEntity
  8
0
  6
BYBLOCK
100
AcDbTrace
 10
1397.625737
 20
-3061.814567
 30
0.0
 11
1395.964931
 21
-3066.53068
 31
0.0
 12
1382.646994
 22
-3059.190207
 32
0.0
 13
1382.646994
 23
-3059.190207
 33
0.0
  0
SOLID
  5
97
100
AcDbEntity
  8
0
  6
BYBLOCK
100
AcDbTrace
 10
1365.572145
 20
-3050.526715
 30
0.0
 11
1363.911339
 21
-3055.242829
 31
0.0
 12
1378.890082
 22
-3057.867189
 32
0.0
 13
1378.890082
 23
-3057.867189
 33
0.0
  0
MTEXT
  5
98
100
AcDbEntity
  8
0
  6
BYBLOCK
 62
     5
100
AcDbMText
 10
1385.970181
 20
-3043.757831
 30
0.0
 40
19.32
 41
0.0
 71
     5
 72
     1
  1
\A1;4
 11
0.943223
 21
-0.332161
 31
0.0
  0
POINT
  5
99
100
AcDbEntity
  8
DEFPOINTS
  6
BYBLOCK
 62
     0
100
AcDbPoint
 10
1363.682687
 20
-3113.042274
 30
0.0
  0
POINT
  5
9A
100
AcDbEntity
  8
DEFPOINTS
  6
BYBLOCK
 62
     0
100
AcDbPoint
 10
1359.925775
 20
-3111.719257
 30
0.0
  0
POINT
  5
9B
100
AcDbEntity
  8
DEFPOINTS
  6
BYBLOCK
 62
     0
100
AcDbPoint
 10
1378.890082
 20
-3057.867189
 30
0.0
  0
ENDBLK
  5
9D
100
AcDbEntity
  8
0
100
AcDbBlockEnd
  0
ENDSEC
  0
SECTION
  2
ENTITIES
  0
MTEXT
  5
1E
100
AcDbEntity
  8
KOTY-UPLNE
  6
BYBLOCK
 62
     5
100
AcDbMText
 10
661.191435
 20
-85.198963
 30
0.0
 40
16.5
 41
0.0
 71
     5
 72
     1
  1
všechna zaoblení R=5
  0
DIMENSION
  5
1F
100
AcDbEntity
  8
KOTY-UPLNE
100
AcDbDimension
  2
*D12
 10
615.993928
 20
-150.384928
 30
0.0
 11
600.851212
 21
-171.343914
 31
0.0
 12
-943.32739
 22
2962.657346
 32
0.0
 70
   128
  3
UPLNE
100
AcDbAlignedDimension
 13
490.355297
 23
-155.384928
 33
0.0
 14
560.355297
 24
-150.384928
 34
0.0
 50
90.0
100
AcDbRotatedDimension
1001
ACAD
1000
DSTYLE
1002
{
1070
    40
1040
3.0
1070
   147
1040
2.0
1002
}
  0
DIMENSION
  5
30
100
AcDbEntity
  8
KOTY-UPLNE
100
AcDbDimension
  2
*D1
 10
620.355297
 20
-269.384928
 30
0.0
 11
602.855297
 21
-253.724928
 31
0.0
 12
-943.32739
 22
2962.657346
 32
0.0
  3
UPLNE
100
AcDbAlignedDimension
 13
585.355297
 23
-209.384928
 33
0.0
 14
620.355297
 24
-209.384928
 34
0.0
100
AcDbRotatedDimension
1001
ACAD
1000
DSTYLE
1002
{
1070
    40
1040
3.0
1070
   147
1040
2.0
1002
}
  0
LWPOLYLINE
  5
3F
100
AcDbEntity
  8
TRAPEZ-VELKY
100
AcDbPolyline
 90
       97
 70
     0
 43
5.0
 10
1073.876853
 20
-199.384928
 10
1071.531213
 20
-206.045734
 42
-0.318179
 10
1066.8151
 20
-209.384928
 10
1052.855297
 20
-209.384928
 10
1038.895494
 20
-209.384928
 42
-0.318179
 10
1034.179381
 20
-206.045734
 10
1029.378056
 20
-192.411632
 42
0.107591
 10
1028.260856
 20
-190.60144
 10
1023.02395
 20
-185.17154
 42
-0.10801
 10
1021.904005
 20
-183.353531
 10
1011.527736
 20
-153.73194
 42
0.318636
 10
1006.808877
 20
-150.384928
 10
951.692357
 20
-150.384928
 42
0.131398
 10
949.1967
 20
-151.052297
 10
942.850955
 20
-154.707537
 42
-0.267412
 10
937.85964
 20
-154.707537
 10
931.513895
 20
-151.052297
 42
0.131398
 10
929.018237
 20
-150.384928
 10
873.901718
 20
-150.384928
 42
0.318636
 10
869.182859
 20
-153.73194
 10
858.80659
 20
-183.353531
 42
-0.10801
 10
857.686644
 20
-185.17154
 10
852.449738
 20
-190.60144
 42
0.107591
 10
851.332538
 20
-192.411632
 10
846.531213
 20
-206.045734
 42
-0.318179
 10
841.8151
 20
-209.384928
 10
827.855297
 20
-209.384928
 10
813.895494
 20
-209.384928
 42
-0.318179
 10
809.179381
 20
-206.045734
 10
804.378056
 20
-192.411632
 42
0.107591
 10
803.260856
 20
-190.60144
 10
798.02395
 20
-185.17154
 42
-0.10801
 10
796.904005
 20
-183.353531
 10
786.527736
 20
-153.73194
 42
0.318636
 10
781.808877
 20
-150.384928
 10
726.692357
 20
-150.384928
 42
0.131398
 10
724.1967
 20
-151.052297
 10
717.850955
 20
-154.707537
 42
-0.267412
 10
712.85964
 20
-154.707537
 10
706.513895
 20
-151.052297
 42
0.131398
 10
704.018237
 20
-150.384928
 10
648.901718
 20
-150.384928
 42
0.318636
 10
644.182859
 20
-153.73194
 10
633.80659
 20
-183.353531
 42
-0.10801
 10
632.686644
 20
-185.17154
 10
627.449738
 20
-190.60144
 42
0.107591
 10
626.332538
 20
-192.411632
 10
621.531213
 20
-206.045734
 42
-0.318179
 10
616.8151
 20
-209.384928
 10
602.855297
 20
-209.384928
 10
588.895494
 20
-209.384928
 42
-0.318179
 10
584.179381
 20
-206.045734
 10
579.378056
 20
-192.411632
 42
0.107591
 10
578.260856
 20
-190.60144
 10
573.02395
 20
-185.17154
 42
-0.10801
 10
571.904005
 20
-183.353531
 10
561.527736
 20
-153.73194
 42
0.318636
 10
556.808877
 20
-150.384928
 10
501.692357
 20
-150.384928
 42
0.131398
 10
499.1967
 20
-151.052297
 10
492.850955
 20
-154.707537
 42
-0.267412
 10
487.85964
 20
-154.707537
 10
481.513895
 20
-151.052297
 42
0.131398
 10
479.018237
 20
-150.384928
 10
423.901718
 20
-150.384928
 42
0.318636
 10
419.182859
 20
-153.73194
 10
408.80659
 20
-183.353531
 42
-0.10801
 10
407.686644
 20
-185.17154
 10
402.449738
 20
-190.60144
 42
0.107591
 10
401.332538
 20
-192.411632
 10
396.531213
 20
-206.045734
 42
-0.318179
 10
391.8151
 20
-209.384928
 10
377.855297
 20
-209.384928
 10
363.895494
 20
-209.384928
 42
-0.318179
 10
359.179381
 20
-206.045734
 10
354.378056
 20
-192.411632
 42
0.107591
 10
353.260856
 20
-190.60144
 10
348.02395
 20
-185.17154
 42
-0.10801
 10
346.904005
 20
-183.353531
 10
336.527736
 20
-153.73194
 42
0.318636
 10
331.808877
 20
-150.384928
 10
276.692357
 20
-150.384928
 42
0.131398
 10
274.1967
 20
-151.052297
 10
267.850955
 20
-154.707537
 42
-0.267412
 10
262.85964
 20
-154.707537
 10
256.513895
 20
-151.052297
 42
0.131398
 10
254.018237
 20
-150.384928
 10
198.901718
 20
-150.384928
 42
0.318636
 10
194.182859
 20
-153.73194
 10
183.80659
 20
-183.353531
 42
-0.10801
 10
182.686644
 20
-185.17154
 10
177.449738
 20
-190.60144
 42
0.107591
 10
176.332538
 20
-192.411632
 10
171.531213
 20
-206.045734
 42
-0.318179
 10
166.8151
 20
-209.384928
 10
152.855297
 20
-209.384928
 10
142.855297
 20
-209.384928
  0
LWPOLYLINE
  5
41
100
AcDbEntity
  8
KOTY-UPLNE
100
AcDbPolyline
 90
       56
 70
     0
 43
0.0
 10
1073.876853
 20
-199.384928
 10
1070.355297
 20
-209.384928
 10
1052.855297
 20
-209.384928
 10
1035.355297
 20
-209.384928
 10
1029.016497
 20
-191.384928
 10
1022.265297
 20
-184.384928
 10
1010.355297
 20
-150.384928
 10
950.355297
 20
-150.384928
 10
942.591365
 20
-154.857064
 42
-0.236068
 10
938.119229
 20
-154.857064
 10
930.355297
 20
-150.384928
 10
870.355297
 20
-150.384928
 10
858.445297
 20
-184.384928
 10
851.694098
 20
-191.384928
 10
845.355297
 20
-209.384928
 10
827.855297
 20
-209.384928
 10
810.355297
 20
-209.384928
 10
804.016497
 20
-191.384928
 10
797.265297
 20
-184.384928
 10
785.355297
 20
-150.384928
 10
725.355297
 20
-150.384928
 10
717.591365
 20
-154.857064
 42
-0.236068
 10
713.119229
 20
-154.857064
 10
705.355297
 20
-150.384928
 10
645.355297
 20
-150.384928
 10
633.445297
 20
-184.384928
 10
626.694098
 20
-191.384928
 10
620.355297
 20
-209.384928
 10
602.855297
 20
-209.384928
 10
585.355297
 20
-209.384928
 10
579.016497
 20
-191.384928
 10
572.265297
 20
-184.384928
 10
560.355297
 20
-150.384928
 10
500.355297
 20
-150.384928
 10
492.591365
 20
-154.857064
 42
-0.236068
 10
488.119229
 20
-154.857064
 10
480.355297
 20
-150.384928
 10
420.355297
 20
-150.384928
 10
408.445297
 20
-184.384928
 10
401.694098
 20
-191.384928
 10
395.355297
 20
-209.384928
 10
377.855297
 20
-209.384928
 10
360.355297
 20
-209.384928
 10
354.016497
 20
-191.384928
 10
347.265297
 20
-184.384928
 10
335.355297
 20
-150.384928
 10
275.355297
 20
-150.384928
 10
267.591365
 20
-154.857064
 42
-0.236068
 10
263.119229
 20
-154.857064
 10
255.355297
 20
-150.384928
 10
195.355297
 20
-150.384928
 10
183.445297
 20
-184.384928
 10
176.694098
 20
-191.384928
 10
170.355297
 20
-209.384928
 10
152.855297
 20
-209.384928
 10
142.855297
 20
-209.384928
  0
LWPOLYLINE
  5
42
100
AcDbEntity
  8
RAMEC
100
AcDbPolyline
 90
        4
 70
     1
 43
0.0
 10
0.0
 20
0.0
 10
0.0
 20
-378.501233
 10
1349.672502
 20
-378.501233
 10
1349.672502
 20
0.0
  0
MTEXT
  5
44
100
AcDbEntity
  8
POPIS
100
AcDbMText
 10
661.730741
 20
-42.124031
 30
0.0
 40
40.0
 41
1.0
 71
     5
 72
     1
  1
TR 59/225
  7
STYLE1
  0
DIMENSION
  5
47
100
AcDbEntity
  8
KOTY-UPLNE
100
AcDbDimension
  2
*D0
 10
377.855297
 20
-269.384928
 30
0.0
 11
265.355297
 21
-253.724928
 31
0.0
 12
-943.32739
 22
2962.657346
 32
0.0
  3
UPLNE
100
AcDbAlignedDimension
 13
152.855297
 23
-209.384928
 33
0.0
 14
377.855297
 24
-209.384928
 34
0.0
100
AcDbRotatedDimension
1001
ACAD
1000
DSTYLE
1002
{
1070
    40
1040
3.0
1070
   147
1040
2.0
1002
}
  0
DIMENSION
  5
54
100
AcDbEntity
  8
KOTY-UPLNE
100
AcDbDimension
  2
*D3
 10
170.355297
 20
-111.074478
 30
0.0
 11
182.855297
 21
-95.414478
 31
0.0
 12
-943.32739
 22
2962.657346
 32
0.0
  3
UPLNE
100
AcDbAlignedDimension
 13
195.355297
 23
-150.384928
 33
0.0
 14
170.355297
 24
-209.384928
 34
0.0
100
AcDbRotatedDimension
1001
ACAD
1000
DSTYLE
1002
{
1070
    40
1040
3.0
1070
   147
1040
2.0
1002
}
  0
DIMENSION
  5
63
100
AcDbEntity
  8
KOTY-UPLNE
100
AcDbDimension
  2
*D2
 10
195.355297
 20
-111.074478
 30
0.0
 11
265.355297
 21
-95.414478
 31
0.0
 12
-943.32739
 22
2962.657346
 32
0.0
  3
UPLNE
100
AcDbAlignedDimension
 13
335.355297
 23
-150.384928
 33
0.0
 14
195.355297
 24
-150.384928
 34
0.0
100
AcDbRotatedDimension
1001
ACAD
1000
DSTYLE
1002
{
1070
    40
1040
3.0
1070
   147
1040
2.0
1002
}
  0
LINE
  5
70
100
AcDbEntity
  8
KOTY-UPLNE
100
AcDbLine
 10
402.690581
 20
-188.55526
 30
0.0
 11
417.594868
 21
-146.232243
 31
0.0
  0
DIMENSION
  5
71
100
AcDbEntity
  8
KOTY-UPLNE
100
AcDbDimension
  2
*D4
 10
335.355297
 20
-111.074478
 30
0.0
 11
347.855297
 21
-95.414478
 31
0.0
 12
-943.32739
 22
2962.657346
 32
0.0
  3
UPLNE
100
AcDbAlignedDimension
 13
360.355297
 23
-209.384928
 33
0.0
 14
335.355297
 24
-150.384928
 34
0.0
100
AcDbRotatedDimension
1001
ACAD
1000
DSTYLE
1002
{
1070
    40
1040
3.0
1070
   147
1040
2.0
1002
}
  0
DIMENSION
  5
80
100
AcDbEntity
  8
KOTY-UPLNE
100
AcDbDimension
  2
*D11
 10
492.591365
 20
-154.857064
 30
0.0
 11
581.951755
 21
-128.565056
 31
0.0
 12
-943.32739
 22
2962.657346
 32
0.0
 70
     2
  3
UPLNE
100
AcDb2LineAngularDimension
 13
560.355297
 23
-150.384928
 33
0.0
 14
500.355297
 24
-150.384928
 34
0.0
 15
500.355297
 25
-150.384928
 35
0.0
 16
568.117541
 26
-138.459964
 36
0.0
1001
ACAD
1000
DSTYLE
1002
{
1070
    40
1040
3.0
1070
   147
1040
2.0
1002
}
  0
DIMENSION
  5
8F
100
AcDbEntity
  8
KOTY-UPLNE
100
AcDbDimension
  2
*D13
 10
435.562692
 20
-95.209843
 30
0.0
 11
442.642791
 21
-81.100485
 31
0.0
 12
-943.32739
 22
2962.657346
 32
0.0
 70
     1
  3
UPLNE
100
AcDbAlignedDimension
 13
420.355297
 23
-150.384928
 33
0.0
 14
416.598385
 24
-149.061911
 34
0.0
1001
ACAD
1000
DSTYLE
1002
{
1070
    40
1040
3.0
1070
   147
1040
2.0
1002
}
  0
DIMENSION
  5
9E
100
AcDbEntity
  8
KOTY-UPLNE
100
AcDbDimension
  2
*D7
 10
1114.435122
 20
-209.384928
 30
0.0
 11
1098.685122
 21
-228.058953
 31
0.0
 12
-943.32739
 22
2962.657346
 32
0.0
 70
   128
  3
UPLNE
100
AcDbAlignedDimension
 13
1029.016497
 23
-191.384928
 33
0.0
 14
1070.355297
 24
-209.384928
 34
0.0
 50
90.0
100
AcDbRotatedDimension
1001
ACAD
1000
DSTYLE
1002
{
1070
    40
1040
3.0
1070
   147
1040
2.0
1002
}
  0
MTEXT
  5
AE
100
AcDbEntity
  8
POZICE
100
AcDbMText
 10
827.511573
 20
-256.154138
 30
0.0
 40
41.73
 41
1.0
 71
     5
 72
     1
  1
B
  7
STYLE1
  0
DIMENSION
  5
B0
100
AcDbEntity
  8
KOTY-UPLNE
100
AcDbDimension
  2
*D8
 10
1184.394454
 20
-209.384928
 30
0.0
 11
1168.734454
 21
-179.884928
 31
0.0
 12
-943.32739
 22
2962.657346
 32
0.0
  3
UPLNE
100
AcDbAlignedDimension
 13
1010.355297
 23
-150.384928
 33
0.0
 14
1070.355297
 24
-209.384928
 34
0.0
 50
90.0
100
AcDbRotatedDimension
1001
ACAD
1000
DSTYLE
1002
{
1070
    40
1040
3.0
1070
   147
1040
2.0
1002
}
  0
DIMENSION
  5
BD
100
AcDbEntity
  8
KOTY-UPLNE
100
AcDbDimension
  2
*D5
 10
1114.435122
 20
-184.384928
 30
0.0
 11
1098.775122
 21
-167.384928
 31
0.0
 12
-943.32739
 22
2962.657346
 32
0.0
  3
UPLNE
100
AcDbAlignedDimension
 13
1010.355297
 23
-150.384928
 33
0.0
 14
1022.265297
 24
-184.384928
 34
0.0
 50
90.0
100
AcDbRotatedDimension
1001
ACAD
1000
DSTYLE
1002
{
1070
    40
1040
3.0
1070
   147
1040
2.0
1002
}
  0
MTEXT
  5
CC
100
AcDbEntity
  8
POZICE
100
AcDbMText
 10
827.511573
 20
-125.310885
 30
0.0
 40
41.73
 41
1.0
 71
     5
 72
     1
  1
A
  7
STYLE1
  0
DIMENSION
  5
CD
100
AcDbEntity
  8
KOTY-UPLNE
100
AcDbDimension
  2
*D9
 10
827.855297
 20
-209.384928
 30
0.0
 11
979.597239
 21
-114.336335
 31
0.0
 12
-943.32739
 22
2962.657346
 32
0.0
 70
     2
  1
70,6%%d
  3
UPLNE
100
AcDb2LineAngularDimension
 13
851.694098
 23
-191.384928
 33
0.0
 14
845.355297
 24
-209.384928
 34
0.0
 15
845.355297
 25
-209.384928
 35
0.0
 16
980.114746
 26
-150.696606
 36
0.0
1001
ACAD
1000
DSTYLE
1002
{
1070
    40
1040
3.0
1070
   147
1040
2.0
1002
}
  0
DIMENSION
  5
DC
100
AcDbEntity
  8
KOTY-UPLNE
100
AcDbDimension
  2
*D10
 10
851.694098
 20
-191.384928
 30
0.0
 11
916.992609
 21
-189.60076
 31
0.0
 12
-943.32739
 22
2962.657346
 32
0.0
 70
   130
  1
46,04%%d
  3
UPLNE
100
AcDb2LineAngularDimension
 13
851.694098
 23
-191.384928
 33
0.0
 14
903.648508
 24
-191.384928
 34
0.0
 15
858.445297
 25
-184.384928
 35
0.0
 16
892.113477
 26
-167.394218
 36
0.0
1001
ACAD
1000
DSTYLE
1002
{
1070
    40
1040
3.0
1070
   147
1040
2.0
1002
}
  0
LINE
  5
EA
100
AcDbEntity
  8
KOTY-UPLNE
100
AcDbLine
 10
851.694098
 20
-191.384928
 30
0.0
 11
903.648508
 21
-191.384928
 31
0.0
  0
DIMENSION
  5
EB
100
AcDbEntity
  8
KOTY-UPLNE
100
AcDbDimension
  2
*D6
 10
1114.435122
 20
-191.384928
 30
0.0
 11
1138.05776
 21
-187.884928
 31
0.0
 12
-943.32739
 22
2962.657346
 32
0.0
 70
   128
  3
UPLNE
100
AcDbAlignedDimension
 13
1022.265297
 23
-184.384928
 33
0.0
 14
1029.016497
 24
-191.384928
 34
0.0
 50
90.0
100
AcDbRotatedDimension
1001
ACAD
1000
DSTYLE
1002
{
1070
    40
1040
3.0
1070
   147
1040
2.0
1002
}
  0
LINE
  5
FB
100
AcDbEntity
  8
KOTY-UPLNE
100
AcDbLine
 10
1070.355297
 20
-209.384928
 30
0.0
 11
1129.537644
 21
-209.384928
 31
0.0
  0
ENDSEC
  0
SECTION
  2
OBJECTS
  0
DICTIONARY
  5
1A
100
AcDbDictionary
  3
ACAD_GROUP
350
18
  3
ACAD_MLINESTYLE
350
19
  0
DICTIONARY
  5
18
102
{ACAD_REACTORS
330
1A
102
}
100
AcDbDictionary
  0
DICTIONARY
  5
19
102
{ACAD_REACTORS
330
1A
102
}
100
AcDbDictionary
  3
STANDARD
350
1C
  0
MLINESTYLE
  5
1C
102
{ACAD_REACTORS
330
19
102
}
100
AcDbMlineStyle
  2
STANDARD
 70
     0
  3

 62
   256
 51
90.0
 52
90.0
 71
     2
 49
0.5
 62
   256
  6
BYLAYER
 49
-0.5
 62
   256
  6
BYLAYER
  0
ENDSEC
  0
EOF
