  0
SECTION
  2
HEADER
  9
$ACADVER
  1
AC1014
  9
$ACADMAINTVER
 70
     0
  9
$DWGCODEPAGE
  3
ANSI_1250
  9
$INSBASE
 10
0.0
 20
0.0
 30
0.0
  9
$EXTMIN
 10
0.0
 20
-375.001233
 30
0.0
  9
$EXTMAX
 10
1349.672502
 20
0.0
 30
0.0
  9
$LIMMIN
 10
-1000.0
 20
-1000.0
  9
$LIMMAX
 10
1000.0
 20
1000.0
  9
$ORTHOMODE
 70
     0
  9
$REGENMODE
 70
     1
  9
$FILLMODE
 70
     1
  9
$QTEXTMODE
 70
     0
  9
$MIRRTEXT
 70
     0
  9
$DRAGMODE
 70
     2
  9
$LTSCALE
 40
3.0
  9
$OSMODE
 70
    32
  9
$ATTMODE
 70
     1
  9
$TEXTSIZE
 40
50.0
  9
$TRACEWID
 40
0.05
  9
$TEXTSTYLE
  7
STANDARD
  9
$CLAYER
  8
KOTY-UPLNE
  9
$CELTYPE
  6
BYLAYER
  9
$CECOLOR
 62
   256
  9
$CELTSCALE
 40
1.0
  9
$DELOBJ
 70
     1
  9
$DISPSILH
 70
     0
  9
$DIMSCALE
 40
3.0
  9
$DIMASZ
 40
5.0
  9
$DIMEXO
 40
1.0
  9
$DIMDLI
 40
0.0
  9
$DIMRND
 40
1.0
  9
$DIMDLE
 40
1.0
  9
$DIMEXE
 40
2.0
  9
$DIMTP
 40
0.0
  9
$DIMTM
 40
0.0
  9
$DIMTXT
 40
6.44
  9
$DIMCEN
 40
1.0
  9
$DIMTSZ
 40
0.0
  9
$DIMTOL
 70
     0
  9
$DIMLIM
 70
     0
  9
$DIMTIH
 70
     0
  9
$DIMTOH
 70
     0
  9
$DIMSE1
 70
     0
  9
$DIMSE2
 70
     0
  9
$DIMTAD
 70
     3
  9
$DIMZIN
 70
     0
  9
$DIMBLK
  1

  9
$DIMASO
 70
     1
  9
$DIMSHO
 70
     0
  9
$DIMPOST
  1

  9
$DIMAPOST
  1

  9
$DIMALT
 70
     0
  9
$DIMALTD
 70
     2
  9
$DIMALTF
 40
25.4
  9
$DIMLFAC
 40
1.0
  9
$DIMTOFL
 70
     1
  9
$DIMTVP
 40
0.0
  9
$DIMTIX
 70
     1
  9
$DIMSOXD
 70
     0
  9
$DIMSAH
 70
     0
  9
$DIMBLK1
  1

  9
$DIMBLK2
  1

  9
$DIMSTYLE
  2
UPLNE
  9
$DIMCLRD
 70
   256
  9
$DIMCLRE
 70
   256
  9
$DIMCLRT
 70
     5
  9
$DIMTFAC
 40
1.0
  9
$DIMGAP
 40
2.0
  9
$DIMJUST
 70
     0
  9
$DIMSD1
 70
     0
  9
$DIMSD2
 70
     0
  9
$DIMTOLJ
 70
     1
  9
$DIMTZIN
 70
     0
  9
$DIMALTZ
 70
     0
  9
$DIMALTTZ
 70
     0
  9
$DIMFIT
 70
     5
  9
$DIMUPT
 70
     0
  9
$DIMUNIT
 70
     2
  9
$DIMDEC
 70
     0
  9
$DIMTDEC
 70
     0
  9
$DIMALTU
 70
     2
  9
$DIMALTTD
 70
     2
  9
$DIMTXSTY
  7
STANDARD
  9
$DIMAUNIT
 70
     0
  9
$LUNITS
 70
     2
  9
$LUPREC
 70
     2
  9
$SKETCHINC
 40
0.1
  9
$FILLETRAD
 40
5.0
  9
$AUNITS
 70
     0
  9
$AUPREC
 70
     2
  9
$MENU
  1
acad
  9
$ELEVATION
 40
0.0
  9
$PELEVATION
 40
0.0
  9
$THICKNESS
 40
0.0
  9
$LIMCHECK
 70
     0
  9
$BLIPMODE
 70
     1
  9
$CHAMFERA
 40
0.0
  9
$CHAMFERB
 40
0.0
  9
$CHAMFERC
 40
0.0
  9
$CHAMFERD
 40
0.0
  9
$SKPOLY
 70
     0
  9
$TDCREATE
 40
2448722.252204629
  9
$TDUPDATE
 40
2452465.889715393
  9
$TDINDWG
 40
2.5235694444
  9
$TDUSRTIMER
 40
2.5235694444
  9
$USRTIMER
 70
     1
  9
$ANGBASE
 50
0.0
  9
$ANGDIR
 70
     0
  9
$PDMODE
 70
     0
  9
$PDSIZE
 40
0.0
  9
$PLINEWID
 40
0.0
  9
$COORDS
 70
     2
  9
$SPLFRAME
 70
     0
  9
$SPLINETYPE
 70
     6
  9
$SPLINESEGS
 70
     8
  9
$ATTDIA
 70
     0
  9
$ATTREQ
 70
     1
  9
$HANDLING
 70
     1
  9
$HANDSEED
  5
EF
  9
$SURFTAB1
 70
     6
  9
$SURFTAB2
 70
     6
  9
$SURFTYPE
 70
     6
  9
$SURFU
 70
     6
  9
$SURFV
 70
     6
  9
$UCSNAME
  2

  9
$UCSORG
 10
0.0
 20
0.0
 30
0.0
  9
$UCSXDIR
 10
1.0
 20
0.0
 30
0.0
  9
$UCSYDIR
 10
0.0
 20
1.0
 30
0.0
  9
$PUCSNAME
  2

  9
$PUCSORG
 10
0.0
 20
0.0
 30
0.0
  9
$PUCSXDIR
 10
1.0
 20
0.0
 30
0.0
  9
$PUCSYDIR
 10
0.0
 20
1.0
 30
0.0
  9
$USERI1
 70
     1
  9
$USERI2
 70
     0
  9
$USERI3
 70
     0
  9
$USERI4
 70
     0
  9
$USERI5
 70
     0
  9
$USERR1
 40
0.0
  9
$USERR2
 40
0.0
  9
$USERR3
 40
0.0
  9
$USERR4
 40
0.0
  9
$USERR5
 40
0.0
  9
$WORLDVIEW
 70
     1
  9
$SHADEDGE
 70
     3
  9
$SHADEDIF
 70
    70
  9
$TILEMODE
 70
     1
  9
$MAXACTVP
 70
    16
  9
$PINSBASE
 10
0.0
 20
0.0
 30
0.0
  9
$PLIMCHECK
 70
     0
  9
$PEXTMIN
 10
1.000000E+20
 20
1.000000E+20
 30
1.000000E+20
  9
$PEXTMAX
 10
-1.000000E+20
 20
-1.000000E+20
 30
-1.000000E+20
  9
$PLIMMIN
 10
0.0
 20
0.0
  9
$PLIMMAX
 10
12.0
 20
9.0
  9
$UNITMODE
 70
     0
  9
$VISRETAIN
 70
     0
  9
$PLINEGEN
 70
     0
  9
$PSLTSCALE
 70
     0
  9
$TREEDEPTH
 70
  3020
  9
$PICKSTYLE
 70
     0
  9
$CMLSTYLE
  2
STANDARD
  9
$CMLJUST
 70
     0
  9
$CMLSCALE
 40
1.0
  9
$PROXYGRAPHICS
 70
     1
  9
$MEASUREMENT
 70
     0
  0
ENDSEC
  0
SECTION
  2
CLASSES
  0
CLASS
  1
LWPOLYLINE
  2
AcDbPolyline
  3
"AutoCAD"
 90
        0
280
     0
281
     1
  0
CLASS
  1
DICTIONARYVAR
  2
AcDbDictionaryVar
  3
"AutoCAD"
 90
        0
280
     0
281
     0
  0
ENDSEC
  0
SECTION
  2
TABLES
  0
TABLE
  2
VPORT
  5
12
100
AcDbSymbolTable
 70
     2
  0
VPORT
  5
EE
100
AcDbSymbolTableRecord
100
AcDbViewportTableRecord
  2
*ACTIVE
 70
     0
 10
0.0
 20
0.0
 11
1.0
 21
1.0
 12
754.496501
 22
-170.904059
 13
0.0
 23
0.0
 14
1.0
 24
1.0
 15
600.0
 25
600.0
 16
0.0
 26
0.0
 36
1.0
 17
0.0
 27
0.0
 37
0.0
 40
731.726054
 41
2.224444
 42
50.0
 43
0.0
 44
0.0
 50
0.0
 51
0.0
 71
     0
 72
   100
 73
     1
 74
     0
 75
     0
 76
     0
 77
     0
 78
     0
  0
ENDTAB
  0
TABLE
  2
LTYPE
  5
D
100
AcDbSymbolTable
 70
     1
  0
LTYPE
  5
E
100
AcDbSymbolTableRecord
100
AcDbLinetypeTableRecord
  2
BYBLOCK
 70
     0
  3

 72
    65
 73
     0
 40
0.0
  0
LTYPE
  5
F
100
AcDbSymbolTableRecord
100
AcDbLinetypeTableRecord
  2
BYLAYER
 70
     0
  3

 72
    65
 73
     0
 40
0.0
  0
LTYPE
  5
5
100
AcDbSymbolTableRecord
100
AcDbLinetypeTableRecord
  2
CONTINUOUS
 70
     0
  3
Solid line
 72
    65
 73
     0
 40
0.0
  0
ENDTAB
  0
TABLE
  2
LAYER
  5
A
100
AcDbSymbolTable
 70
     7
  0
LAYER
  5
4
100
AcDbSymbolTableRecord
100
AcDbLayerTableRecord
  2
0
 70
     0
 62
     7
  6
CONTINUOUS
  0
LAYER
  5
1B
100
AcDbSymbolTableRecord
100
AcDbLayerTableRecord
  2
KOTY-UPLNE
 70
     0
 62
     7
  6
CONTINUOUS
  0
LAYER
  5
51
100
AcDbSymbolTableRecord
100
AcDbLayerTableRecord
  2
RAMEC
 70
     0
 62
     5
  6
CONTINUOUS
  0
LAYER
  5
D9
100
AcDbSymbolTableRecord
100
AcDbLayerTableRecord
  2
POZICE
 70
     0
 62
     1
  6
CONTINUOUS
  0
LAYER
  5
4E
100
AcDbSymbolTableRecord
100
AcDbLayerTableRecord
  2
POPIS
 70
     0
 62
     1
  6
CONTINUOUS
  0
LAYER
  5
2A
100
AcDbSymbolTableRecord
100
AcDbLayerTableRecord
  2
DEFPOINTS
 70
     0
 62
     7
  6
CONTINUOUS
  0
LAYER
  5
4C
100
AcDbSymbolTableRecord
100
AcDbLayerTableRecord
  2
TRAPEZ-VELKY
 70
     0
 62
     7
  6
CONTINUOUS
  0
ENDTAB
  0
TABLE
  2
STYLE
  5
B
100
AcDbSymbolTable
 70
     2
  0
STYLE
  5
C
100
AcDbSymbolTableRecord
100
AcDbTextStyleTableRecord
  2
STANDARD
 70
     0
 40
0.0
 41
0.9
 50
0.0
 71
     0
 42
50.0
  3
simplex.shx
  4

  0
STYLE
  5
4F
100
AcDbSymbolTableRecord
100
AcDbTextStyleTableRecord
  2
STYLE1
 70
     0
 40
0.0
 41
0.9
 50
0.0
 71
     0
 42
50.0
  3
simplex.shx
  4

  0
ENDTAB
  0
TABLE
  2
VIEW
  5
10
100
AcDbSymbolTable
 70
     0
  0
ENDTAB
  0
TABLE
  2
UCS
  5
11
100
AcDbSymbolTable
 70
     0
  0
ENDTAB
  0
TABLE
  2
APPID
  5
14
100
AcDbSymbolTable
 70
     1
  0
APPID
  5
15
100
AcDbSymbolTableRecord
100
AcDbRegAppTableRecord
  2
ACAD
 70
     0
  0
ENDTAB
  0
TABLE
  2
DIMSTYLE
  5
16
100
AcDbSymbolTable
 70
     1
  0
DIMSTYLE
105
1D
102
{ACAD_REACTORS
330
7F
330
3E
330
2F
330
70
330
8C
330
61
330
52
330
1E
330
C9
330
B9
330
DA
330
AC
330
9D
102
}
100
AcDbSymbolTableRecord
100
AcDbDimStyleTableRecord
  2
UPLNE
 70
     0
  3

  4

  5

  6

  7

 40
5.0
 41
5.0
 42
1.0
 43
0.0
 44
2.0
 45
1.0
 46
1.0
 47
0.0
 48
0.0
140
6.44
141
1.0
142
0.0
143
25.4
144
1.0
145
0.0
146
1.0
147
1.0
 71
     0
 72
     0
 73
     0
 74
     0
 75
     0
 76
     0
 77
     3
 78
     0
170
     0
171
     2
172
     1
173
     0
174
     1
175
     0
176
   256
177
   256
178
     5
270
     2
271
     0
272
     0
273
     2
274
     2
340
C
275
     0
280
     0
281
     0
282
     0
283
     1
284
     0
285
     0
286
     0
287
     5
288
     0
  0
ENDTAB
  0
TABLE
  2
BLOCK_RECORD
  5
1
100
AcDbSymbolTable
 70
    13
  0
BLOCK_RECORD
  5
2
100
AcDbSymbolTableRecord
100
AcDbBlockTableRecord
  2
*MODEL_SPACE
  0
BLOCK_RECORD
  5
7
100
AcDbSymbolTableRecord
100
AcDbBlockTableRecord
  2
*PAPER_SPACE
  0
BLOCK_RECORD
  5
80
100
AcDbSymbolTableRecord
100
AcDbBlockTableRecord
  2
*D0
  0
BLOCK_RECORD
  5
3F
100
AcDbSymbolTableRecord
100
AcDbBlockTableRecord
  2
*D1
  0
BLOCK_RECORD
  5
30
100
AcDbSymbolTableRecord
100
AcDbBlockTableRecord
  2
*D2
  0
BLOCK_RECORD
  5
71
100
AcDbSymbolTableRecord
100
AcDbBlockTableRecord
  2
*D3
  0
BLOCK_RECORD
  5
8D
100
AcDbSymbolTableRecord
100
AcDbBlockTableRecord
  2
*D4
  0
BLOCK_RECORD
  5
62
100
AcDbSymbolTableRecord
100
AcDbBlockTableRecord
  2
*D5
  0
BLOCK_RECORD
  5
53
100
AcDbSymbolTableRecord
100
AcDbBlockTableRecord
  2
*D6
  0
BLOCK_RECORD
  5
1F
100
AcDbSymbolTableRecord
100
AcDbBlockTableRecord
  2
*D7
  0
BLOCK_RECORD
  5
CA
100
AcDbSymbolTableRecord
100
AcDbBlockTableRecord
  2
*D8
  0
BLOCK_RECORD
  5
BA
100
AcDbSymbolTableRecord
100
AcDbBlockTableRecord
  2
*D9
  0
BLOCK_RECORD
  5
DB
100
AcDbSymbolTableRecord
100
AcDbBlockTableRecord
  2
*D10
  0
BLOCK_RECORD
  5
AD
100
AcDbSymbolTableRecord
100
AcDbBlockTableRecord
  2
*D11
  0
BLOCK_RECORD
  5
9E
100
AcDbSymbolTableRecord
100
AcDbBlockTableRecord
  2
*D12
  0
ENDTAB
  0
ENDSEC
  0
SECTION
  2
BLOCKS
  0
BLOCK
  5
3
100
AcDbEntity
  8
0
100
AcDbBlockBegin
  2
*MODEL_SPACE
 70
     0
 10
0.0
 20
0.0
 30
0.0
  3
*MODEL_SPACE
  1

  0
ENDBLK
  5
6
100
AcDbEntity
  8
0
100
AcDbBlockEnd
  0
BLOCK
  5
8
100
AcDbEntity
 67
     1
  8
0
100
AcDbBlockBegin
  2
*PAPER_SPACE
 70
     0
 10
0.0
 20
0.0
 30
0.0
  3
*PAPER_SPACE
  1

  0
ENDBLK
  5
9
100
AcDbEntity
 67
     1
  8
0
100
AcDbBlockEnd
  0
BLOCK
  5
8A
100
AcDbEntity
  8
0
100
AcDbBlockBegin
  2
*D0
 70
     1
 10
0.0
 20
0.0
 30
0.0
  3
*D0
  1

  0
LINE
  5
81
100
AcDbEntity
  8
0
  6
BYBLOCK
100
AcDbLine
 10
1096.182687
 20
-1971.542274
 30
0.0
 11
1096.182687
 21
-2034.542274
 31
0.0
  0
LINE
  5
82
100
AcDbEntity
  8
0
  6
BYBLOCK
100
AcDbLine
 10
1318.682687
 20
-1971.542274
 30
0.0
 11
1318.682687
 21
-2034.542274
 31
0.0
  0
LINE
  5
83
100
AcDbEntity
  8
0
  6
BYBLOCK
100
AcDbLine
 10
1111.182687
 20
-2028.542274
 30
0.0
 11
1303.682687
 21
-2028.542274
 31
0.0
  0
SOLID
  5
84
100
AcDbEntity
  8
0
  6
BYBLOCK
100
AcDbTrace
 10
1111.182687
 20
-2026.042274
 30
0.0
 11
1111.182687
 21
-2031.042274
 31
0.0
 12
1096.182687
 22
-2028.542274
 32
0.0
 13
1096.182687
 23
-2028.542274
 33
0.0
  0
SOLID
  5
85
100
AcDbEntity
  8
0
  6
BYBLOCK
100
AcDbTrace
 10
1303.682687
 20
-2026.042274
 30
0.0
 11
1303.682687
 21
-2031.042274
 31
0.0
 12
1318.682687
 22
-2028.542274
 32
0.0
 13
1318.682687
 23
-2028.542274
 33
0.0
  0
MTEXT
  5
86
100
AcDbEntity
  8
0
  6
BYBLOCK
 62
     5
100
AcDbMText
 10
1207.432687
 20
-2011.042274
 30
0.0
 40
19.32
 41
0.0
 71
     5
 72
     1
  1
\A1;222,5
  0
POINT
  5
87
100
AcDbEntity
  8
DEFPOINTS
  6
BYBLOCK
 62
     0
100
AcDbPoint
 10
1096.182687
 20
-1968.542274
 30
0.0
  0
POINT
  5
88
100
AcDbEntity
  8
DEFPOINTS
  6
BYBLOCK
 62
     0
100
AcDbPoint
 10
1318.682687
 20
-1968.542274
 30
0.0
  0
POINT
  5
89
100
AcDbEntity
  8
DEFPOINTS
  6
BYBLOCK
 62
     0
100
AcDbPoint
 10
1318.682687
 20
-2028.542274
 30
0.0
  0
ENDBLK
  5
8B
100
AcDbEntity
  8
0
100
AcDbBlockEnd
  0
BLOCK
  5
49
100
AcDbEntity
  8
0
100
AcDbBlockBegin
  2
*D1
 70
     1
 10
0.0
 20
0.0
 30
0.0
  3
*D1
  1

  0
LINE
  5
40
100
AcDbEntity
  8
0
  6
BYBLOCK
100
AcDbLine
 10
1096.182687
 20
-1981.542274
 30
0.0
 11
1096.182687
 21
-2094.542274
 31
0.0
  0
LINE
  5
41
100
AcDbEntity
  8
0
  6
BYBLOCK
100
AcDbLine
 10
1986.182687
 20
-1971.542274
 30
0.0
 11
1986.182687
 21
-2094.542274
 31
0.0
  0
LINE
  5
42
100
AcDbEntity
  8
0
  6
BYBLOCK
100
AcDbLine
 10
1111.182687
 20
-2088.542274
 30
0.0
 11
1971.182687
 21
-2088.542274
 31
0.0
  0
SOLID
  5
43
100
AcDbEntity
  8
0
  6
BYBLOCK
100
AcDbTrace
 10
1111.182687
 20
-2086.042274
 30
0.0
 11
1111.182687
 21
-2091.042274
 31
0.0
 12
1096.182687
 22
-2088.542274
 32
0.0
 13
1096.182687
 23
-2088.542274
 33
0.0
  0
SOLID
  5
44
100
AcDbEntity
  8
0
  6
BYBLOCK
100
AcDbTrace
 10
1971.182687
 20
-2086.042274
 30
0.0
 11
1971.182687
 21
-2091.042274
 31
0.0
 12
1986.182687
 22
-2088.542274
 32
0.0
 13
1986.182687
 23
-2088.542274
 33
0.0
  0
MTEXT
  5
45
100
AcDbEntity
  8
0
  6
BYBLOCK
 62
     5
100
AcDbMText
 10
1541.182687
 20
-2072.882274
 30
0.0
 40
19.32
 41
0.0
 71
     5
 72
     1
  1
\A1;890
  0
POINT
  5
46
100
AcDbEntity
  8
DEFPOINTS
  6
BYBLOCK
 62
     0
100
AcDbPoint
 10
1096.182687
 20
-1978.542274
 30
0.0
  0
POINT
  5
47
100
AcDbEntity
  8
DEFPOINTS
  6
BYBLOCK
 62
     0
100
AcDbPoint
 10
1986.182687
 20
-1968.542274
 30
0.0
  0
POINT
  5
48
100
AcDbEntity
  8
DEFPOINTS
  6
BYBLOCK
 62
     0
100
AcDbPoint
 10
1986.182687
 20
-2088.542274
 30
0.0
  0
ENDBLK
  5
4A
100
AcDbEntity
  8
0
100
AcDbBlockEnd
  0
BLOCK
  5
3C
100
AcDbEntity
  8
0
100
AcDbBlockBegin
  2
*D2
 70
     1
 10
0.0
 20
0.0
 30
0.0
  3
*D2
  1

  0
LINE
  5
31
100
AcDbEntity
  8
0
  6
BYBLOCK
100
AcDbLine
 10
1531.182687
 20
-1971.542274
 30
0.0
 11
1531.182687
 21
-2034.542274
 31
0.0
  0
LINE
  5
32
100
AcDbEntity
  8
0
  6
BYBLOCK
100
AcDbLine
 10
1551.182687
 20
-1971.542274
 30
0.0
 11
1551.182687
 21
-2034.542274
 31
0.0
  0
LINE
  5
33
100
AcDbEntity
  8
0
  6
BYBLOCK
100
AcDbLine
 10
1516.182687
 20
-2028.542274
 30
0.0
 11
1501.182687
 21
-2028.542274
 31
0.0
  0
LINE
  5
34
100
AcDbEntity
  8
0
  6
BYBLOCK
100
AcDbLine
 10
1566.182687
 20
-2028.542274
 30
0.0
 11
1581.182687
 21
-2028.542274
 31
0.0
  0
LINE
  5
35
100
AcDbEntity
  8
0
  6
BYBLOCK
100
AcDbLine
 10
1531.182687
 20
-2028.542274
 30
0.0
 11
1551.182687
 21
-2028.542274
 31
0.0
  0
SOLID
  5
36
100
AcDbEntity
  8
0
  6
BYBLOCK
100
AcDbTrace
 10
1516.182687
 20
-2026.042274
 30
0.0
 11
1516.182687
 21
-2031.042274
 31
0.0
 12
1531.182687
 22
-2028.542274
 32
0.0
 13
1531.182687
 23
-2028.542274
 33
0.0
  0
SOLID
  5
37
100
AcDbEntity
  8
0
  6
BYBLOCK
100
AcDbTrace
 10
1566.182687
 20
-2026.042274
 30
0.0
 11
1566.182687
 21
-2031.042274
 31
0.0
 12
1551.182687
 22
-2028.542274
 32
0.0
 13
1551.182687
 23
-2028.542274
 33
0.0
  0
MTEXT
  5
38
100
AcDbEntity
  8
0
  6
BYBLOCK
 62
     5
100
AcDbMText
 10
1541.182687
 20
-2012.882274
 30
0.0
 40
19.32
 41
0.0
 71
     5
 72
     1
  1
\A1;20
  0
POINT
  5
39
100
AcDbEntity
  8
DEFPOINTS
  6
BYBLOCK
 62
     0
100
AcDbPoint
 10
1531.182687
 20
-1968.542274
 30
0.0
  0
POINT
  5
3A
100
AcDbEntity
  8
DEFPOINTS
  6
BYBLOCK
 62
     0
100
AcDbPoint
 10
1551.182687
 20
-1968.542274
 30
0.0
  0
POINT
  5
3B
100
AcDbEntity
  8
DEFPOINTS
  6
BYBLOCK
 62
     0
100
AcDbPoint
 10
1551.182687
 20
-2028.542274
 30
0.0
  0
ENDBLK
  5
3D
100
AcDbEntity
  8
0
100
AcDbBlockEnd
  0
BLOCK
  5
7D
100
AcDbEntity
  8
0
100
AcDbBlockBegin
  2
*D3
 70
     1
 10
0.0
 20
0.0
 30
0.0
  3
*D3
  1

  0
LINE
  5
72
100
AcDbEntity
  8
0
  6
BYBLOCK
100
AcDbLine
 10
1106.182687
 20
-1965.542274
 30
0.0
 11
1106.182687
 21
-1867.731824
 31
0.0
  0
LINE
  5
73
100
AcDbEntity
  8
0
  6
BYBLOCK
100
AcDbLine
 10
1131.169411
 20
-1909.542274
 30
0.0
 11
1131.169411
 21
-1867.731824
 31
0.0
  0
LINE
  5
74
100
AcDbEntity
  8
0
  6
BYBLOCK
100
AcDbLine
 10
1091.182687
 20
-1873.731824
 30
0.0
 11
1076.182687
 21
-1873.731824
 31
0.0
  0
LINE
  5
75
100
AcDbEntity
  8
0
  6
BYBLOCK
100
AcDbLine
 10
1146.169411
 20
-1873.731824
 30
0.0
 11
1161.169411
 21
-1873.731824
 31
0.0
  0
LINE
  5
76
100
AcDbEntity
  8
0
  6
BYBLOCK
100
AcDbLine
 10
1106.182687
 20
-1873.731824
 30
0.0
 11
1131.169411
 21
-1873.731824
 31
0.0
  0
SOLID
  5
77
100
AcDbEntity
  8
0
  6
BYBLOCK
100
AcDbTrace
 10
1091.182687
 20
-1871.231824
 30
0.0
 11
1091.182687
 21
-1876.231824
 31
0.0
 12
1106.182687
 22
-1873.731824
 32
0.0
 13
1106.182687
 23
-1873.731824
 33
0.0
  0
SOLID
  5
78
100
AcDbEntity
  8
0
  6
BYBLOCK
100
AcDbTrace
 10
1146.169411
 20
-1871.231824
 30
0.0
 11
1146.169411
 21
-1876.231824
 31
0.0
 12
1131.169411
 22
-1873.731824
 32
0.0
 13
1131.169411
 23
-1873.731824
 33
0.0
  0
MTEXT
  5
79
100
AcDbEntity
  8
0
  6
BYBLOCK
 62
     5
100
AcDbMText
 10
1118.676049
 20
-1858.071824
 30
0.0
 40
19.32
 41
0.0
 71
     5
 72
     1
  1
\A1;25
  0
POINT
  5
7A
100
AcDbEntity
  8
DEFPOINTS
  6
BYBLOCK
 62
     0
100
AcDbPoint
 10
1106.182687
 20
-1968.542274
 30
0.0
  0
POINT
  5
7B
100
AcDbEntity
  8
DEFPOINTS
  6
BYBLOCK
 62
     0
100
AcDbPoint
 10
1131.169411
 20
-1912.542274
 30
0.0
  0
POINT
  5
7C
100
AcDbEntity
  8
DEFPOINTS
  6
BYBLOCK
 62
     0
100
AcDbPoint
 10
1131.169411
 20
-1873.731824
 30
0.0
  0
ENDBLK
  5
7E
100
AcDbEntity
  8
0
100
AcDbBlockEnd
  0
BLOCK
  5
97
100
AcDbEntity
  8
0
100
AcDbBlockBegin
  2
*D4
 70
     1
 10
0.0
 20
0.0
 30
0.0
  3
*D4
  1

  0
LINE
  5
8E
100
AcDbEntity
  8
0
  6
BYBLOCK
100
AcDbLine
 10
1131.169411
 20
-1909.542274
 30
0.0
 11
1131.169411
 21
-1867.731824
 31
0.0
  0
LINE
  5
8F
100
AcDbEntity
  8
0
  6
BYBLOCK
100
AcDbLine
 10
1283.695964
 20
-1909.542274
 30
0.0
 11
1283.695964
 21
-1867.731824
 31
0.0
  0
LINE
  5
90
100
AcDbEntity
  8
0
  6
BYBLOCK
100
AcDbLine
 10
1146.169411
 20
-1873.731824
 30
0.0
 11
1268.695964
 21
-1873.731824
 31
0.0
  0
SOLID
  5
91
100
AcDbEntity
  8
0
  6
BYBLOCK
100
AcDbTrace
 10
1146.169411
 20
-1871.231824
 30
0.0
 11
1146.169411
 21
-1876.231824
 31
0.0
 12
1131.169411
 22
-1873.731824
 32
0.0
 13
1131.169411
 23
-1873.731824
 33
0.0
  0
SOLID
  5
92
100
AcDbEntity
  8
0
  6
BYBLOCK
100
AcDbTrace
 10
1268.695964
 20
-1871.231824
 30
0.0
 11
1268.695964
 21
-1876.231824
 31
0.0
 12
1283.695964
 22
-1873.731824
 32
0.0
 13
1283.695964
 23
-1873.731824
 33
0.0
  0
MTEXT
  5
93
100
AcDbEntity
  8
0
  6
BYBLOCK
 62
     5
100
AcDbMText
 10
1207.432687
 20
-1856.231824
 30
0.0
 40
19.32
 41
0.0
 71
     5
 72
     1
  1
\A1;152,5
  0
POINT
  5
94
100
AcDbEntity
  8
DEFPOINTS
  6
BYBLOCK
 62
     0
100
AcDbPoint
 10
1131.169411
 20
-1912.542274
 30
0.0
  0
POINT
  5
95
100
AcDbEntity
  8
DEFPOINTS
  6
BYBLOCK
 62
     0
100
AcDbPoint
 10
1283.695964
 20
-1912.542274
 30
0.0
  0
POINT
  5
96
100
AcDbEntity
  8
DEFPOINTS
  6
BYBLOCK
 62
     0
100
AcDbPoint
 10
1283.695964
 20
-1873.731824
 30
0.0
  0
ENDBLK
  5
98
100
AcDbEntity
  8
0
100
AcDbBlockEnd
  0
BLOCK
  5
6E
100
AcDbEntity
  8
0
100
AcDbBlockBegin
  2
*D5
 70
     1
 10
0.0
 20
0.0
 30
0.0
  3
*D5
  1

  0
LINE
  5
63
100
AcDbEntity
  8
0
  6
BYBLOCK
100
AcDbLine
 10
1283.695964
 20
-1909.542274
 30
0.0
 11
1283.695964
 21
-1867.731824
 31
0.0
  0
LINE
  5
64
100
AcDbEntity
  8
0
  6
BYBLOCK
100
AcDbLine
 10
1308.682687
 20
-1965.542274
 30
0.0
 11
1308.682687
 21
-1867.731824
 31
0.0
  0
LINE
  5
65
100
AcDbEntity
  8
0
  6
BYBLOCK
100
AcDbLine
 10
1268.695964
 20
-1873.731824
 30
0.0
 11
1253.695964
 21
-1873.731824
 31
0.0
  0
LINE
  5
66
100
AcDbEntity
  8
0
  6
BYBLOCK
100
AcDbLine
 10
1323.682687
 20
-1873.731824
 30
0.0
 11
1338.682687
 21
-1873.731824
 31
0.0
  0
LINE
  5
67
100
AcDbEntity
  8
0
  6
BYBLOCK
100
AcDbLine
 10
1283.695964
 20
-1873.731824
 30
0.0
 11
1308.682687
 21
-1873.731824
 31
0.0
  0
SOLID
  5
68
100
AcDbEntity
  8
0
  6
BYBLOCK
100
AcDbTrace
 10
1268.695964
 20
-1871.231824
 30
0.0
 11
1268.695964
 21
-1876.231824
 31
0.0
 12
1283.695964
 22
-1873.731824
 32
0.0
 13
1283.695964
 23
-1873.731824
 33
0.0
  0
SOLID
  5
69
100
AcDbEntity
  8
0
  6
BYBLOCK
100
AcDbTrace
 10
1323.682687
 20
-1871.231824
 30
0.0
 11
1323.682687
 21
-1876.231824
 31
0.0
 12
1308.682687
 22
-1873.731824
 32
0.0
 13
1308.682687
 23
-1873.731824
 33
0.0
  0
MTEXT
  5
6A
100
AcDbEntity
  8
0
  6
BYBLOCK
 62
     5
100
AcDbMText
 10
1296.189326
 20
-1858.071824
 30
0.0
 40
19.32
 41
0.0
 71
     5
 72
     1
  1
\A1;25
  0
POINT
  5
6B
100
AcDbEntity
  8
DEFPOINTS
  6
BYBLOCK
 62
     0
100
AcDbPoint
 10
1283.695964
 20
-1912.542274
 30
0.0
  0
POINT
  5
6C
100
AcDbEntity
  8
DEFPOINTS
  6
BYBLOCK
 62
     0
100
AcDbPoint
 10
1308.682687
 20
-1968.542274
 30
0.0
  0
POINT
  5
6D
100
AcDbEntity
  8
DEFPOINTS
  6
BYBLOCK
 62
     0
100
AcDbPoint
 10
1308.682687
 20
-1873.731824
 30
0.0
  0
ENDBLK
  5
6F
100
AcDbEntity
  8
0
100
AcDbBlockEnd
  0
BLOCK
  5
5F
100
AcDbEntity
  8
0
100
AcDbBlockBegin
  2
*D6
 70
     1
 10
0.0
 20
0.0
 30
0.0
  3
*D6
  1

  0
LINE
  5
54
100
AcDbEntity
  8
0
  6
BYBLOCK
100
AcDbLine
 10
1415.432687
 20
-1915.542274
 30
0.0
 11
1415.432687
 21
-2034.542274
 31
0.0
  0
LINE
  5
55
100
AcDbEntity
  8
0
  6
BYBLOCK
100
AcDbLine
 10
1444.432687
 20
-1915.542274
 30
0.0
 11
1444.432687
 21
-2034.542274
 31
0.0
  0
LINE
  5
56
100
AcDbEntity
  8
0
  6
BYBLOCK
100
AcDbLine
 10
1400.432687
 20
-2028.542274
 30
0.0
 11
1385.432687
 21
-2028.542274
 31
0.0
  0
LINE
  5
57
100
AcDbEntity
  8
0
  6
BYBLOCK
100
AcDbLine
 10
1459.432687
 20
-2028.542274
 30
0.0
 11
1474.432687
 21
-2028.542274
 31
0.0
  0
LINE
  5
58
100
AcDbEntity
  8
0
  6
BYBLOCK
100
AcDbLine
 10
1415.432687
 20
-2028.542274
 30
0.0
 11
1444.432687
 21
-2028.542274
 31
0.0
  0
SOLID
  5
59
100
AcDbEntity
  8
0
  6
BYBLOCK
100
AcDbTrace
 10
1400.432687
 20
-2026.042274
 30
0.0
 11
1400.432687
 21
-2031.042274
 31
0.0
 12
1415.432687
 22
-2028.542274
 32
0.0
 13
1415.432687
 23
-2028.542274
 33
0.0
  0
SOLID
  5
5A
100
AcDbEntity
  8
0
  6
BYBLOCK
100
AcDbTrace
 10
1459.432687
 20
-2026.042274
 30
0.0
 11
1459.432687
 21
-2031.042274
 31
0.0
 12
1444.432687
 22
-2028.542274
 32
0.0
 13
1444.432687
 23
-2028.542274
 33
0.0
  0
MTEXT
  5
5B
100
AcDbEntity
  8
0
  6
BYBLOCK
 62
     5
100
AcDbMText
 10
1429.932687
 20
-2012.882274
 30
0.0
 40
19.32
 41
0.0
 71
     5
 72
     1
  1
\A1;29
  0
POINT
  5
5C
100
AcDbEntity
  8
DEFPOINTS
  6
BYBLOCK
 62
     0
100
AcDbPoint
 10
1415.432687
 20
-1912.542274
 30
0.0
  0
POINT
  5
5D
100
AcDbEntity
  8
DEFPOINTS
  6
BYBLOCK
 62
     0
100
AcDbPoint
 10
1444.432687
 20
-1912.542274
 30
0.0
  0
POINT
  5
5E
100
AcDbEntity
  8
DEFPOINTS
  6
BYBLOCK
 62
     0
100
AcDbPoint
 10
1444.432687
 20
-2028.542274
 30
0.0
  0
ENDBLK
  5
60
100
AcDbEntity
  8
0
100
AcDbBlockEnd
  0
BLOCK
  5
2D
100
AcDbEntity
  8
0
100
AcDbBlockBegin
  2
*D7
 70
     1
 10
0.0
 20
0.0
 30
0.0
  3
*D7
  1

  0
LINE
  5
20
100
AcDbEntity
  8
0
  6
BYBLOCK
100
AcDbLine
 10
1432.932687
 20
-1916.794099
 30
0.0
 11
1553.454662
 21
-1916.794099
 31
0.0
  0
LINE
  5
21
100
AcDbEntity
  8
0
  6
BYBLOCK
100
AcDbLine
 10
1509.195964
 20
-1912.542274
 30
0.0
 11
1553.454662
 21
-1912.542274
 31
0.0
  0
LINE
  5
22
100
AcDbEntity
  8
0
  6
BYBLOCK
100
AcDbLine
 10
1547.454662
 20
-1931.794099
 30
0.0
 11
1547.454662
 21
-1946.794099
 31
0.0
  0
LINE
  5
23
100
AcDbEntity
  8
0
  6
BYBLOCK
100
AcDbLine
 10
1547.454662
 20
-1897.542274
 30
0.0
 11
1547.454662
 21
-1882.542274
 31
0.0
  0
MTEXT
  5
24
100
AcDbEntity
  8
0
  6
BYBLOCK
 62
     5
100
AcDbMText
 10
1531.704662
 20
-1900.273585
 30
0.0
 40
19.32
 41
0.0
 71
     5
 72
     1
  1
\A1;4
 11
0.0
 21
1.0
 31
0.0
  0
LINE
  5
25
100
AcDbEntity
  8
0
  6
BYBLOCK
100
AcDbLine
 10
1547.454662
 20
-1916.794099
 30
0.0
 11
1547.454662
 21
-1912.542274
 31
0.0
  0
LINE
  5
26
100
AcDbEntity
  8
0
  6
BYBLOCK
100
AcDbLine
 10
1547.454662
 20
-1916.794099
 30
0.0
 11
1547.454662
 21
-1912.542274
 31
0.0
  0
SOLID
  5
27
100
AcDbEntity
  8
0
  6
BYBLOCK
100
AcDbTrace
 10
1544.954662
 20
-1931.794099
 30
0.0
 11
1549.954662
 21
-1931.794099
 31
0.0
 12
1547.454662
 22
-1916.794099
 32
0.0
 13
1547.454662
 23
-1916.794099
 33
0.0
  0
SOLID
  5
28
100
AcDbEntity
  8
0
  6
BYBLOCK
100
AcDbTrace
 10
1544.954662
 20
-1897.542274
 30
0.0
 11
1549.954662
 21
-1897.542274
 31
0.0
 12
1547.454662
 22
-1912.542274
 32
0.0
 13
1547.454662
 23
-1912.542274
 33
0.0
  0
POINT
  5
29
100
AcDbEntity
  8
DEFPOINTS
  6
BYBLOCK
 62
     0
100
AcDbPoint
 10
1429.932687
 20
-1916.794099
 30
0.0
  0
POINT
  5
2B
100
AcDbEntity
  8
DEFPOINTS
  6
BYBLOCK
 62
     0
100
AcDbPoint
 10
1506.195964
 20
-1912.542274
 30
0.0
  0
POINT
  5
2C
100
AcDbEntity
  8
DEFPOINTS
  6
BYBLOCK
 62
     0
100
AcDbPoint
 10
1547.454662
 20
-1912.542274
 30
0.0
  0
ENDBLK
  5
2E
100
AcDbEntity
  8
0
100
AcDbBlockEnd
  0
BLOCK
  5
D6
100
AcDbEntity
  8
0
100
AcDbBlockBegin
  2
*D8
 70
     1
 10
0.0
 20
0.0
 30
0.0
  3
*D8
  1

  0
LINE
  5
CB
100
AcDbEntity
  8
0
  6
BYBLOCK
100
AcDbLine
 10
1954.195964
 20
-1912.542274
 30
0.0
 11
2063.417528
 21
-1912.542274
 31
0.0
  0
LINE
  5
CC
100
AcDbEntity
  8
0
  6
BYBLOCK
100
AcDbLine
 10
1965.445533
 20
-1944.542274
 30
0.0
 11
2063.417528
 21
-1944.542274
 31
0.0
  0
LINE
  5
CD
100
AcDbEntity
  8
0
  6
BYBLOCK
100
AcDbLine
 10
2057.417528
 20
-1897.542274
 30
0.0
 11
2057.417528
 21
-1882.542274
 31
0.0
  0
LINE
  5
CE
100
AcDbEntity
  8
0
  6
BYBLOCK
100
AcDbLine
 10
2057.417528
 20
-1959.542274
 30
0.0
 11
2057.417528
 21
-1974.542274
 31
0.0
  0
LINE
  5
CF
100
AcDbEntity
  8
0
  6
BYBLOCK
100
AcDbLine
 10
2057.417528
 20
-1912.542274
 30
0.0
 11
2057.417528
 21
-1944.542274
 31
0.0
  0
SOLID
  5
D0
100
AcDbEntity
  8
0
  6
BYBLOCK
100
AcDbTrace
 10
2054.917528
 20
-1897.542274
 30
0.0
 11
2059.917528
 21
-1897.542274
 31
0.0
 12
2057.417528
 22
-1912.542274
 32
0.0
 13
2057.417528
 23
-1912.542274
 33
0.0
  0
SOLID
  5
D1
100
AcDbEntity
  8
0
  6
BYBLOCK
100
AcDbTrace
 10
2054.917528
 20
-1959.542274
 30
0.0
 11
2059.917528
 21
-1959.542274
 31
0.0
 12
2057.417528
 22
-1944.542274
 32
0.0
 13
2057.417528
 23
-1944.542274
 33
0.0
  0
MTEXT
  5
D2
100
AcDbEntity
  8
0
  6
BYBLOCK
 62
     5
100
AcDbMText
 10
2041.757528
 20
-1928.542274
 30
0.0
 40
19.32
 41
0.0
 71
     5
 72
     1
  1
\A1;32
 11
0.0
 21
1.0
 31
0.0
  0
POINT
  5
D3
100
AcDbEntity
  8
DEFPOINTS
  6
BYBLOCK
 62
     0
100
AcDbPoint
 10
1951.195964
 20
-1912.542274
 30
0.0
  0
POINT
  5
D4
100
AcDbEntity
  8
DEFPOINTS
  6
BYBLOCK
 62
     0
100
AcDbPoint
 10
1962.445533
 20
-1944.542274
 30
0.0
  0
POINT
  5
D5
100
AcDbEntity
  8
DEFPOINTS
  6
BYBLOCK
 62
     0
100
AcDbPoint
 10
2057.417528
 20
-1944.542274
 30
0.0
  0
ENDBLK
  5
D7
100
AcDbEntity
  8
0
100
AcDbBlockEnd
  0
BLOCK
  5
C7
100
AcDbEntity
  8
0
100
AcDbBlockBegin
  2
*D9
 70
     1
 10
0.0
 20
0.0
 30
0.0
  3
*D9
  1

  0
LINE
  5
BB
100
AcDbEntity
  8
0
  6
BYBLOCK
100
AcDbLine
 10
1965.445533
 20
-1944.542274
 30
0.0
 11
2063.417528
 21
-1944.542274
 31
0.0
  0
LINE
  5
BC
100
AcDbEntity
  8
0
  6
BYBLOCK
100
AcDbLine
 10
1973.206353
 20
-1951.542274
 30
0.0
 11
2063.417528
 21
-1951.542274
 31
0.0
  0
LINE
  5
BD
100
AcDbEntity
  8
0
  6
BYBLOCK
100
AcDbLine
 10
2057.417528
 20
-1929.542274
 30
0.0
 11
2057.417528
 21
-1914.542274
 31
0.0
  0
LINE
  5
BE
100
AcDbEntity
  8
0
  6
BYBLOCK
100
AcDbLine
 10
2057.417528
 20
-1966.542274
 30
0.0
 11
2057.417528
 21
-1981.542274
 31
0.0
  0
MTEXT
  5
BF
100
AcDbEntity
  8
0
  6
BYBLOCK
 62
     5
100
AcDbMText
 10
2079.970169
 20
-1948.042274
 30
0.0
 40
19.32
 41
0.0
 71
     5
 72
     1
  1
\A1;7
 11
0.0
 21
1.0
 31
0.0
  0
LINE
  5
C0
100
AcDbEntity
  8
0
  6
BYBLOCK
100
AcDbLine
 10
2057.417528
 20
-1944.542274
 30
0.0
 11
2057.417528
 21
-1951.542274
 31
0.0
  0
LINE
  5
C1
100
AcDbEntity
  8
0
  6
BYBLOCK
100
AcDbLine
 10
2057.417528
 20
-1944.542274
 30
0.0
 11
2057.417528
 21
-1951.542274
 31
0.0
  0
SOLID
  5
C2
100
AcDbEntity
  8
0
  6
BYBLOCK
100
AcDbTrace
 10
2054.917528
 20
-1929.542274
 30
0.0
 11
2059.917528
 21
-1929.542274
 31
0.0
 12
2057.417528
 22
-1944.542274
 32
0.0
 13
2057.417528
 23
-1944.542274
 33
0.0
  0
SOLID
  5
C3
100
AcDbEntity
  8
0
  6
BYBLOCK
100
AcDbTrace
 10
2054.917528
 20
-1966.542274
 30
0.0
 11
2059.917528
 21
-1966.542274
 31
0.0
 12
2057.417528
 22
-1951.542274
 32
0.0
 13
2057.417528
 23
-1951.542274
 33
0.0
  0
POINT
  5
C4
100
AcDbEntity
  8
DEFPOINTS
  6
BYBLOCK
 62
     0
100
AcDbPoint
 10
1962.445533
 20
-1944.542274
 30
0.0
  0
POINT
  5
C5
100
AcDbEntity
  8
DEFPOINTS
  6
BYBLOCK
 62
     0
100
AcDbPoint
 10
1970.206353
 20
-1951.542274
 30
0.0
  0
POINT
  5
C6
100
AcDbEntity
  8
DEFPOINTS
  6
BYBLOCK
 62
     0
100
AcDbPoint
 10
2057.417528
 20
-1951.542274
 30
0.0
  0
ENDBLK
  5
C8
100
AcDbEntity
  8
0
100
AcDbBlockEnd
  0
BLOCK
  5
E8
100
AcDbEntity
  8
0
100
AcDbBlockBegin
  2
*D10
 70
     1
 10
0.0
 20
0.0
 30
0.0
  3
*D10
  1

  0
LINE
  5
DC
100
AcDbEntity
  8
0
  6
BYBLOCK
100
AcDbLine
 10
1973.206353
 20
-1951.542274
 30
0.0
 11
2063.417528
 21
-1951.542274
 31
0.0
  0
LINE
  5
DD
100
AcDbEntity
  8
0
  6
BYBLOCK
100
AcDbLine
 10
1999.182687
 20
-1968.542274
 30
0.0
 11
2063.417528
 21
-1968.542274
 31
0.0
  0
LINE
  5
DE
100
AcDbEntity
  8
0
  6
BYBLOCK
100
AcDbLine
 10
2057.417528
 20
-1936.542274
 30
0.0
 11
2057.417528
 21
-1921.542274
 31
0.0
  0
LINE
  5
DF
100
AcDbEntity
  8
0
  6
BYBLOCK
100
AcDbLine
 10
2057.417528
 20
-1983.542274
 30
0.0
 11
2057.417528
 21
-1998.542274
 31
0.0
  0
MTEXT
  5
E0
100
AcDbEntity
  8
0
  6
BYBLOCK
 62
     5
100
AcDbMText
 10
2041.667528
 20
-1988.491578
 30
0.0
 40
19.32
 41
0.0
 71
     5
 72
     1
  1
\A1;17
 11
0.0
 21
1.0
 31
0.0
  0
LINE
  5
E1
100
AcDbEntity
  8
0
  6
BYBLOCK
100
AcDbLine
 10
2057.417528
 20
-1951.542274
 30
0.0
 11
2057.417528
 21
-1968.542274
 31
0.0
  0
LINE
  5
E2
100
AcDbEntity
  8
0
  6
BYBLOCK
100
AcDbLine
 10
2057.417528
 20
-1951.542274
 30
0.0
 11
2057.417528
 21
-1968.542274
 31
0.0
  0
SOLID
  5
E3
100
AcDbEntity
  8
0
  6
BYBLOCK
100
AcDbTrace
 10
2054.917528
 20
-1936.542274
 30
0.0
 11
2059.917528
 21
-1936.542274
 31
0.0
 12
2057.417528
 22
-1951.542274
 32
0.0
 13
2057.417528
 23
-1951.542274
 33
0.0
  0
SOLID
  5
E4
100
AcDbEntity
  8
0
  6
BYBLOCK
100
AcDbTrace
 10
2054.917528
 20
-1983.542274
 30
0.0
 11
2059.917528
 21
-1983.542274
 31
0.0
 12
2057.417528
 22
-1968.542274
 32
0.0
 13
2057.417528
 23
-1968.542274
 33
0.0
  0
POINT
  5
E5
100
AcDbEntity
  8
DEFPOINTS
  6
BYBLOCK
 62
     0
100
AcDbPoint
 10
1970.206353
 20
-1951.542274
 30
0.0
  0
POINT
  5
E6
100
AcDbEntity
  8
DEFPOINTS
  6
BYBLOCK
 62
     0
100
AcDbPoint
 10
1996.182687
 20
-1968.542274
 30
0.0
  0
POINT
  5
E7
100
AcDbEntity
  8
DEFPOINTS
  6
BYBLOCK
 62
     0
100
AcDbPoint
 10
2057.417528
 20
-1968.542274
 30
0.0
  0
ENDBLK
  5
E9
100
AcDbEntity
  8
0
100
AcDbBlockEnd
  0
BLOCK
  5
B7
100
AcDbEntity
  8
0
100
AcDbBlockBegin
  2
*D11
 70
     1
 10
0.0
 20
0.0
 30
0.0
  3
*D11
  1

  0
LINE
  5
AE
100
AcDbEntity
  8
0
  6
BYBLOCK
100
AcDbLine
 10
1954.195964
 20
-1912.542274
 30
0.0
 11
2144.707218
 21
-1912.542274
 31
0.0
  0
LINE
  5
AF
100
AcDbEntity
  8
0
  6
BYBLOCK
100
AcDbLine
 10
2002.182687
 20
-1968.542274
 30
0.0
 11
2144.707218
 21
-1968.542274
 31
0.0
  0
LINE
  5
B0
100
AcDbEntity
  8
0
  6
BYBLOCK
100
AcDbLine
 10
2138.707218
 20
-1927.542274
 30
0.0
 11
2138.707218
 21
-1953.542274
 31
0.0
  0
SOLID
  5
B1
100
AcDbEntity
  8
0
  6
BYBLOCK
100
AcDbTrace
 10
2136.207218
 20
-1927.542274
 30
0.0
 11
2141.207218
 21
-1927.542274
 31
0.0
 12
2138.707218
 22
-1912.542274
 32
0.0
 13
2138.707218
 23
-1912.542274
 33
0.0
  0
SOLID
  5
B2
100
AcDbEntity
  8
0
  6
BYBLOCK
100
AcDbTrace
 10
2136.207218
 20
-1953.542274
 30
0.0
 11
2141.207218
 21
-1953.542274
 31
0.0
 12
2138.707218
 22
-1968.542274
 32
0.0
 13
2138.707218
 23
-1968.542274
 33
0.0
  0
MTEXT
  5
B3
100
AcDbEntity
  8
0
  6
BYBLOCK
 62
     5
100
AcDbMText
 10
2123.047218
 20
-1940.542274
 30
0.0
 40
19.32
 41
0.0
 71
     5
 72
     1
  1
\A1;56
 11
0.0
 21
1.0
 31
0.0
  0
POINT
  5
B4
100
AcDbEntity
  8
DEFPOINTS
  6
BYBLOCK
 62
     0
100
AcDbPoint
 10
1951.195964
 20
-1912.542274
 30
0.0
  0
POINT
  5
B5
100
AcDbEntity
  8
DEFPOINTS
  6
BYBLOCK
 62
     0
100
AcDbPoint
 10
1999.182687
 20
-1968.542274
 30
0.0
  0
POINT
  5
B6
100
AcDbEntity
  8
DEFPOINTS
  6
BYBLOCK
 62
     0
100
AcDbPoint
 10
2138.707218
 20
-1968.542274
 30
0.0
  0
ENDBLK
  5
B8
100
AcDbEntity
  8
0
100
AcDbBlockEnd
  0
BLOCK
  5
AA
100
AcDbEntity
  8
0
100
AcDbBlockBegin
  2
*D12
 70
     1
 10
0.0
 20
0.0
 30
0.0
  3
*D12
  1

  0
LINE
  5
9F
100
AcDbEntity
  8
0
  6
BYBLOCK
100
AcDbLine
 10
1780.653977
 20
-1948.712069
 30
0.0
 11
1810.588641
 21
-1863.561323
 31
0.0
  0
LINE
  5
A0
100
AcDbEntity
  8
0
  6
BYBLOCK
100
AcDbLine
 10
1785.370993
 20
-1950.370331
 30
0.0
 11
1815.305657
 21
-1865.219585
 31
0.0
  0
LINE
  5
A1
100
AcDbEntity
  8
0
  6
BYBLOCK
100
AcDbLine
 10
1794.447702
 20
-1864.246953
 30
0.0
 11
1780.296675
 21
-1859.272173
 31
0.0
  0
LINE
  5
A2
100
AcDbEntity
  8
0
  6
BYBLOCK
100
AcDbLine
 10
1827.466772
 20
-1875.854776
 30
0.0
 11
1841.617799
 21
-1880.829556
 31
0.0
  0
LINE
  5
A3
100
AcDbEntity
  8
0
  6
BYBLOCK
100
AcDbLine
 10
1808.598729
 20
-1869.221733
 30
0.0
 11
1813.315745
 21
-1870.879996
 31
0.0
  0
SOLID
  5
A4
100
AcDbEntity
  8
0
  6
BYBLOCK
100
AcDbTrace
 10
1795.276832
 20
-1861.888449
 30
0.0
 11
1793.618572
 21
-1866.605458
 31
0.0
 12
1808.598729
 22
-1869.221733
 32
0.0
 13
1808.598729
 23
-1869.221733
 33
0.0
  0
SOLID
  5
A5
100
AcDbEntity
  8
0
  6
BYBLOCK
100
AcDbTrace
 10
1828.295902
 20
-1873.496271
 30
0.0
 11
1826.637642
 21
-1878.21328
 31
0.0
 12
1813.315745
 22
-1870.879996
 32
0.0
 13
1813.315745
 23
-1870.879996
 33
0.0
  0
MTEXT
  5
A6
100
AcDbEntity
  8
0
  6
BYBLOCK
 62
     5
100
AcDbMText
 10
1816.150908
 20
-1855.277192
 30
0.0
 40
19.32
 41
0.0
 71
     5
 72
     1
  1
\A1;5
 11
0.943402
 21
-0.331652
 31
0.0
  0
POINT
  5
A7
100
AcDbEntity
  8
DEFPOINTS
  6
BYBLOCK
 62
     0
100
AcDbPoint
 10
1779.659021
 20
-1951.542274
 30
0.0
  0
POINT
  5
A8
100
AcDbEntity
  8
DEFPOINTS
  6
BYBLOCK
 62
     0
100
AcDbPoint
 10
1784.376037
 20
-1953.200537
 30
0.0
  0
POINT
  5
A9
100
AcDbEntity
  8
DEFPOINTS
  6
BYBLOCK
 62
     0
100
AcDbPoint
 10
1813.315745
 20
-1870.879996
 30
0.0
  0
ENDBLK
  5
AB
100
AcDbEntity
  8
0
100
AcDbBlockEnd
  0
ENDSEC
  0
SECTION
  2
ENTITIES
  0
DIMENSION
  5
1E
100
AcDbEntity
  8
KOTY-UPLNE
100
AcDbDimension
  2
*D7
 10
604.127272
 20
-149.884928
 30
0.0
 11
588.377272
 21
-137.616239
 31
0.0
 12
-943.32739
 22
1762.657346
 32
0.0
 70
   128
  3
UPLNE
100
AcDbAlignedDimension
 13
486.605297
 23
-154.136753
 33
0.0
 14
562.868574
 24
-149.884928
 34
0.0
 50
90.0
100
AcDbRotatedDimension
1001
ACAD
1000
DSTYLE
1002
{
1070
    40
1040
3.0
1070
   147
1040
2.0
1002
}
  0
DIMENSION
  5
2F
100
AcDbEntity
  8
KOTY-UPLNE
100
AcDbDimension
  2
*D2
 10
607.855297
 20
-265.884928
 30
0.0
 11
597.855297
 21
-250.224928
 31
0.0
 12
-943.32739
 22
1762.657346
 32
0.0
  3
UPLNE
100
AcDbAlignedDimension
 13
587.855297
 23
-205.884928
 33
0.0
 14
607.855297
 24
-205.884928
 34
0.0
100
AcDbRotatedDimension
1001
ACAD
1000
DSTYLE
1002
{
1070
    40
1040
3.0
1070
   147
1040
2.0
1002
}
  0
DIMENSION
  5
3E
100
AcDbEntity
  8
KOTY-UPLNE
100
AcDbDimension
  2
*D1
 10
1042.855297
 20
-325.884928
 30
0.0
 11
597.855297
 21
-310.224928
 31
0.0
 12
-943.32739
 22
1762.657346
 32
0.0
  3
UPLNE
100
AcDbAlignedDimension
 13
152.855297
 23
-215.884928
 33
0.0
 14
1042.855297
 24
-205.884928
 34
0.0
100
AcDbRotatedDimension
1001
ACAD
1000
DSTYLE
1002
{
1070
    40
1040
3.0
1070
   147
1040
2.0
1002
}
  0
LWPOLYLINE
  5
4B
100
AcDbEntity
  8
TRAPEZ-VELKY
100
AcDbPolyline
 90
       96
 70
     0
 43
5.0
 10
147.855297
 20
-205.884928
 10
158.604629
 20
-205.884928
 42
0.318328
 10
164.26504
 20
-201.87484
 10
168.324751
 20
-190.326777
 42
-0.125361
 10
169.966535
 20
-187.861283
 10
175.457548
 20
-182.908573
 42
0.125361
 10
177.099332
 20
-180.44308
 10
186.432278
 20
-153.895016
 42
-0.318328
 10
192.092689
 20
-149.884928
 10
248.743747
 20
-149.884928
 42
-0.07143
 10
250.432037
 20
-150.127352
 10
262.417007
 20
-153.641697
 42
0.143592
 10
265.793587
 20
-153.641697
 10
277.778557
 20
-150.127352
 42
-0.07143
 10
279.466847
 20
-149.884928
 10
336.117906
 20
-149.884928
 42
-0.318328
 10
341.778316
 20
-153.895016
 10
351.111263
 20
-180.44308
 42
0.125361
 10
352.753047
 20
-182.908573
 10
358.24406
 20
-187.861283
 42
-0.125361
 10
359.885844
 20
-190.326777
 10
363.945555
 20
-201.87484
 42
0.318328
 10
369.605965
 20
-205.884928
 10
375.355297
 20
-205.884928
 10
381.104629
 20
-205.884928
 42
0.318328
 10
386.76504
 20
-201.87484
 10
390.824751
 20
-190.326777
 42
-0.125361
 10
392.466535
 20
-187.861283
 10
397.957548
 20
-182.908573
 42
0.125361
 10
399.599332
 20
-180.44308
 10
408.932278
 20
-153.895016
 42
-0.318328
 10
414.592689
 20
-149.884928
 10
471.243747
 20
-149.884928
 42
-0.07143
 10
472.932037
 20
-150.127352
 10
484.917007
 20
-153.641697
 42
0.143592
 10
488.293587
 20
-153.641697
 10
500.278557
 20
-150.127352
 42
-0.07143
 10
501.966847
 20
-149.884928
 10
558.617906
 20
-149.884928
 42
-0.318328
 10
564.278316
 20
-153.895016
 10
573.611263
 20
-180.44308
 42
0.125361
 10
575.253047
 20
-182.908573
 10
580.74406
 20
-187.861283
 42
-0.125361
 10
582.385844
 20
-190.326777
 10
586.445555
 20
-201.87484
 42
0.318328
 10
592.105965
 20
-205.884928
 10
597.855297
 20
-205.884928
 10
603.604629
 20
-205.884928
 42
0.318328
 10
609.26504
 20
-201.87484
 10
613.324751
 20
-190.326777
 42
-0.125361
 10
614.966535
 20
-187.861283
 10
620.457548
 20
-182.908573
 42
0.125361
 10
622.099332
 20
-180.44308
 10
631.432278
 20
-153.895016
 42
-0.318328
 10
637.092689
 20
-149.884928
 10
693.743747
 20
-149.884928
 42
-0.07143
 10
695.432037
 20
-150.127352
 10
707.417007
 20
-153.641697
 42
0.143592
 10
710.793587
 20
-153.641697
 10
722.778557
 20
-150.127352
 42
-0.07143
 10
724.466847
 20
-149.884928
 10
781.117906
 20
-149.884928
 42
-0.318328
 10
786.778316
 20
-153.895016
 10
796.111263
 20
-180.44308
 42
0.125361
 10
797.753047
 20
-182.908573
 10
803.24406
 20
-187.861283
 42
-0.125361
 10
804.885844
 20
-190.326777
 10
808.945555
 20
-201.87484
 42
0.318328
 10
814.605965
 20
-205.884928
 10
820.355297
 20
-205.884928
 10
826.104629
 20
-205.884928
 42
0.318328
 10
831.76504
 20
-201.87484
 10
835.824751
 20
-190.326777
 42
-0.125361
 10
837.466535
 20
-187.861283
 10
842.957548
 20
-182.908573
 42
0.125361
 10
844.599332
 20
-180.44308
 10
853.932278
 20
-153.895016
 42
-0.318328
 10
859.592689
 20
-149.884928
 10
916.243747
 20
-149.884928
 42
-0.07143
 10
917.932037
 20
-150.127352
 10
929.917007
 20
-153.641697
 42
0.143592
 10
933.293587
 20
-153.641697
 10
945.278557
 20
-150.127352
 42
-0.07143
 10
946.966847
 20
-149.884928
 10
1003.617906
 20
-149.884928
 42
-0.318328
 10
1009.278316
 20
-153.895016
 10
1018.611263
 20
-180.44308
 42
0.125361
 10
1020.253047
 20
-182.908573
 10
1025.74406
 20
-187.861283
 42
-0.125361
 10
1027.385844
 20
-190.326777
 10
1031.445555
 20
-201.87484
 42
0.318328
 10
1037.105965
 20
-205.884928
 10
1042.855297
 20
-205.884928
 10
1048.604629
 20
-205.884928
 42
0.318328
 10
1054.26504
 20
-201.87484
 10
1055.843464
 20
-197.384928
  0
MTEXT
  5
4D
100
AcDbEntity
  8
POPIS
100
AcDbMText
 10
661.730741
 20
-42.124031
 30
0.0
 40
40.0
 41
1.0
 71
     5
 72
     1
  1
TR 56/222
  7
STYLE1
  0
LWPOLYLINE
  5
50
100
AcDbEntity
  8
RAMEC
100
AcDbPolyline
 90
        4
 70
     1
 43
0.0
 10
0.0
 20
0.0
 10
0.0
 20
-375.001233
 10
1349.672502
 20
-375.001233
 10
1349.672502
 20
0.0
  0
DIMENSION
  5
52
100
AcDbEntity
  8
KOTY-UPLNE
100
AcDbDimension
  2
*D6
 10
501.105297
 20
-265.884928
 30
0.0
 11
486.605297
 21
-250.224928
 31
0.0
 12
-943.32739
 22
1762.657346
 32
0.0
  3
UPLNE
100
AcDbAlignedDimension
 13
472.105297
 23
-149.884928
 33
0.0
 14
501.105297
 24
-149.884928
 34
0.0
100
AcDbRotatedDimension
1001
ACAD
1000
DSTYLE
1002
{
1070
    40
1040
3.0
1070
   147
1040
2.0
1002
}
  0
DIMENSION
  5
61
100
AcDbEntity
  8
KOTY-UPLNE
100
AcDbDimension
  2
*D5
 10
365.355297
 20
-111.074478
 30
0.0
 11
352.861935
 21
-95.414478
 31
0.0
 12
-943.32739
 22
1762.657346
 32
0.0
  3
UPLNE
100
AcDbAlignedDimension
 13
340.368574
 23
-149.884928
 33
0.0
 14
365.355297
 24
-205.884928
 34
0.0
100
AcDbRotatedDimension
1001
ACAD
1000
DSTYLE
1002
{
1070
    40
1040
3.0
1070
   147
1040
2.0
1002
}
  0
DIMENSION
  5
70
100
AcDbEntity
  8
KOTY-UPLNE
100
AcDbDimension
  2
*D3
 10
187.842021
 20
-111.074478
 30
0.0
 11
175.348659
 21
-95.414478
 31
0.0
 12
-943.32739
 22
1762.657346
 32
0.0
  3
UPLNE
100
AcDbAlignedDimension
 13
162.855297
 23
-205.884928
 33
0.0
 14
187.842021
 24
-149.884928
 34
0.0
100
AcDbRotatedDimension
1001
ACAD
1000
DSTYLE
1002
{
1070
    40
1040
3.0
1070
   147
1040
2.0
1002
}
  0
DIMENSION
  5
7F
100
AcDbEntity
  8
KOTY-UPLNE
100
AcDbDimension
  2
*D0
 10
375.355297
 20
-265.884928
 30
0.0
 11
264.105297
 21
-248.384928
 31
0.0
 12
-943.32739
 22
1762.657346
 32
0.0
  1
222,5
  3
UPLNE
100
AcDbAlignedDimension
 13
152.855297
 23
-205.884928
 33
0.0
 14
375.355297
 24
-205.884928
 34
0.0
100
AcDbRotatedDimension
1001
ACAD
1000
DSTYLE
1002
{
1070
    40
1040
3.0
1070
   147
1040
2.0
1002
}
  0
DIMENSION
  5
8C
100
AcDbEntity
  8
KOTY-UPLNE
100
AcDbDimension
  2
*D4
 10
340.368574
 20
-111.074478
 30
0.0
 11
264.105297
 21
-93.574478
 31
0.0
 12
-943.32739
 22
1762.657346
 32
0.0
  1
152,5
  3
UPLNE
100
AcDbAlignedDimension
 13
187.842021
 23
-149.884928
 33
0.0
 14
340.368574
 24
-149.884928
 34
0.0
100
AcDbRotatedDimension
1001
ACAD
1000
DSTYLE
1002
{
1070
    40
1040
3.0
1070
   147
1040
2.0
1002
}
  0
MTEXT
  5
99
102
{ACAD_REACTORS
330
9A
102
}
100
AcDbEntity
  8
KOTY-UPLNE
 62
     5
100
AcDbMText
 10
775.906791
 20
-106.749868
 30
0.0
 40
16.5
 41
0.0
 71
     6
 72
     1
  1
\A1;R=6
  0
LEADER
  5
9A
100
AcDbEntity
  8
KOTY-UPLNE
100
AcDbLeader
  3
UPLNE
 73
     0
 75
     1
 40
16.5
 41
42.428571
 76
     3
 10
830.355297
 20
-205.884928
 30
0.0
 10
796.906791
 20
-120.999868
 30
0.0
 10
781.906791
 20
-120.999868
 30
0.0
 77
   256
340
99
1001
ACAD
1000
DSTYLE
1002
{
1070
    40
1040
3.0
1070
   147
1040
2.0
1002
}
  0
MTEXT
  5
9B
102
{ACAD_REACTORS
330
9C
102
}
100
AcDbEntity
  8
KOTY-UPLNE
 62
     5
100
AcDbMText
 10
688.077967
 20
-218.680767
 30
0.0
 40
16.5
 41
0.0
 71
     4
 72
     1
  1
\A1;R=6
  0
LEADER
  5
9C
100
AcDbEntity
  8
KOTY-UPLNE
100
AcDbLeader
  3
UPLNE
 73
     0
 74
     0
 75
     1
 40
16.5
 41
42.428571
 76
     3
 10
632.842021
 20
-149.884928
 30
0.0
 10
667.077967
 20
-232.930767
 30
0.0
 10
682.077967
 20
-232.930767
 30
0.0
 77
   256
340
9B
1001
ACAD
1000
DSTYLE
1002
{
1070
    40
1040
3.0
1070
   147
1040
2.0
1002
}
  0
DIMENSION
  5
9D
100
AcDbEntity
  8
KOTY-UPLNE
100
AcDbDimension
  2
*D12
 10
869.988355
 20
-108.22265
 30
0.0
 11
872.823517
 21
-92.619846
 31
0.0
 12
-943.32739
 22
1762.657346
 32
0.0
 70
     1
  3
UPLNE
100
AcDbAlignedDimension
 13
836.331631
 23
-188.884928
 33
0.0
 14
841.048647
 24
-190.543191
 34
0.0
1001
ACAD
1000
DSTYLE
1002
{
1070
    40
1040
3.0
1070
   147
1040
2.0
1002
}
  0
DIMENSION
  5
AC
100
AcDbEntity
  8
KOTY-UPLNE
100
AcDbDimension
  2
*D11
 10
1195.379828
 20
-205.884928
 30
0.0
 11
1179.719828
 21
-177.884928
 31
0.0
 12
-943.32739
 22
1762.657346
 32
0.0
  3
UPLNE
100
AcDbAlignedDimension
 13
1007.868574
 23
-149.884928
 33
0.0
 14
1055.855297
 24
-205.884928
 34
0.0
 50
90.0
100
AcDbRotatedDimension
1001
ACAD
1000
DSTYLE
1002
{
1070
    40
1040
3.0
1070
   147
1040
2.0
1002
}
  0
DIMENSION
  5
B9
100
AcDbEntity
  8
KOTY-UPLNE
100
AcDbDimension
  2
*D9
 10
1114.090138
 20
-188.884928
 30
0.0
 11
1136.642779
 21
-185.384928
 31
0.0
 12
-943.32739
 22
1762.657346
 32
0.0
 70
   128
  3
UPLNE
100
AcDbAlignedDimension
 13
1019.118143
 23
-181.884928
 33
0.0
 14
1026.878963
 24
-188.884928
 34
0.0
 50
90.0
100
AcDbRotatedDimension
1001
ACAD
1000
DSTYLE
1002
{
1070
    40
1040
3.0
1070
   147
1040
2.0
1002
}
  0
DIMENSION
  5
C9
100
AcDbEntity
  8
KOTY-UPLNE
100
AcDbDimension
  2
*D8
 10
1114.090138
 20
-181.884928
 30
0.0
 11
1098.430138
 21
-165.884928
 31
0.0
 12
-943.32739
 22
1762.657346
 32
0.0
  3
UPLNE
100
AcDbAlignedDimension
 13
1007.868574
 23
-149.884928
 33
0.0
 14
1019.118143
 24
-181.884928
 34
0.0
 50
90.0
100
AcDbRotatedDimension
1001
ACAD
1000
DSTYLE
1002
{
1070
    40
1040
3.0
1070
   147
1040
2.0
1002
}
  0
MTEXT
  5
D8
100
AcDbEntity
  8
POZICE
100
AcDbMText
 10
946.38467
 20
-204.968404
 30
0.0
 40
41.73
 41
1.0
 71
     5
 72
     1
  1
B
  7
STYLE1
  0
DIMENSION
  5
DA
100
AcDbEntity
  8
KOTY-UPLNE
100
AcDbDimension
  2
*D10
 10
1114.090138
 20
-205.884928
 30
0.0
 11
1098.340138
 21
-225.834232
 31
0.0
 12
-943.32739
 22
1762.657346
 32
0.0
 70
   128
  3
UPLNE
100
AcDbAlignedDimension
 13
1026.878963
 23
-188.884928
 33
0.0
 14
1052.855297
 24
-205.884928
 34
0.0
 50
90.0
100
AcDbRotatedDimension
1001
ACAD
1000
DSTYLE
1002
{
1070
    40
1040
3.0
1070
   147
1040
2.0
1002
}
  0
MTEXT
  5
EA
100
AcDbEntity
  8
POZICE
100
AcDbMText
 10
943.69889
 20
-95.421509
 30
0.0
 40
41.73
 41
1.0
 71
     5
 72
     1
  1
A
  7
STYLE1
  0
ENDSEC
  0
SECTION
  2
OBJECTS
  0
DICTIONARY
  5
1A
100
AcDbDictionary
  3
ACAD_GROUP
350
18
  3
ACAD_MLINESTYLE
350
19
  0
DICTIONARY
  5
18
102
{ACAD_REACTORS
330
1A
102
}
100
AcDbDictionary
  0
DICTIONARY
  5
19
102
{ACAD_REACTORS
330
1A
102
}
100
AcDbDictionary
  3
STANDARD
350
1C
  0
MLINESTYLE
  5
1C
102
{ACAD_REACTORS
330
19
102
}
100
AcDbMlineStyle
  2
STANDARD
 70
     0
  3

 62
   256
 51
90.0
 52
90.0
 71
     2
 49
0.5
 62
   256
  6
BYLAYER
 49
-0.5
 62
   256
  6
BYLAYER
  0
ENDSEC
  0
EOF
