  0
SECTION
  2
HEADER
  9
$ACADVER
  1
AC1014
  9
$ACADMAINTVER
 70
     0
  9
$DWGCODEPAGE
  3
ANSI_1250
  9
$INSBASE
 10
0.0
 20
0.0
 30
0.0
  9
$EXTMIN
 10
0.0
 20
-367.001233
 30
0.0
  9
$EXTMAX
 10
1349.672502
 20
0.0
 30
0.0
  9
$LIMMIN
 10
-1000.0
 20
-1000.0
  9
$LIMMAX
 10
1000.0
 20
1000.0
  9
$ORTHOMODE
 70
     0
  9
$REGENMODE
 70
     1
  9
$FILLMODE
 70
     1
  9
$QTEXTMODE
 70
     0
  9
$MIRRTEXT
 70
     0
  9
$DRAGMODE
 70
     2
  9
$LTSCALE
 40
3.0
  9
$OSMODE
 70
    32
  9
$ATTMODE
 70
     1
  9
$TEXTSIZE
 40
50.0
  9
$TRACEWID
 40
0.05
  9
$TEXTSTYLE
  7
STANDARD
  9
$CLAYER
  8
KOTY-UPLNE
  9
$CELTYPE
  6
BYLAYER
  9
$CECOLOR
 62
   256
  9
$CELTSCALE
 40
1.0
  9
$DELOBJ
 70
     1
  9
$DISPSILH
 70
     0
  9
$DIMSCALE
 40
3.0
  9
$DIMASZ
 40
5.0
  9
$DIMEXO
 40
1.0
  9
$DIMDLI
 40
0.0
  9
$DIMRND
 40
1.0
  9
$DIMDLE
 40
1.0
  9
$DIMEXE
 40
2.0
  9
$DIMTP
 40
0.0
  9
$DIMTM
 40
0.0
  9
$DIMTXT
 40
6.44
  9
$DIMCEN
 40
1.0
  9
$DIMTSZ
 40
0.0
  9
$DIMTOL
 70
     0
  9
$DIMLIM
 70
     0
  9
$DIMTIH
 70
     0
  9
$DIMTOH
 70
     0
  9
$DIMSE1
 70
     0
  9
$DIMSE2
 70
     0
  9
$DIMTAD
 70
     3
  9
$DIMZIN
 70
     0
  9
$DIMBLK
  1

  9
$DIMASO
 70
     1
  9
$DIMSHO
 70
     0
  9
$DIMPOST
  1

  9
$DIMAPOST
  1

  9
$DIMALT
 70
     0
  9
$DIMALTD
 70
     2
  9
$DIMALTF
 40
25.4
  9
$DIMLFAC
 40
1.0
  9
$DIMTOFL
 70
     1
  9
$DIMTVP
 40
0.0
  9
$DIMTIX
 70
     1
  9
$DIMSOXD
 70
     0
  9
$DIMSAH
 70
     0
  9
$DIMBLK1
  1

  9
$DIMBLK2
  1

  9
$DIMSTYLE
  2
UPLNE
  9
$DIMCLRD
 70
   256
  9
$DIMCLRE
 70
   256
  9
$DIMCLRT
 70
     5
  9
$DIMTFAC
 40
1.0
  9
$DIMGAP
 40
2.0
  9
$DIMJUST
 70
     0
  9
$DIMSD1
 70
     0
  9
$DIMSD2
 70
     0
  9
$DIMTOLJ
 70
     1
  9
$DIMTZIN
 70
     0
  9
$DIMALTZ
 70
     0
  9
$DIMALTTZ
 70
     0
  9
$DIMFIT
 70
     5
  9
$DIMUPT
 70
     0
  9
$DIMUNIT
 70
     2
  9
$DIMDEC
 70
     0
  9
$DIMTDEC
 70
     0
  9
$DIMALTU
 70
     2
  9
$DIMALTTD
 70
     2
  9
$DIMTXSTY
  7
STANDARD
  9
$DIMAUNIT
 70
     0
  9
$LUNITS
 70
     2
  9
$LUPREC
 70
     2
  9
$SKETCHINC
 40
0.1
  9
$FILLETRAD
 40
5.0
  9
$AUNITS
 70
     0
  9
$AUPREC
 70
     2
  9
$MENU
  1
acad
  9
$ELEVATION
 40
0.0
  9
$PELEVATION
 40
0.0
  9
$THICKNESS
 40
0.0
  9
$LIMCHECK
 70
     0
  9
$BLIPMODE
 70
     1
  9
$CHAMFERA
 40
0.0
  9
$CHAMFERB
 40
0.0
  9
$CHAMFERC
 40
0.0
  9
$CHAMFERD
 40
0.0
  9
$SKPOLY
 70
     0
  9
$TDCREATE
 40
2448722.252204629
  9
$TDUPDATE
 40
2452465.888734490
  9
$TDINDWG
 40
2.5235892361
  9
$TDUSRTIMER
 40
2.5235892361
  9
$USRTIMER
 70
     1
  9
$ANGBASE
 50
0.0
  9
$ANGDIR
 70
     0
  9
$PDMODE
 70
     0
  9
$PDSIZE
 40
0.0
  9
$PLINEWID
 40
0.0
  9
$COORDS
 70
     2
  9
$SPLFRAME
 70
     0
  9
$SPLINETYPE
 70
     6
  9
$SPLINESEGS
 70
     8
  9
$ATTDIA
 70
     0
  9
$ATTREQ
 70
     1
  9
$HANDLING
 70
     1
  9
$HANDSEED
  5
110
  9
$SURFTAB1
 70
     6
  9
$SURFTAB2
 70
     6
  9
$SURFTYPE
 70
     6
  9
$SURFU
 70
     6
  9
$SURFV
 70
     6
  9
$UCSNAME
  2

  9
$UCSORG
 10
0.0
 20
0.0
 30
0.0
  9
$UCSXDIR
 10
1.0
 20
0.0
 30
0.0
  9
$UCSYDIR
 10
0.0
 20
1.0
 30
0.0
  9
$PUCSNAME
  2

  9
$PUCSORG
 10
0.0
 20
0.0
 30
0.0
  9
$PUCSXDIR
 10
1.0
 20
0.0
 30
0.0
  9
$PUCSYDIR
 10
0.0
 20
1.0
 30
0.0
  9
$USERI1
 70
     1
  9
$USERI2
 70
     0
  9
$USERI3
 70
     0
  9
$USERI4
 70
     0
  9
$USERI5
 70
     0
  9
$USERR1
 40
0.0
  9
$USERR2
 40
0.0
  9
$USERR3
 40
0.0
  9
$USERR4
 40
0.0
  9
$USERR5
 40
0.0
  9
$WORLDVIEW
 70
     1
  9
$SHADEDGE
 70
     3
  9
$SHADEDIF
 70
    70
  9
$TILEMODE
 70
     1
  9
$MAXACTVP
 70
    16
  9
$PINSBASE
 10
0.0
 20
0.0
 30
0.0
  9
$PLIMCHECK
 70
     0
  9
$PEXTMIN
 10
1.000000E+20
 20
1.000000E+20
 30
1.000000E+20
  9
$PEXTMAX
 10
-1.000000E+20
 20
-1.000000E+20
 30
-1.000000E+20
  9
$PLIMMIN
 10
0.0
 20
0.0
  9
$PLIMMAX
 10
12.0
 20
9.0
  9
$UNITMODE
 70
     0
  9
$VISRETAIN
 70
     0
  9
$PLINEGEN
 70
     0
  9
$PSLTSCALE
 70
     0
  9
$TREEDEPTH
 70
  3020
  9
$PICKSTYLE
 70
     0
  9
$CMLSTYLE
  2
STANDARD
  9
$CMLJUST
 70
     0
  9
$CMLSCALE
 40
1.0
  9
$PROXYGRAPHICS
 70
     1
  9
$MEASUREMENT
 70
     0
  0
ENDSEC
  0
SECTION
  2
CLASSES
  0
CLASS
  1
LWPOLYLINE
  2
AcDbPolyline
  3
"AutoCAD"
 90
        0
280
     0
281
     1
  0
CLASS
  1
DICTIONARYVAR
  2
AcDbDictionaryVar
  3
"AutoCAD"
 90
        0
280
     0
281
     0
  0
ENDSEC
  0
SECTION
  2
TABLES
  0
TABLE
  2
VPORT
  5
12
100
AcDbSymbolTable
 70
     2
  0
VPORT
  5
10F
100
AcDbSymbolTableRecord
100
AcDbViewportTableRecord
  2
*ACTIVE
 70
     0
 10
0.0
 20
0.0
 11
1.0
 21
1.0
 12
683.727625
 22
-159.505564
 13
0.0
 23
0.0
 14
1.0
 24
1.0
 15
600.0
 25
600.0
 16
0.0
 26
0.0
 36
1.0
 17
0.0
 27
0.0
 37
0.0
 40
699.911903
 41
2.224444
 42
50.0
 43
0.0
 44
0.0
 50
0.0
 51
0.0
 71
     0
 72
   100
 73
     1
 74
     0
 75
     0
 76
     0
 77
     0
 78
     0
  0
ENDTAB
  0
TABLE
  2
LTYPE
  5
D
100
AcDbSymbolTable
 70
     1
  0
LTYPE
  5
E
100
AcDbSymbolTableRecord
100
AcDbLinetypeTableRecord
  2
BYBLOCK
 70
     0
  3

 72
    65
 73
     0
 40
0.0
  0
LTYPE
  5
F
100
AcDbSymbolTableRecord
100
AcDbLinetypeTableRecord
  2
BYLAYER
 70
     0
  3

 72
    65
 73
     0
 40
0.0
  0
LTYPE
  5
5
100
AcDbSymbolTableRecord
100
AcDbLinetypeTableRecord
  2
CONTINUOUS
 70
     0
  3
Solid line
 72
    65
 73
     0
 40
0.0
  0
ENDTAB
  0
TABLE
  2
LAYER
  5
A
100
AcDbSymbolTable
 70
     7
  0
LAYER
  5
4
100
AcDbSymbolTableRecord
100
AcDbLayerTableRecord
  2
0
 70
     0
 62
     7
  6
CONTINUOUS
  0
LAYER
  5
1B
100
AcDbSymbolTableRecord
100
AcDbLayerTableRecord
  2
KOTY-UPLNE
 70
     0
 62
     7
  6
CONTINUOUS
  0
LAYER
  5
42
100
AcDbSymbolTableRecord
100
AcDbLayerTableRecord
  2
RAMEC
 70
     0
 62
     5
  6
CONTINUOUS
  0
LAYER
  5
CD
100
AcDbSymbolTableRecord
100
AcDbLayerTableRecord
  2
POZICE
 70
     0
 62
     1
  6
CONTINUOUS
  0
LAYER
  5
3F
100
AcDbSymbolTableRecord
100
AcDbLayerTableRecord
  2
POPIS
 70
     0
 62
     1
  6
CONTINUOUS
  0
LAYER
  5
27
100
AcDbSymbolTableRecord
100
AcDbLayerTableRecord
  2
DEFPOINTS
 70
     0
 62
     7
  6
CONTINUOUS
  0
LAYER
  5
3D
100
AcDbSymbolTableRecord
100
AcDbLayerTableRecord
  2
TRAPEZ-VELKY
 70
     0
 62
     7
  6
CONTINUOUS
  0
ENDTAB
  0
TABLE
  2
STYLE
  5
B
100
AcDbSymbolTable
 70
     2
  0
STYLE
  5
C
100
AcDbSymbolTableRecord
100
AcDbTextStyleTableRecord
  2
STANDARD
 70
     0
 40
0.0
 41
0.9
 50
0.0
 71
     0
 42
50.0
  3
simplex.shx
  4

  0
STYLE
  5
40
100
AcDbSymbolTableRecord
100
AcDbTextStyleTableRecord
  2
STYLE1
 70
     0
 40
0.0
 41
0.9
 50
0.0
 71
     0
 42
50.0
  3
simplex.shx
  4

  0
ENDTAB
  0
TABLE
  2
VIEW
  5
10
100
AcDbSymbolTable
 70
     0
  0
ENDTAB
  0
TABLE
  2
UCS
  5
11
100
AcDbSymbolTable
 70
     0
  0
ENDTAB
  0
TABLE
  2
APPID
  5
14
100
AcDbSymbolTable
 70
     1
  0
APPID
  5
15
100
AcDbSymbolTableRecord
100
AcDbRegAppTableRecord
  2
ACAD
 70
     0
  0
ENDTAB
  0
TABLE
  2
DIMSTYLE
  5
16
100
AcDbSymbolTable
 70
     1
  0
DIMSTYLE
105
1D
102
{ACAD_REACTORS
330
52
330
2E
330
43
330
7E
330
6F
330
BB
330
1E
330
AC
330
9D
330
8D
330
FC
330
EC
330
DC
330
CF
330
5F
102
}
100
AcDbSymbolTableRecord
100
AcDbDimStyleTableRecord
  2
UPLNE
 70
     0
  3

  4

  5

  6

  7

 40
5.0
 41
5.0
 42
1.0
 43
0.0
 44
2.0
 45
1.0
 46
1.0
 47
0.0
 48
0.0
140
6.44
141
1.0
142
0.0
143
25.4
144
1.0
145
0.0
146
1.0
147
1.0
 71
     0
 72
     0
 73
     0
 74
     0
 75
     0
 76
     0
 77
     3
 78
     0
170
     0
171
     2
172
     1
173
     0
174
     1
175
     0
176
   256
177
   256
178
     5
270
     2
271
     0
272
     0
273
     2
274
     2
340
C
275
     0
280
     0
281
     0
282
     0
283
     1
284
     0
285
     0
286
     0
287
     5
288
     0
  0
ENDTAB
  0
TABLE
  2
BLOCK_RECORD
  5
1
100
AcDbSymbolTable
 70
    15
  0
BLOCK_RECORD
  5
2
100
AcDbSymbolTableRecord
100
AcDbBlockTableRecord
  2
*MODEL_SPACE
  0
BLOCK_RECORD
  5
7
100
AcDbSymbolTableRecord
100
AcDbBlockTableRecord
  2
*PAPER_SPACE
  0
BLOCK_RECORD
  5
53
100
AcDbSymbolTableRecord
100
AcDbBlockTableRecord
  2
*D0
  0
BLOCK_RECORD
  5
2F
100
AcDbSymbolTableRecord
100
AcDbBlockTableRecord
  2
*D1
  0
BLOCK_RECORD
  5
44
100
AcDbSymbolTableRecord
100
AcDbBlockTableRecord
  2
*D2
  0
BLOCK_RECORD
  5
7F
100
AcDbSymbolTableRecord
100
AcDbBlockTableRecord
  2
*D3
  0
BLOCK_RECORD
  5
70
100
AcDbSymbolTableRecord
100
AcDbBlockTableRecord
  2
*D4
  0
BLOCK_RECORD
  5
BC
100
AcDbSymbolTableRecord
100
AcDbBlockTableRecord
  2
*D5
  0
BLOCK_RECORD
  5
1F
100
AcDbSymbolTableRecord
100
AcDbBlockTableRecord
  2
*D6
  0
BLOCK_RECORD
  5
AD
100
AcDbSymbolTableRecord
100
AcDbBlockTableRecord
  2
*D7
  0
BLOCK_RECORD
  5
9E
100
AcDbSymbolTableRecord
100
AcDbBlockTableRecord
  2
*D8
  0
BLOCK_RECORD
  5
8E
100
AcDbSymbolTableRecord
100
AcDbBlockTableRecord
  2
*D9
  0
BLOCK_RECORD
  5
FD
100
AcDbSymbolTableRecord
100
AcDbBlockTableRecord
  2
*D10
  0
BLOCK_RECORD
  5
ED
100
AcDbSymbolTableRecord
100
AcDbBlockTableRecord
  2
*D11
  0
BLOCK_RECORD
  5
DD
100
AcDbSymbolTableRecord
100
AcDbBlockTableRecord
  2
*D12
  0
BLOCK_RECORD
  5
D0
100
AcDbSymbolTableRecord
100
AcDbBlockTableRecord
  2
*D13
  0
BLOCK_RECORD
  5
60
100
AcDbSymbolTableRecord
100
AcDbBlockTableRecord
  2
*D14
  0
ENDTAB
  0
ENDSEC
  0
SECTION
  2
BLOCKS
  0
BLOCK
  5
3
100
AcDbEntity
  8
0
100
AcDbBlockBegin
  2
*MODEL_SPACE
 70
     0
 10
0.0
 20
0.0
 30
0.0
  3
*MODEL_SPACE
  1

  0
ENDBLK
  5
6
100
AcDbEntity
  8
0
100
AcDbBlockEnd
  0
BLOCK
  5
8
100
AcDbEntity
 67
     1
  8
0
100
AcDbBlockBegin
  2
*PAPER_SPACE
 70
     0
 10
0.0
 20
0.0
 30
0.0
  3
*PAPER_SPACE
  1

  0
ENDBLK
  5
9
100
AcDbEntity
 67
     1
  8
0
100
AcDbBlockEnd
  0
BLOCK
  5
5D
100
AcDbEntity
  8
0
100
AcDbBlockBegin
  2
*D0
 70
     1
 10
0.0
 20
0.0
 30
0.0
  3
*D0
  1

  0
LINE
  5
54
100
AcDbEntity
  8
0
  6
BYBLOCK
100
AcDbLine
 10
1096.182687
 20
-163.543507
 30
0.0
 11
1096.182687
 21
-226.542274
 31
0.0
  0
LINE
  5
55
100
AcDbEntity
  8
0
  6
BYBLOCK
100
AcDbLine
 10
1355.624044
 20
-163.543507
 30
0.0
 11
1355.624044
 21
-226.542274
 31
0.0
  0
LINE
  5
56
100
AcDbEntity
  8
0
  6
BYBLOCK
100
AcDbLine
 10
1111.182687
 20
-220.542274
 30
0.0
 11
1340.624044
 21
-220.542274
 31
0.0
  0
SOLID
  5
57
100
AcDbEntity
  8
0
  6
BYBLOCK
100
AcDbTrace
 10
1111.182687
 20
-218.042274
 30
0.0
 11
1111.182687
 21
-223.042274
 31
0.0
 12
1096.182687
 22
-220.542274
 32
0.0
 13
1096.182687
 23
-220.542274
 33
0.0
  0
SOLID
  5
58
100
AcDbEntity
  8
0
  6
BYBLOCK
100
AcDbTrace
 10
1340.624044
 20
-218.042274
 30
0.0
 11
1340.624044
 21
-223.042274
 31
0.0
 12
1355.624044
 22
-220.542274
 32
0.0
 13
1355.624044
 23
-220.542274
 33
0.0
  0
MTEXT
  5
59
100
AcDbEntity
  8
0
  6
BYBLOCK
 62
     5
100
AcDbMText
 10
1225.903365
 20
-203.042274
 30
0.0
 40
19.32
 41
0.0
 71
     5
 72
     1
  1
\A1;259,5
  0
POINT
  5
5A
100
AcDbEntity
  8
DEFPOINTS
  6
BYBLOCK
 62
     0
100
AcDbPoint
 10
1096.182687
 20
-160.543507
 30
0.0
  0
POINT
  5
5B
100
AcDbEntity
  8
DEFPOINTS
  6
BYBLOCK
 62
     0
100
AcDbPoint
 10
1355.624044
 20
-160.543507
 30
0.0
  0
POINT
  5
5C
100
AcDbEntity
  8
DEFPOINTS
  6
BYBLOCK
 62
     0
100
AcDbPoint
 10
1355.624044
 20
-220.542274
 30
0.0
  0
ENDBLK
  5
5E
100
AcDbEntity
  8
0
100
AcDbBlockEnd
  0
BLOCK
  5
39
100
AcDbEntity
  8
0
100
AcDbBlockBegin
  2
*D1
 70
     1
 10
0.0
 20
0.0
 30
0.0
  3
*D1
  1

  0
LINE
  5
30
100
AcDbEntity
  8
0
  6
BYBLOCK
100
AcDbLine
 10
1096.182687
 20
-178.542274
 30
0.0
 11
1096.182687
 21
-286.542274
 31
0.0
  0
LINE
  5
31
100
AcDbEntity
  8
0
  6
BYBLOCK
100
AcDbLine
 10
2133.948113
 20
-163.543507
 30
0.0
 11
2133.948113
 21
-286.542274
 31
0.0
  0
LINE
  5
32
100
AcDbEntity
  8
0
  6
BYBLOCK
100
AcDbLine
 10
1111.182687
 20
-280.542274
 30
0.0
 11
2118.948113
 21
-280.542274
 31
0.0
  0
SOLID
  5
33
100
AcDbEntity
  8
0
  6
BYBLOCK
100
AcDbTrace
 10
1111.182687
 20
-278.042274
 30
0.0
 11
1111.182687
 21
-283.042274
 31
0.0
 12
1096.182687
 22
-280.542274
 32
0.0
 13
1096.182687
 23
-280.542274
 33
0.0
  0
SOLID
  5
34
100
AcDbEntity
  8
0
  6
BYBLOCK
100
AcDbTrace
 10
2118.948113
 20
-278.042274
 30
0.0
 11
2118.948113
 21
-283.042274
 31
0.0
 12
2133.948113
 22
-280.542274
 32
0.0
 13
2133.948113
 23
-280.542274
 33
0.0
  0
MTEXT
  5
35
100
AcDbEntity
  8
0
  6
BYBLOCK
 62
     5
100
AcDbMText
 10
1615.0654
 20
-264.882274
 30
0.0
 40
19.32
 41
0.0
 71
     5
 72
     1
  1
\A1;1038
  0
POINT
  5
36
100
AcDbEntity
  8
DEFPOINTS
  6
BYBLOCK
 62
     0
100
AcDbPoint
 10
1096.182687
 20
-175.542274
 30
0.0
  0
POINT
  5
37
100
AcDbEntity
  8
DEFPOINTS
  6
BYBLOCK
 62
     0
100
AcDbPoint
 10
2133.948113
 20
-160.543507
 30
0.0
  0
POINT
  5
38
100
AcDbEntity
  8
DEFPOINTS
  6
BYBLOCK
 62
     0
100
AcDbPoint
 10
2133.948113
 20
-280.542274
 30
0.0
  0
ENDBLK
  5
3A
100
AcDbEntity
  8
0
100
AcDbBlockEnd
  0
BLOCK
  5
50
100
AcDbEntity
  8
0
100
AcDbBlockBegin
  2
*D2
 70
     1
 10
0.0
 20
0.0
 30
0.0
  3
*D2
  1

  0
LINE
  5
45
100
AcDbEntity
  8
0
  6
BYBLOCK
100
AcDbLine
 10
1116.182687
 20
-157.543507
 30
0.0
 11
1116.182687
 21
-67.730592
 31
0.0
  0
LINE
  5
46
100
AcDbEntity
  8
0
  6
BYBLOCK
100
AcDbLine
 10
1165.903365
 20
-109.543507
 30
0.0
 11
1165.903365
 21
-67.730592
 31
0.0
  0
LINE
  5
47
100
AcDbEntity
  8
0
  6
BYBLOCK
100
AcDbLine
 10
1101.182687
 20
-73.730592
 30
0.0
 11
1086.182687
 21
-73.730592
 31
0.0
  0
LINE
  5
48
100
AcDbEntity
  8
0
  6
BYBLOCK
100
AcDbLine
 10
1180.903365
 20
-73.730592
 30
0.0
 11
1195.903365
 21
-73.730592
 31
0.0
  0
LINE
  5
49
100
AcDbEntity
  8
0
  6
BYBLOCK
100
AcDbLine
 10
1116.182687
 20
-73.730592
 30
0.0
 11
1165.903365
 21
-73.730592
 31
0.0
  0
SOLID
  5
4A
100
AcDbEntity
  8
0
  6
BYBLOCK
100
AcDbTrace
 10
1101.182687
 20
-71.230592
 30
0.0
 11
1101.182687
 21
-76.230592
 31
0.0
 12
1116.182687
 22
-73.730592
 32
0.0
 13
1116.182687
 23
-73.730592
 33
0.0
  0
SOLID
  5
4B
100
AcDbEntity
  8
0
  6
BYBLOCK
100
AcDbTrace
 10
1180.903365
 20
-71.230592
 30
0.0
 11
1180.903365
 21
-76.230592
 31
0.0
 12
1165.903365
 22
-73.730592
 32
0.0
 13
1165.903365
 23
-73.730592
 33
0.0
  0
MTEXT
  5
4C
100
AcDbEntity
  8
0
  6
BYBLOCK
 62
     5
100
AcDbMText
 10
1141.043026
 20
-56.230592
 30
0.0
 40
19.32
 41
0.0
 71
     5
 72
     1
  1
\A1;49,75
  0
POINT
  5
4D
100
AcDbEntity
  8
DEFPOINTS
  6
BYBLOCK
 62
     0
100
AcDbPoint
 10
1116.182687
 20
-160.543507
 30
0.0
  0
POINT
  5
4E
100
AcDbEntity
  8
DEFPOINTS
  6
BYBLOCK
 62
     0
100
AcDbPoint
 10
1165.903365
 20
-112.543507
 30
0.0
  0
POINT
  5
4F
100
AcDbEntity
  8
DEFPOINTS
  6
BYBLOCK
 62
     0
100
AcDbPoint
 10
1165.903365
 20
-73.730592
 30
0.0
  0
ENDBLK
  5
51
100
AcDbEntity
  8
0
100
AcDbBlockEnd
  0
BLOCK
  5
89
100
AcDbEntity
  8
0
100
AcDbBlockBegin
  2
*D3
 70
     1
 10
0.0
 20
0.0
 30
0.0
  3
*D3
  1

  0
LINE
  5
80
100
AcDbEntity
  8
0
  6
BYBLOCK
100
AcDbLine
 10
1165.903365
 20
-109.543507
 30
0.0
 11
1165.903365
 21
-67.730592
 31
0.0
  0
LINE
  5
81
100
AcDbEntity
  8
0
  6
BYBLOCK
100
AcDbLine
 10
1285.903365
 20
-109.543507
 30
0.0
 11
1285.903365
 21
-67.730592
 31
0.0
  0
LINE
  5
82
100
AcDbEntity
  8
0
  6
BYBLOCK
100
AcDbLine
 10
1180.903365
 20
-73.730592
 30
0.0
 11
1270.903365
 21
-73.730592
 31
0.0
  0
SOLID
  5
83
100
AcDbEntity
  8
0
  6
BYBLOCK
100
AcDbTrace
 10
1180.903365
 20
-71.230592
 30
0.0
 11
1180.903365
 21
-76.230592
 31
0.0
 12
1165.903365
 22
-73.730592
 32
0.0
 13
1165.903365
 23
-73.730592
 33
0.0
  0
SOLID
  5
84
100
AcDbEntity
  8
0
  6
BYBLOCK
100
AcDbTrace
 10
1270.903365
 20
-71.230592
 30
0.0
 11
1270.903365
 21
-76.230592
 31
0.0
 12
1285.903365
 22
-73.730592
 32
0.0
 13
1285.903365
 23
-73.730592
 33
0.0
  0
MTEXT
  5
85
100
AcDbEntity
  8
0
  6
BYBLOCK
 62
     5
100
AcDbMText
 10
1225.903365
 20
-58.070592
 30
0.0
 40
19.32
 41
0.0
 71
     5
 72
     1
  1
\A1;120
  0
POINT
  5
86
100
AcDbEntity
  8
DEFPOINTS
  6
BYBLOCK
 62
     0
100
AcDbPoint
 10
1165.903365
 20
-112.543507
 30
0.0
  0
POINT
  5
87
100
AcDbEntity
  8
DEFPOINTS
  6
BYBLOCK
 62
     0
100
AcDbPoint
 10
1285.903365
 20
-112.543507
 30
0.0
  0
POINT
  5
88
100
AcDbEntity
  8
DEFPOINTS
  6
BYBLOCK
 62
     0
100
AcDbPoint
 10
1285.903365
 20
-73.730592
 30
0.0
  0
ENDBLK
  5
8A
100
AcDbEntity
  8
0
100
AcDbBlockEnd
  0
BLOCK
  5
7C
100
AcDbEntity
  8
0
100
AcDbBlockBegin
  2
*D4
 70
     1
 10
0.0
 20
0.0
 30
0.0
  3
*D4
  1

  0
LINE
  5
71
100
AcDbEntity
  8
0
  6
BYBLOCK
100
AcDbLine
 10
1285.903365
 20
-109.543507
 30
0.0
 11
1285.903365
 21
-67.730592
 31
0.0
  0
LINE
  5
72
100
AcDbEntity
  8
0
  6
BYBLOCK
100
AcDbLine
 10
1335.624044
 20
-157.543507
 30
0.0
 11
1335.624044
 21
-67.730592
 31
0.0
  0
LINE
  5
73
100
AcDbEntity
  8
0
  6
BYBLOCK
100
AcDbLine
 10
1270.903365
 20
-73.730592
 30
0.0
 11
1255.903365
 21
-73.730592
 31
0.0
  0
LINE
  5
74
100
AcDbEntity
  8
0
  6
BYBLOCK
100
AcDbLine
 10
1350.624044
 20
-73.730592
 30
0.0
 11
1365.624044
 21
-73.730592
 31
0.0
  0
LINE
  5
75
100
AcDbEntity
  8
0
  6
BYBLOCK
100
AcDbLine
 10
1285.903365
 20
-73.730592
 30
0.0
 11
1335.624044
 21
-73.730592
 31
0.0
  0
SOLID
  5
76
100
AcDbEntity
  8
0
  6
BYBLOCK
100
AcDbTrace
 10
1270.903365
 20
-71.230592
 30
0.0
 11
1270.903365
 21
-76.230592
 31
0.0
 12
1285.903365
 22
-73.730592
 32
0.0
 13
1285.903365
 23
-73.730592
 33
0.0
  0
SOLID
  5
77
100
AcDbEntity
  8
0
  6
BYBLOCK
100
AcDbTrace
 10
1350.624044
 20
-71.230592
 30
0.0
 11
1350.624044
 21
-76.230592
 31
0.0
 12
1335.624044
 22
-73.730592
 32
0.0
 13
1335.624044
 23
-73.730592
 33
0.0
  0
MTEXT
  5
78
100
AcDbEntity
  8
0
  6
BYBLOCK
 62
     5
100
AcDbMText
 10
1310.763705
 20
-56.230592
 30
0.0
 40
19.32
 41
0.0
 71
     5
 72
     1
  1
\A1;49,75
  0
POINT
  5
79
100
AcDbEntity
  8
DEFPOINTS
  6
BYBLOCK
 62
     0
100
AcDbPoint
 10
1285.903365
 20
-112.543507
 30
0.0
  0
POINT
  5
7A
100
AcDbEntity
  8
DEFPOINTS
  6
BYBLOCK
 62
     0
100
AcDbPoint
 10
1335.624044
 20
-160.543507
 30
0.0
  0
POINT
  5
7B
100
AcDbEntity
  8
DEFPOINTS
  6
BYBLOCK
 62
     0
100
AcDbPoint
 10
1335.624044
 20
-73.730592
 30
0.0
  0
ENDBLK
  5
7D
100
AcDbEntity
  8
0
100
AcDbBlockEnd
  0
BLOCK
  5
C8
100
AcDbEntity
  8
0
100
AcDbBlockBegin
  2
*D5
 70
     1
 10
0.0
 20
0.0
 30
0.0
  3
*D5
  1

  0
LINE
  5
BD
100
AcDbEntity
  8
0
  6
BYBLOCK
100
AcDbLine
 10
1595.0654
 20
-163.543507
 30
0.0
 11
1595.0654
 21
-226.542274
 31
0.0
  0
LINE
  5
BE
100
AcDbEntity
  8
0
  6
BYBLOCK
100
AcDbLine
 10
1635.0654
 20
-163.543507
 30
0.0
 11
1635.0654
 21
-226.542274
 31
0.0
  0
LINE
  5
BF
100
AcDbEntity
  8
0
  6
BYBLOCK
100
AcDbLine
 10
1580.0654
 20
-220.542274
 30
0.0
 11
1565.0654
 21
-220.542274
 31
0.0
  0
LINE
  5
C0
100
AcDbEntity
  8
0
  6
BYBLOCK
100
AcDbLine
 10
1650.0654
 20
-220.542274
 30
0.0
 11
1665.0654
 21
-220.542274
 31
0.0
  0
LINE
  5
C1
100
AcDbEntity
  8
0
  6
BYBLOCK
100
AcDbLine
 10
1595.0654
 20
-220.542274
 30
0.0
 11
1635.0654
 21
-220.542274
 31
0.0
  0
SOLID
  5
C2
100
AcDbEntity
  8
0
  6
BYBLOCK
100
AcDbTrace
 10
1580.0654
 20
-218.042274
 30
0.0
 11
1580.0654
 21
-223.042274
 31
0.0
 12
1595.0654
 22
-220.542274
 32
0.0
 13
1595.0654
 23
-220.542274
 33
0.0
  0
SOLID
  5
C3
100
AcDbEntity
  8
0
  6
BYBLOCK
100
AcDbTrace
 10
1650.0654
 20
-218.042274
 30
0.0
 11
1650.0654
 21
-223.042274
 31
0.0
 12
1635.0654
 22
-220.542274
 32
0.0
 13
1635.0654
 23
-220.542274
 33
0.0
  0
MTEXT
  5
C4
100
AcDbEntity
  8
0
  6
BYBLOCK
 62
     5
100
AcDbMText
 10
1615.0654
 20
-204.882274
 30
0.0
 40
19.32
 41
0.0
 71
     5
 72
     1
  1
\A1;40
  0
POINT
  5
C5
100
AcDbEntity
  8
DEFPOINTS
  6
BYBLOCK
 62
     0
100
AcDbPoint
 10
1595.0654
 20
-160.543507
 30
0.0
  0
POINT
  5
C6
100
AcDbEntity
  8
DEFPOINTS
  6
BYBLOCK
 62
     0
100
AcDbPoint
 10
1635.0654
 20
-160.543507
 30
0.0
  0
POINT
  5
C7
100
AcDbEntity
  8
DEFPOINTS
  6
BYBLOCK
 62
     0
100
AcDbPoint
 10
1635.0654
 20
-220.542274
 30
0.0
  0
ENDBLK
  5
C9
100
AcDbEntity
  8
0
100
AcDbBlockEnd
  0
BLOCK
  5
2C
100
AcDbEntity
  8
0
100
AcDbBlockBegin
  2
*D6
 70
     1
 10
0.0
 20
0.0
 30
0.0
  3
*D6
  1

  0
LINE
  5
20
100
AcDbEntity
  8
0
  6
BYBLOCK
100
AcDbLine
 10
1548.344722
 20
-112.543507
 30
0.0
 11
1582.157724
 21
-112.543507
 31
0.0
  0
LINE
  5
21
100
AcDbEntity
  8
0
  6
BYBLOCK
100
AcDbLine
 10
1498.249978
 20
-111.043507
 30
0.0
 11
1570.568141
 21
-69.290596
 31
0.0
  0
ARC
  5
22
100
AcDbEntity
  8
0
  6
BYBLOCK
100
AcDbCircle
 10
1495.651901
 20
-112.543507
 30
0.0
 40
80.505822
100
AcDbArc
 50
10.690963
 51
19.309037
  0
SOLID
  5
23
100
AcDbEntity
  8
0
  6
BYBLOCK
100
AcDbTrace
 10
1577.249437
 20
-97.375838
 30
0.0
 11
1572.271181
 21
-97.841643
 31
0.0
 12
1576.157724
 22
-112.543507
 32
0.0
 13
1576.157724
 23
-112.543507
 33
0.0
  0
SOLID
  5
24
100
AcDbEntity
  8
0
  6
BYBLOCK
100
AcDbTrace
 10
1569.357076
 20
-86.966054
 30
0.0
 11
1573.901274
 21
-84.880325
 31
0.0
 12
1565.371989
 22
-72.290596
 32
0.0
 13
1565.371989
 23
-72.290596
 33
0.0
  0
MTEXT
  5
25
100
AcDbEntity
  8
0
  6
BYBLOCK
 62
     5
100
AcDbMText
 10
1588.540953
 20
-87.65396
 30
0.0
 40
19.32
 41
0.0
 71
     5
 72
     1
  1
\A1;30°
 11
0.258819
 21
-0.965926
 31
0.0
  0
POINT
  5
26
100
AcDbEntity
  8
DEFPOINTS
  6
BYBLOCK
 62
     0
100
AcDbPoint
 10
1574.934659
 20
-98.563817
 30
0.0
  0
POINT
  5
28
100
AcDbEntity
  8
DEFPOINTS
  6
BYBLOCK
 62
     0
100
AcDbPoint
 10
1488.094722
 20
-116.906646
 30
0.0
  0
POINT
  5
29
100
AcDbEntity
  8
DEFPOINTS
  6
BYBLOCK
 62
     0
100
AcDbPoint
 10
1495.651901
 20
-112.543507
 30
0.0
  0
POINT
  5
2A
100
AcDbEntity
  8
DEFPOINTS
  6
BYBLOCK
 62
     0
100
AcDbPoint
 10
1545.344722
 20
-112.543507
 30
0.0
  0
POINT
  5
2B
100
AcDbEntity
  8
DEFPOINTS
  6
BYBLOCK
 62
     0
100
AcDbPoint
 10
1495.651901
 20
-112.543507
 30
0.0
  0
ENDBLK
  5
2D
100
AcDbEntity
  8
0
100
AcDbBlockEnd
  0
BLOCK
  5
B9
100
AcDbEntity
  8
0
100
AcDbBlockBegin
  2
*D7
 70
     1
 10
0.0
 20
0.0
 30
0.0
  3
*D7
  1

  0
LINE
  5
AE
100
AcDbEntity
  8
0
  6
BYBLOCK
100
AcDbLine
 10
1638.0654
 20
-160.543507
 30
0.0
 11
1784.526191
 21
-160.543507
 31
0.0
  0
LINE
  5
AF
100
AcDbEntity
  8
0
  6
BYBLOCK
100
AcDbLine
 10
1648.90446
 20
-145.323909
 30
0.0
 11
1735.615789
 21
-49.962553
 31
0.0
  0
ARC
  5
B0
100
AcDbEntity
  8
0
  6
BYBLOCK
100
AcDbCircle
 10
1635.0654
 20
-160.543507
 30
0.0
 40
143.460791
100
AcDbArc
 50
5.993475
 51
41.726525
  0
SOLID
  5
B1
100
AcDbEntity
  8
0
  6
BYBLOCK
100
AcDbTrace
 10
1780.238586
 20
-145.433321
 30
0.0
 11
1775.245423
 21
-145.694717
 31
0.0
 12
1778.526191
 22
-160.543507
 32
0.0
 13
1778.526191
 23
-160.543507
 33
0.0
  0
SOLID
  5
B2
100
AcDbEntity
  8
0
  6
BYBLOCK
100
AcDbTrace
 10
1740.358227
 20
-66.818664
 30
0.0
 11
1743.910796
 21
-63.300248
 31
0.0
 12
1731.579263
 22
-54.401749
 32
0.0
 13
1731.579263
 23
-54.401749
 33
0.0
  0
MTEXT
  5
B3
100
AcDbEntity
  8
0
  6
BYBLOCK
 62
     5
100
AcDbMText
 10
1774.753786
 20
-71.092966
 30
0.0
 40
19.32
 41
0.0
 71
     5
 72
     1
  1
\A1;47,72°
 11
0.539267
 21
-0.842135
 31
0.0
  0
POINT
  5
B4
100
AcDbEntity
  8
DEFPOINTS
  6
BYBLOCK
 62
     0
100
AcDbPoint
 10
1773.032995
 20
-121.225047
 30
0.0
  0
POINT
  5
B5
100
AcDbEntity
  8
DEFPOINTS
  6
BYBLOCK
 62
     0
100
AcDbPoint
 10
1635.0654
 20
-160.543507
 30
0.0
  0
POINT
  5
B6
100
AcDbEntity
  8
DEFPOINTS
  6
BYBLOCK
 62
     0
100
AcDbPoint
 10
1615.0654
 20
-160.543507
 30
0.0
  0
POINT
  5
B7
100
AcDbEntity
  8
DEFPOINTS
  6
BYBLOCK
 62
     0
100
AcDbPoint
 10
1635.0654
 20
-160.543507
 30
0.0
  0
POINT
  5
B8
100
AcDbEntity
  8
DEFPOINTS
  6
BYBLOCK
 62
     0
100
AcDbPoint
 10
1646.886197
 20
-147.543507
 30
0.0
  0
ENDBLK
  5
BA
100
AcDbEntity
  8
0
100
AcDbBlockEnd
  0
BLOCK
  5
AA
100
AcDbEntity
  8
0
100
AcDbBlockBegin
  2
*D8
 70
     1
 10
0.0
 20
0.0
 30
0.0
  3
*D8
  1

  0
LINE
  5
9F
100
AcDbEntity
  8
0
  6
BYBLOCK
100
AcDbLine
 10
1908.345817
 20
-145.323909
 30
0.0
 11
1985.103393
 21
-60.909257
 31
0.0
  0
LINE
  5
A0
100
AcDbEntity
  8
0
  6
BYBLOCK
100
AcDbLine
 10
1911.671094
 20
-148.347557
 30
0.0
 11
1988.428671
 21
-63.932905
 31
0.0
  0
LINE
  5
A1
100
AcDbEntity
  8
0
  6
BYBLOCK
100
AcDbLine
 10
1969.968878
 20
-55.257138
 30
0.0
 11
1958.870888
 21
-45.165824
 31
0.0
  0
LINE
  5
A2
100
AcDbEntity
  8
0
  6
BYBLOCK
100
AcDbLine
 10
1995.490134
 20
-78.463416
 30
0.0
 11
2006.588124
 21
-88.55473
 31
0.0
  0
LINE
  5
A3
100
AcDbEntity
  8
0
  6
BYBLOCK
100
AcDbLine
 10
1981.066867
 20
-65.348453
 30
0.0
 11
1984.392145
 21
-68.372101
 31
0.0
  0
SOLID
  5
A4
100
AcDbEntity
  8
0
  6
BYBLOCK
100
AcDbTrace
 10
1971.650764
 20
-53.407473
 30
0.0
 11
1968.286992
 21
-57.106803
 31
0.0
 12
1981.066867
 22
-65.348453
 32
0.0
 13
1981.066867
 23
-65.348453
 33
0.0
  0
SOLID
  5
A5
100
AcDbEntity
  8
0
  6
BYBLOCK
100
AcDbTrace
 10
1997.17202
 20
-76.613751
 30
0.0
 11
1993.808249
 21
-80.313081
 31
0.0
 12
1984.392145
 22
-68.372101
 32
0.0
 13
1984.392145
 23
-68.372101
 33
0.0
  0
MTEXT
  5
A6
100
AcDbEntity
  8
0
  6
BYBLOCK
 62
     5
100
AcDbMText
 10
1994.502706
 20
-53.912622
 30
0.0
 40
19.32
 41
0.0
 71
     5
 72
     1
  1
\A1;4,5
 11
0.739866
 21
-0.672754
 31
0.0
  0
POINT
  5
A7
100
AcDbEntity
  8
DEFPOINTS
  6
BYBLOCK
 62
     0
100
AcDbPoint
 10
1906.327554
 20
-147.543507
 30
0.0
  0
POINT
  5
A8
100
AcDbEntity
  8
DEFPOINTS
  6
BYBLOCK
 62
     0
100
AcDbPoint
 10
1909.652831
 20
-150.567155
 30
0.0
  0
POINT
  5
A9
100
AcDbEntity
  8
DEFPOINTS
  6
BYBLOCK
 62
     0
100
AcDbPoint
 10
1984.392145
 20
-68.372101
 30
0.0
  0
ENDBLK
  5
AB
100
AcDbEntity
  8
0
100
AcDbBlockEnd
  0
BLOCK
  5
9A
100
AcDbEntity
  8
0
100
AcDbBlockBegin
  2
*D9
 70
     1
 10
0.0
 20
0.0
 30
0.0
  3
*D9
  1

  0
LINE
  5
8F
100
AcDbEntity
  8
0
  6
BYBLOCK
100
AcDbLine
 10
2010.947427
 20
-147.543507
 30
0.0
 11
2045.183628
 21
-147.543507
 31
0.0
  0
LINE
  5
90
100
AcDbEntity
  8
0
  6
BYBLOCK
100
AcDbLine
 10
1918.509005
 20
-142.818633
 30
0.0
 11
2035.786376
 21
-97.329739
 31
0.0
  0
ARC
  5
91
100
AcDbEntity
  8
0
  6
BYBLOCK
100
AcDbCircle
 10
1906.327554
 20
-147.543507
 30
0.0
 40
132.856074
100
AcDbArc
 50
6.472371
 51
14.727629
  0
SOLID
  5
92
100
AcDbEntity
  8
0
  6
BYBLOCK
100
AcDbTrace
 10
2040.83286
 20
-132.426297
 30
0.0
 11
2035.840833
 21
-132.708557
 31
0.0
 12
2039.183628
 22
-147.543507
 32
0.0
 13
2039.183628
 23
-147.543507
 33
0.0
  0
SOLID
  5
93
100
AcDbEntity
  8
0
  6
BYBLOCK
100
AcDbTrace
 10
2032.440549
 20
-114.539299
 30
0.0
 11
2037.196807
 21
-112.997218
 31
0.0
 12
2030.192434
 22
-99.499486
 32
0.0
 13
2030.192434
 23
-99.499486
 33
0.0
  0
MTEXT
  5
94
100
AcDbEntity
  8
0
  6
BYBLOCK
 62
     5
100
AcDbMText
 10
2046.355004
 20
-81.779527
 30
0.0
 40
19.32
 41
0.0
 71
     5
 72
     1
  1
\A1;21,2°
 11
0.425102
 21
-0.905145
 31
0.0
  0
POINT
  5
95
100
AcDbEntity
  8
DEFPOINTS
  6
BYBLOCK
 62
     0
100
AcDbPoint
 10
2038.17441
 20
-131.199002
 30
0.0
  0
POINT
  5
96
100
AcDbEntity
  8
DEFPOINTS
  6
BYBLOCK
 62
     0
100
AcDbPoint
 10
1906.327554
 20
-147.543507
 30
0.0
  0
POINT
  5
97
100
AcDbEntity
  8
DEFPOINTS
  6
BYBLOCK
 62
     0
100
AcDbPoint
 10
1906.327554
 20
-147.543507
 30
0.0
  0
POINT
  5
98
100
AcDbEntity
  8
DEFPOINTS
  6
BYBLOCK
 62
     0
100
AcDbPoint
 10
1915.712034
 20
-143.903507
 30
0.0
  0
POINT
  5
99
100
AcDbEntity
  8
DEFPOINTS
  6
BYBLOCK
 62
     0
100
AcDbPoint
 10
2007.947427
 20
-147.543507
 30
0.0
  0
ENDBLK
  5
9B
100
AcDbEntity
  8
0
100
AcDbBlockEnd
  0
BLOCK
  5
10A
100
AcDbEntity
  8
0
100
AcDbBlockBegin
  2
*D10
 70
     1
 10
0.0
 20
0.0
 30
0.0
  3
*D10
  1

  0
LINE
  5
FE
100
AcDbEntity
  8
0
  6
BYBLOCK
100
AcDbLine
 10
2067.227434
 20
-112.543507
 30
0.0
 11
2202.133024
 21
-112.543507
 31
0.0
  0
LINE
  5
FF
100
AcDbEntity
  8
0
  6
BYBLOCK
100
AcDbLine
 10
2095.742835
 20
-143.903507
 30
0.0
 11
2202.133024
 21
-143.903507
 31
0.0
  0
LINE
  5
100
100
AcDbEntity
  8
0
  6
BYBLOCK
100
AcDbLine
 10
2196.133024
 20
-97.543507
 30
0.0
 11
2196.133024
 21
-82.543507
 31
0.0
  0
LINE
  5
101
100
AcDbEntity
  8
0
  6
BYBLOCK
100
AcDbLine
 10
2196.133024
 20
-158.903507
 30
0.0
 11
2196.133024
 21
-173.903507
 31
0.0
  0
MTEXT
  5
102
100
AcDbEntity
  8
0
  6
BYBLOCK
 62
     5
100
AcDbMText
 10
2180.383024
 20
-95.850159
 30
0.0
 40
19.32
 41
0.0
 71
     5
 72
     1
  1
\A1;31
 11
0.0
 21
1.0
 31
0.0
  0
LINE
  5
103
100
AcDbEntity
  8
0
  6
BYBLOCK
100
AcDbLine
 10
2196.133024
 20
-112.543507
 30
0.0
 11
2196.133024
 21
-143.903507
 31
0.0
  0
LINE
  5
104
100
AcDbEntity
  8
0
  6
BYBLOCK
100
AcDbLine
 10
2196.133024
 20
-112.543507
 30
0.0
 11
2196.133024
 21
-143.903507
 31
0.0
  0
SOLID
  5
105
100
AcDbEntity
  8
0
  6
BYBLOCK
100
AcDbTrace
 10
2193.633024
 20
-97.543507
 30
0.0
 11
2198.633024
 21
-97.543507
 31
0.0
 12
2196.133024
 22
-112.543507
 32
0.0
 13
2196.133024
 23
-112.543507
 33
0.0
  0
SOLID
  5
106
100
AcDbEntity
  8
0
  6
BYBLOCK
100
AcDbTrace
 10
2193.633024
 20
-158.903507
 30
0.0
 11
2198.633024
 21
-158.903507
 31
0.0
 12
2196.133024
 22
-143.903507
 32
0.0
 13
2196.133024
 23
-143.903507
 33
0.0
  0
POINT
  5
107
100
AcDbEntity
  8
DEFPOINTS
  6
BYBLOCK
 62
     0
100
AcDbPoint
 10
2064.227434
 20
-112.543507
 30
0.0
  0
POINT
  5
108
100
AcDbEntity
  8
DEFPOINTS
  6
BYBLOCK
 62
     0
100
AcDbPoint
 10
2092.742835
 20
-143.903507
 30
0.0
  0
POINT
  5
109
100
AcDbEntity
  8
DEFPOINTS
  6
BYBLOCK
 62
     0
100
AcDbPoint
 10
2196.133024
 20
-143.903507
 30
0.0
  0
ENDBLK
  5
10B
100
AcDbEntity
  8
0
100
AcDbBlockEnd
  0
BLOCK
  5
FA
100
AcDbEntity
  8
0
100
AcDbBlockBegin
  2
*D11
 70
     1
 10
0.0
 20
0.0
 30
0.0
  3
*D11
  1

  0
LINE
  5
EE
100
AcDbEntity
  8
0
  6
BYBLOCK
100
AcDbLine
 10
2095.742835
 20
-143.903507
 30
0.0
 11
2202.133024
 21
-143.903507
 31
0.0
  0
LINE
  5
EF
100
AcDbEntity
  8
0
  6
BYBLOCK
100
AcDbLine
 10
2105.127315
 20
-147.543507
 30
0.0
 11
2202.133024
 21
-147.543507
 31
0.0
  0
LINE
  5
F0
100
AcDbEntity
  8
0
  6
BYBLOCK
100
AcDbLine
 10
2196.133024
 20
-128.903507
 30
0.0
 11
2196.133024
 21
-113.903507
 31
0.0
  0
LINE
  5
F1
100
AcDbEntity
  8
0
  6
BYBLOCK
100
AcDbLine
 10
2196.133024
 20
-162.543507
 30
0.0
 11
2196.133024
 21
-177.543507
 31
0.0
  0
MTEXT
  5
F2
100
AcDbEntity
  8
0
  6
BYBLOCK
 62
     5
100
AcDbMText
 10
2180.383024
 20
-133.61868
 30
0.0
 40
19.32
 41
0.0
 71
     5
 72
     1
  1
\A1;4
 11
0.0
 21
1.0
 31
0.0
  0
LINE
  5
F3
100
AcDbEntity
  8
0
  6
BYBLOCK
100
AcDbLine
 10
2196.133024
 20
-143.903507
 30
0.0
 11
2196.133024
 21
-147.543507
 31
0.0
  0
LINE
  5
F4
100
AcDbEntity
  8
0
  6
BYBLOCK
100
AcDbLine
 10
2196.133024
 20
-143.903507
 30
0.0
 11
2196.133024
 21
-147.543507
 31
0.0
  0
SOLID
  5
F5
100
AcDbEntity
  8
0
  6
BYBLOCK
100
AcDbTrace
 10
2193.633024
 20
-128.903507
 30
0.0
 11
2198.633024
 21
-128.903507
 31
0.0
 12
2196.133024
 22
-143.903507
 32
0.0
 13
2196.133024
 23
-143.903507
 33
0.0
  0
SOLID
  5
F6
100
AcDbEntity
  8
0
  6
BYBLOCK
100
AcDbTrace
 10
2193.633024
 20
-162.543507
 30
0.0
 11
2198.633024
 21
-162.543507
 31
0.0
 12
2196.133024
 22
-147.543507
 32
0.0
 13
2196.133024
 23
-147.543507
 33
0.0
  0
POINT
  5
F7
100
AcDbEntity
  8
DEFPOINTS
  6
BYBLOCK
 62
     0
100
AcDbPoint
 10
2092.742835
 20
-143.903507
 30
0.0
  0
POINT
  5
F8
100
AcDbEntity
  8
DEFPOINTS
  6
BYBLOCK
 62
     0
100
AcDbPoint
 10
2102.127315
 20
-147.543507
 30
0.0
  0
POINT
  5
F9
100
AcDbEntity
  8
DEFPOINTS
  6
BYBLOCK
 62
     0
100
AcDbPoint
 10
2196.133024
 20
-147.543507
 30
0.0
  0
ENDBLK
  5
FB
100
AcDbEntity
  8
0
100
AcDbBlockEnd
  0
BLOCK
  5
EA
100
AcDbEntity
  8
0
100
AcDbBlockBegin
  2
*D12
 70
     1
 10
0.0
 20
0.0
 30
0.0
  3
*D12
  1

  0
LINE
  5
DE
100
AcDbEntity
  8
0
  6
BYBLOCK
100
AcDbLine
 10
2105.127315
 20
-147.543507
 30
0.0
 11
2202.133024
 21
-147.543507
 31
0.0
  0
LINE
  5
DF
100
AcDbEntity
  8
0
  6
BYBLOCK
100
AcDbLine
 10
2116.948113
 20
-160.543507
 30
0.0
 11
2202.133024
 21
-160.543507
 31
0.0
  0
LINE
  5
E0
100
AcDbEntity
  8
0
  6
BYBLOCK
100
AcDbLine
 10
2196.133024
 20
-132.543507
 30
0.0
 11
2196.133024
 21
-117.543507
 31
0.0
  0
LINE
  5
E1
100
AcDbEntity
  8
0
  6
BYBLOCK
100
AcDbLine
 10
2196.133024
 20
-175.543507
 30
0.0
 11
2196.133024
 21
-190.543507
 31
0.0
  0
MTEXT
  5
E2
100
AcDbEntity
  8
0
  6
BYBLOCK
 62
     5
100
AcDbMText
 10
2180.383024
 20
-183.236154
 30
0.0
 40
19.32
 41
0.0
 71
     5
 72
     1
  1
\A1;13
 11
0.0
 21
1.0
 31
0.0
  0
LINE
  5
E3
100
AcDbEntity
  8
0
  6
BYBLOCK
100
AcDbLine
 10
2196.133024
 20
-147.543507
 30
0.0
 11
2196.133024
 21
-160.543507
 31
0.0
  0
LINE
  5
E4
100
AcDbEntity
  8
0
  6
BYBLOCK
100
AcDbLine
 10
2196.133024
 20
-147.543507
 30
0.0
 11
2196.133024
 21
-160.543507
 31
0.0
  0
SOLID
  5
E5
100
AcDbEntity
  8
0
  6
BYBLOCK
100
AcDbTrace
 10
2193.633024
 20
-132.543507
 30
0.0
 11
2198.633024
 21
-132.543507
 31
0.0
 12
2196.133024
 22
-147.543507
 32
0.0
 13
2196.133024
 23
-147.543507
 33
0.0
  0
SOLID
  5
E6
100
AcDbEntity
  8
0
  6
BYBLOCK
100
AcDbTrace
 10
2193.633024
 20
-175.543507
 30
0.0
 11
2198.633024
 21
-175.543507
 31
0.0
 12
2196.133024
 22
-160.543507
 32
0.0
 13
2196.133024
 23
-160.543507
 33
0.0
  0
POINT
  5
E7
100
AcDbEntity
  8
DEFPOINTS
  6
BYBLOCK
 62
     0
100
AcDbPoint
 10
2102.127315
 20
-147.543507
 30
0.0
  0
POINT
  5
E8
100
AcDbEntity
  8
DEFPOINTS
  6
BYBLOCK
 62
     0
100
AcDbPoint
 10
2113.948113
 20
-160.543507
 30
0.0
  0
POINT
  5
E9
100
AcDbEntity
  8
DEFPOINTS
  6
BYBLOCK
 62
     0
100
AcDbPoint
 10
2196.133024
 20
-160.543507
 30
0.0
  0
ENDBLK
  5
EB
100
AcDbEntity
  8
0
100
AcDbBlockEnd
  0
BLOCK
  5
DA
100
AcDbEntity
  8
0
100
AcDbBlockBegin
  2
*D13
 70
     1
 10
0.0
 20
0.0
 30
0.0
  3
*D13
  1

  0
LINE
  5
D1
100
AcDbEntity
  8
0
  6
BYBLOCK
100
AcDbLine
 10
2078.349588
 20
-112.543507
 30
0.0
 11
2243.986826
 21
-112.543507
 31
0.0
  0
LINE
  5
D2
100
AcDbEntity
  8
0
  6
BYBLOCK
100
AcDbLine
 10
2168.070266
 20
-160.543507
 30
0.0
 11
2243.986826
 21
-160.543507
 31
0.0
  0
LINE
  5
D3
100
AcDbEntity
  8
0
  6
BYBLOCK
100
AcDbLine
 10
2237.986826
 20
-127.543507
 30
0.0
 11
2237.986826
 21
-145.543507
 31
0.0
  0
SOLID
  5
D4
100
AcDbEntity
  8
0
  6
BYBLOCK
100
AcDbTrace
 10
2235.486826
 20
-127.543507
 30
0.0
 11
2240.486826
 21
-127.543507
 31
0.0
 12
2237.986826
 22
-112.543507
 32
0.0
 13
2237.986826
 23
-112.543507
 33
0.0
  0
SOLID
  5
D5
100
AcDbEntity
  8
0
  6
BYBLOCK
100
AcDbTrace
 10
2235.486826
 20
-145.543507
 30
0.0
 11
2240.486826
 21
-145.543507
 31
0.0
 12
2237.986826
 22
-160.543507
 32
0.0
 13
2237.986826
 23
-160.543507
 33
0.0
  0
MTEXT
  5
D6
100
AcDbEntity
  8
0
  6
BYBLOCK
 62
     5
100
AcDbMText
 10
2222.326826
 20
-136.543507
 30
0.0
 40
19.32
 41
0.0
 71
     5
 72
     1
  1
\A1;48
 11
0.0
 21
1.0
 31
0.0
  0
POINT
  5
D7
100
AcDbEntity
  8
DEFPOINTS
  6
BYBLOCK
 62
     0
100
AcDbPoint
 10
2075.349588
 20
-112.543507
 30
0.0
  0
POINT
  5
D8
100
AcDbEntity
  8
DEFPOINTS
  6
BYBLOCK
 62
     0
100
AcDbPoint
 10
2165.070266
 20
-160.543507
 30
0.0
  0
POINT
  5
D9
100
AcDbEntity
  8
DEFPOINTS
  6
BYBLOCK
 62
     0
100
AcDbPoint
 10
2237.986826
 20
-160.543507
 30
0.0
  0
ENDBLK
  5
DB
100
AcDbEntity
  8
0
100
AcDbBlockEnd
  0
BLOCK
  5
6D
100
AcDbEntity
  8
0
100
AcDbBlockBegin
  2
*D14
 70
     1
 10
0.0
 20
0.0
 30
0.0
  3
*D14
  1

  0
LINE
  5
61
100
AcDbEntity
  8
0
  6
BYBLOCK
100
AcDbLine
 10
1228.903365
 20
-117.643507
 30
0.0
 11
1375.84316
 21
-117.643507
 31
0.0
  0
LINE
  5
62
100
AcDbEntity
  8
0
  6
BYBLOCK
100
AcDbLine
 10
1288.903365
 20
-112.543507
 30
0.0
 11
1375.84316
 21
-112.543507
 31
0.0
  0
LINE
  5
63
100
AcDbEntity
  8
0
  6
BYBLOCK
100
AcDbLine
 10
1369.84316
 20
-132.643507
 30
0.0
 11
1369.84316
 21
-147.643507
 31
0.0
  0
LINE
  5
64
100
AcDbEntity
  8
0
  6
BYBLOCK
100
AcDbLine
 10
1369.84316
 20
-97.543507
 30
0.0
 11
1369.84316
 21
-82.543507
 31
0.0
  0
MTEXT
  5
65
100
AcDbEntity
  8
0
  6
BYBLOCK
 62
     5
100
AcDbMText
 10
1352.329262
 20
-94.874374
 30
0.0
 40
19.32
 41
0.0
 71
     5
 72
     1
  1
\A1;5,1
 11
0.0
 21
1.0
 31
0.0
  0
LINE
  5
66
100
AcDbEntity
  8
0
  6
BYBLOCK
100
AcDbLine
 10
1369.84316
 20
-117.643507
 30
0.0
 11
1369.84316
 21
-112.543507
 31
0.0
  0
LINE
  5
67
100
AcDbEntity
  8
0
  6
BYBLOCK
100
AcDbLine
 10
1369.84316
 20
-117.643507
 30
0.0
 11
1369.84316
 21
-112.543507
 31
0.0
  0
SOLID
  5
68
100
AcDbEntity
  8
0
  6
BYBLOCK
100
AcDbTrace
 10
1367.34316
 20
-132.643507
 30
0.0
 11
1372.34316
 21
-132.643507
 31
0.0
 12
1369.84316
 22
-117.643507
 32
0.0
 13
1369.84316
 23
-117.643507
 33
0.0
  0
SOLID
  5
69
100
AcDbEntity
  8
0
  6
BYBLOCK
100
AcDbTrace
 10
1367.34316
 20
-97.543507
 30
0.0
 11
1372.34316
 21
-97.543507
 31
0.0
 12
1369.84316
 22
-112.543507
 32
0.0
 13
1369.84316
 23
-112.543507
 33
0.0
  0
POINT
  5
6A
100
AcDbEntity
  8
DEFPOINTS
  6
BYBLOCK
 62
     0
100
AcDbPoint
 10
1225.903365
 20
-117.643507
 30
0.0
  0
POINT
  5
6B
100
AcDbEntity
  8
DEFPOINTS
  6
BYBLOCK
 62
     0
100
AcDbPoint
 10
1285.903365
 20
-112.543507
 30
0.0
  0
POINT
  5
6C
100
AcDbEntity
  8
DEFPOINTS
  6
BYBLOCK
 62
     0
100
AcDbPoint
 10
1369.84316
 20
-112.543507
 30
0.0
  0
ENDBLK
  5
6E
100
AcDbEntity
  8
0
100
AcDbBlockEnd
  0
ENDSEC
  0
SECTION
  2
ENTITIES
  0
DIMENSION
  5
1E
100
AcDbEntity
  8
KOTY-UPLNE
100
AcDbDimension
  2
*D6
 10
552.324511
 20
-149.886161
 30
0.0
 11
645.213562
 21
-124.996614
 31
0.0
 12
-943.32739
 22
-37.342654
 32
0.0
 70
     2
  3
UPLNE
100
AcDb2LineAngularDimension
 13
552.324511
 23
-149.886161
 33
0.0
 14
602.017332
 24
-149.886161
 34
0.0
 15
544.767332
 25
-154.2493
 35
0.0
 16
631.607269
 26
-135.906471
 36
0.0
1001
ACAD
1000
DSTYLE
1002
{
1070
    40
1040
3.0
1070
   147
1040
2.0
1002
}
  0
DIMENSION
  5
2E
100
AcDbEntity
  8
KOTY-UPLNE
100
AcDbDimension
  2
*D1
 10
1190.620722
 20
-317.884928
 30
0.0
 11
671.73801
 21
-302.224928
 31
0.0
 12
-943.32739
 22
-37.342654
 32
0.0
  3
UPLNE
100
AcDbAlignedDimension
 13
152.855297
 23
-212.884928
 33
0.0
 14
1190.620722
 24
-197.886161
 34
0.0
100
AcDbRotatedDimension
1001
ACAD
1000
DSTYLE
1002
{
1070
    40
1040
3.0
1070
   147
1040
2.0
1002
}
  0
MTEXT
  5
3B
100
AcDbEntity
  8
KOTY-UPLNE
  6
BYBLOCK
 62
     5
100
AcDbMText
 10
601.435088
 20
-85.198963
 30
0.0
 40
16.5
 41
0.0
 71
     5
 72
     1
  1
neoznačená zaoblení R=5,5
  0
LWPOLYLINE
  5
3C
100
AcDbEntity
  8
TRAPEZ-VELKY
100
AcDbPolyline
 90
       96
 70
     0
 43
5.0
 10
147.855297
 20
-197.884928
 10
169.316865
 20
-197.884928
 42
0.21128
 10
175.235793
 20
-195.266962
 10
183.804144
 20
-185.843862
 42
-0.116235
 10
185.884471
 20
-184.41623
 10
192.852198
 20
-181.713627
 42
0.116235
 10
194.932526
 20
-180.285994
 10
220.19548
 20
-152.502894
 42
-0.21128
 10
226.114408
 20
-149.884928
 10
270.795075
 20
-149.884928
 42
-0.131652
 10
273.545075
 20
-150.621788
 10
279.825975
 20
-154.248068
 42
0.267949
 10
285.325975
 20
-154.248068
 10
291.606876
 20
-150.621788
 42
-0.131652
 10
294.356876
 20
-149.884928
 10
339.037543
 20
-149.884928
 42
-0.21128
 10
344.956471
 20
-152.502894
 10
370.219425
 20
-180.285994
 42
0.116235
 10
372.299753
 20
-181.713627
 10
379.267479
 20
-184.41623
 42
-0.116235
 10
381.347807
 20
-185.843862
 10
389.916158
 20
-195.266962
 42
0.21128
 10
395.835086
 20
-197.884928
 10
412.296653
 20
-197.884928
 10
428.758221
 20
-197.884928
 42
0.21128
 10
434.677149
 20
-195.266962
 10
443.2455
 20
-185.843862
 42
-0.116235
 10
445.325828
 20
-184.41623
 10
452.293554
 20
-181.713627
 42
0.116235
 10
454.373882
 20
-180.285994
 10
479.636836
 20
-152.502894
 42
-0.21128
 10
485.555764
 20
-149.884928
 10
530.236431
 20
-149.884928
 42
-0.131652
 10
532.986431
 20
-150.621788
 10
539.267332
 20
-154.248068
 42
0.267949
 10
544.767332
 20
-154.248068
 10
551.048232
 20
-150.621788
 42
-0.131652
 10
553.798232
 20
-149.884928
 10
598.478899
 20
-149.884928
 42
-0.21128
 10
604.397827
 20
-152.502894
 10
629.660781
 20
-180.285994
 42
0.116235
 10
631.741109
 20
-181.713627
 10
638.708836
 20
-184.41623
 42
-0.116235
 10
640.789163
 20
-185.843862
 10
649.357514
 20
-195.266962
 42
0.21128
 10
655.276442
 20
-197.884928
 10
671.73801
 20
-197.884928
 10
688.199578
 20
-197.884928
 42
0.21128
 10
694.118505
 20
-195.266962
 10
702.686856
 20
-185.843862
 42
-0.116235
 10
704.767184
 20
-184.41623
 10
711.734911
 20
-181.713627
 42
0.116235
 10
713.815238
 20
-180.285994
 10
739.078192
 20
-152.502894
 42
-0.21128
 10
744.99712
 20
-149.884928
 10
789.677788
 20
-149.884928
 42
-0.131652
 10
792.427788
 20
-150.621788
 10
798.708688
 20
-154.248068
 42
0.267949
 10
804.208688
 20
-154.248068
 10
810.489588
 20
-150.621788
 42
-0.131652
 10
813.239588
 20
-149.884928
 10
857.920256
 20
-149.884928
 42
-0.21128
 10
863.839183
 20
-152.502894
 10
889.102137
 20
-180.285994
 42
0.116235
 10
891.182465
 20
-181.713627
 10
898.150192
 20
-184.41623
 42
-0.116235
 10
900.23052
 20
-185.843862
 10
908.798871
 20
-195.266962
 42
0.21128
 10
914.717798
 20
-197.884928
 10
931.179366
 20
-197.884928
 10
947.640934
 20
-197.884928
 42
0.21128
 10
953.559862
 20
-195.266962
 10
962.128213
 20
-185.843862
 42
-0.116235
 10
964.20854
 20
-184.41623
 10
971.176267
 20
-181.713627
 42
0.116235
 10
973.256595
 20
-180.285994
 10
998.519549
 20
-152.502894
 42
-0.21128
 10
1004.438477
 20
-149.884928
 10
1049.119144
 20
-149.884928
 42
-0.131652
 10
1051.869144
 20
-150.621788
 10
1058.150044
 20
-154.248068
 42
0.267949
 10
1063.650044
 20
-154.248068
 10
1069.930945
 20
-150.621788
 42
-0.131652
 10
1072.680945
 20
-149.884928
 10
1117.361612
 20
-149.884928
 42
-0.21128
 10
1123.28054
 20
-152.502894
 10
1148.543494
 20
-180.285994
 42
0.116235
 10
1150.623822
 20
-181.713627
 10
1157.591548
 20
-184.41623
 42
-0.116235
 10
1159.671876
 20
-185.843862
 10
1168.240227
 20
-195.266962
 42
0.21128
 10
1174.159155
 20
-197.884928
 10
1190.620722
 20
-197.884928
 10
1207.08229
 20
-197.884928
 42
0.21128
 10
1213.001218
 20
-195.266962
 10
1218.008721
 20
-189.759928
  0
MTEXT
  5
3E
100
AcDbEntity
  8
POPIS
100
AcDbMText
 10
661.730741
 20
-42.124031
 30
0.0
 40
40.0
 41
1.0
 71
     5
 72
     1
  1
TR 50/260
  7
STYLE1
  0
LWPOLYLINE
  5
41
100
AcDbEntity
  8
RAMEC
100
AcDbPolyline
 90
        4
 70
     1
 43
0.0
 10
0.0
 20
0.0
 10
0.0
 20
-367.001233
 10
1349.672502
 20
-367.001233
 10
1349.672502
 20
0.0
  0
DIMENSION
  5
43
100
AcDbEntity
  8
KOTY-UPLNE
100
AcDbDimension
  2
*D2
 10
222.575975
 20
-111.073246
 30
0.0
 11
197.715636
 21
-93.573246
 31
0.0
 12
-943.32739
 22
-37.342654
 32
0.0
  1
49,75
  3
UPLNE
100
AcDbAlignedDimension
 13
172.855297
 23
-197.886161
 33
0.0
 14
222.575975
 24
-149.886161
 34
0.0
100
AcDbRotatedDimension
1001
ACAD
1000
DSTYLE
1002
{
1070
    40
1040
3.0
1070
   147
1040
2.0
1002
}
  0
DIMENSION
  5
52
100
AcDbEntity
  8
KOTY-UPLNE
100
AcDbDimension
  2
*D0
 10
412.296653
 20
-257.884928
 30
0.0
 11
282.575975
 21
-240.384928
 31
0.0
 12
-943.32739
 22
-37.342654
 32
0.0
  1
<>,5
  3
UPLNE
100
AcDbAlignedDimension
 13
152.855297
 23
-197.886161
 33
0.0
 14
412.296653
 24
-197.886161
 34
0.0
100
AcDbRotatedDimension
1001
ACAD
1000
DSTYLE
1002
{
1070
    40
1040
3.0
1070
   147
1040
2.0
1002
}
  0
DIMENSION
  5
5F
100
AcDbEntity
  8
KOTY-UPLNE
100
AcDbDimension
  2
*D14
 10
426.51577
 20
-149.886161
 30
0.0
 11
409.001872
 21
-132.217028
 31
0.0
 12
-943.32739
 22
-37.342654
 32
0.0
 70
   128
  1
5,1
  3
UPLNE
100
AcDbAlignedDimension
 13
282.575975
 23
-154.986161
 33
0.0
 14
342.575975
 24
-149.886161
 34
0.0
 50
90.0
100
AcDbRotatedDimension
1001
ACAD
1000
DSTYLE
1002
{
1070
    40
1040
3.0
1070
   147
1040
2.0
1002
}
  0
DIMENSION
  5
6F
100
AcDbEntity
  8
KOTY-UPLNE
100
AcDbDimension
  2
*D4
 10
392.296653
 20
-111.073246
 30
0.0
 11
367.436314
 21
-93.573246
 31
0.0
 12
-943.32739
 22
-37.342654
 32
0.0
  1
49,75
  3
UPLNE
100
AcDbAlignedDimension
 13
342.575975
 23
-149.886161
 33
0.0
 14
392.296653
 24
-197.886161
 34
0.0
100
AcDbRotatedDimension
1001
ACAD
1000
DSTYLE
1002
{
1070
    40
1040
3.0
1070
   147
1040
2.0
1002
}
  0
DIMENSION
  5
7E
100
AcDbEntity
  8
KOTY-UPLNE
100
AcDbDimension
  2
*D3
 10
342.575975
 20
-111.073246
 30
0.0
 11
282.575975
 21
-95.413246
 31
0.0
 12
-943.32739
 22
-37.342654
 32
0.0
  3
UPLNE
100
AcDbAlignedDimension
 13
222.575975
 23
-149.886161
 33
0.0
 14
342.575975
 24
-149.886161
 34
0.0
100
AcDbRotatedDimension
1001
ACAD
1000
DSTYLE
1002
{
1070
    40
1040
3.0
1070
   147
1040
2.0
1002
}
  0
MTEXT
  5
8B
102
{ACAD_REACTORS
330
8C
102
}
100
AcDbEntity
  8
KOTY-UPLNE
 62
     5
100
AcDbMText
 10
539.300941
 20
-213.098293
 30
0.0
 40
16.5
 41
0.0
 71
     4
 72
     1
  1
R=8
  0
LEADER
  5
8C
100
AcDbEntity
  8
KOTY-UPLNE
100
AcDbLeader
  3
UPLNE
 73
     0
 74
     0
 75
     1
 40
16.5
 41
43.135714
 76
     3
 10
482.017332
 20
-149.886161
 30
0.0
 10
518.300941
 20
-227.348293
 30
0.0
 10
533.300941
 20
-227.348293
 30
0.0
 77
   256
340
8B
1001
ACAD
1000
DSTYLE
1002
{
1070
    40
1040
3.0
1070
   147
1040
2.0
1002
}
  0
DIMENSION
  5
8D
100
AcDbEntity
  8
KOTY-UPLNE
100
AcDbDimension
  2
*D9
 10
1064.620036
 20
-184.886161
 30
0.0
 11
1103.027614
 21
-119.122181
 31
0.0
 12
-943.32739
 22
-37.342654
 32
0.0
 70
   130
  1
21,2%%d
  3
UPLNE
100
AcDb2LineAngularDimension
 13
963.000164
 23
-184.886161
 33
0.0
 14
972.384644
 24
-181.246161
 34
0.0
 15
963.000164
 25
-184.886161
 35
0.0
 16
1094.84702
 26
-168.541656
 36
0.0
1001
ACAD
1000
DSTYLE
1002
{
1070
    40
1040
3.0
1070
   147
1040
2.0
1002
}
  0
LINE
  5
9C
100
AcDbEntity
  8
KOTY-UPLNE
100
AcDbLine
 10
963.000164
 20
-184.886161
 30
0.0
 11
1064.620036
 21
-184.886161
 31
0.0
  0
DIMENSION
  5
9D
100
AcDbEntity
  8
KOTY-UPLNE
100
AcDbDimension
  2
*D8
 10
1041.064755
 20
-105.714755
 30
0.0
 11
1051.175316
 21
-91.255276
 31
0.0
 12
-943.32739
 22
-37.342654
 32
0.0
 70
     1
  1
4,5
  3
UPLNE
100
AcDbAlignedDimension
 13
963.000164
 23
-184.886161
 33
0.0
 14
966.325441
 24
-187.909809
 34
0.0
1001
ACAD
1000
DSTYLE
1002
{
1070
    40
1040
3.0
1070
   147
1040
2.0
1002
}
  0
DIMENSION
  5
AC
100
AcDbEntity
  8
KOTY-UPLNE
100
AcDbDimension
  2
*D7
 10
703.558807
 20
-184.886161
 30
0.0
 11
831.426396
 21
-108.43562
 31
0.0
 12
-943.32739
 22
-37.342654
 32
0.0
 70
   130
  1
47,72%%d
  3
UPLNE
100
AcDb2LineAngularDimension
 13
671.73801
 23
-197.886161
 33
0.0
 14
691.73801
 24
-197.886161
 34
0.0
 15
691.73801
 25
-197.886161
 35
0.0
 16
829.705605
 26
-158.567701
 36
0.0
1001
ACAD
1000
DSTYLE
1002
{
1070
    40
1040
3.0
1070
   147
1040
2.0
1002
}
  0
DIMENSION
  5
BB
100
AcDbEntity
  8
KOTY-UPLNE
100
AcDbDimension
  2
*D5
 10
691.73801
 20
-257.884928
 30
0.0
 11
671.73801
 21
-242.224928
 31
0.0
 12
-943.32739
 22
-37.342654
 32
0.0
  3
UPLNE
100
AcDbAlignedDimension
 13
651.73801
 23
-197.886161
 33
0.0
 14
691.73801
 24
-197.886161
 34
0.0
100
AcDbRotatedDimension
1001
ACAD
1000
DSTYLE
1002
{
1070
    40
1040
3.0
1070
   147
1040
2.0
1002
}
  0
MTEXT
  5
CA
102
{ACAD_REACTORS
330
CB
102
}
100
AcDbEntity
  8
KOTY-UPLNE
 62
     5
100
AcDbMText
 10
692.981458
 20
-123.061869
 30
0.0
 40
16.5
 41
0.0
 71
     4
 72
     1
  1
R=8
  0
LEADER
  5
CB
100
AcDbEntity
  8
KOTY-UPLNE
100
AcDbLeader
  3
UPLNE
 73
     0
 74
     0
 75
     1
 40
16.5
 41
43.135714
 76
     3
 10
651.73801
 20
-197.886161
 30
0.0
 10
671.981458
 20
-137.311869
 30
0.0
 10
686.981458
 20
-137.311869
 30
0.0
 77
   256
340
CA
1001
ACAD
1000
DSTYLE
1002
{
1070
    40
1040
3.0
1070
   147
1040
2.0
1002
}
  0
MTEXT
  5
CC
100
AcDbEntity
  8
POZICE
100
AcDbMText
 10
932.454585
 20
-248.010378
 30
0.0
 40
41.73
 41
1.0
 71
     5
 72
     1
  1
B
  7
STYLE1
  0
MTEXT
  5
CE
100
AcDbEntity
  8
POZICE
100
AcDbMText
 10
930.3886
 20
-134.33582
 30
0.0
 40
41.73
 41
1.0
 71
     5
 72
     1
  1
A
  7
STYLE1
  0
DIMENSION
  5
CF
100
AcDbEntity
  8
KOTY-UPLNE
100
AcDbDimension
  2
*D13
 10
1294.659436
 20
-197.886161
 30
0.0
 11
1278.999436
 21
-173.886161
 31
0.0
 12
-943.32739
 22
-37.342654
 32
0.0
  3
UPLNE
100
AcDbAlignedDimension
 13
1132.022198
 23
-149.886161
 33
0.0
 14
1221.742876
 24
-197.886161
 34
0.0
 50
90.0
100
AcDbRotatedDimension
1001
ACAD
1000
DSTYLE
1002
{
1070
    40
1040
3.0
1070
   147
1040
2.0
1002
}
  0
DIMENSION
  5
DC
100
AcDbEntity
  8
KOTY-UPLNE
100
AcDbDimension
  2
*D12
 10
1252.805634
 20
-197.886161
 30
0.0
 11
1237.055634
 21
-220.578808
 31
0.0
 12
-943.32739
 22
-37.342654
 32
0.0
 70
   128
  3
UPLNE
100
AcDbAlignedDimension
 13
1158.799925
 23
-184.886161
 33
0.0
 14
1170.620722
 24
-197.886161
 34
0.0
 50
90.0
100
AcDbRotatedDimension
1001
ACAD
1000
DSTYLE
1002
{
1070
    40
1040
3.0
1070
   147
1040
2.0
1002
}
  0
DIMENSION
  5
EC
100
AcDbEntity
  8
KOTY-UPLNE
100
AcDbDimension
  2
*D11
 10
1252.805634
 20
-184.886161
 30
0.0
 11
1237.055634
 21
-170.961334
 31
0.0
 12
-943.32739
 22
-37.342654
 32
0.0
 70
   128
  3
UPLNE
100
AcDbAlignedDimension
 13
1149.415445
 23
-181.246161
 33
0.0
 14
1158.799925
 24
-184.886161
 34
0.0
 50
90.0
100
AcDbRotatedDimension
1001
ACAD
1000
DSTYLE
1002
{
1070
    40
1040
3.0
1070
   147
1040
2.0
1002
}
  0
DIMENSION
  5
FC
100
AcDbEntity
  8
KOTY-UPLNE
100
AcDbDimension
  2
*D10
 10
1252.805634
 20
-181.246161
 30
0.0
 11
1237.055634
 21
-133.192813
 31
0.0
 12
-943.32739
 22
-37.342654
 32
0.0
 70
   128
  3
UPLNE
100
AcDbAlignedDimension
 13
1120.900044
 23
-149.886161
 33
0.0
 14
1149.415445
 24
-181.246161
 34
0.0
 50
90.0
100
AcDbRotatedDimension
1001
ACAD
1000
DSTYLE
1002
{
1070
    40
1040
3.0
1070
   147
1040
2.0
1002
}
  0
ENDSEC
  0
SECTION
  2
OBJECTS
  0
DICTIONARY
  5
1A
100
AcDbDictionary
  3
ACAD_GROUP
350
18
  3
ACAD_MLINESTYLE
350
19
  0
DICTIONARY
  5
18
102
{ACAD_REACTORS
330
1A
102
}
100
AcDbDictionary
  0
DICTIONARY
  5
19
102
{ACAD_REACTORS
330
1A
102
}
100
AcDbDictionary
  3
STANDARD
350
1C
  0
MLINESTYLE
  5
1C
102
{ACAD_REACTORS
330
19
102
}
100
AcDbMlineStyle
  2
STANDARD
 70
     0
  3

 62
   256
 51
90.0
 52
90.0
 71
     2
 49
0.5
 62
   256
  6
BYLAYER
 49
-0.5
 62
   256
  6
BYLAYER
  0
ENDSEC
  0
EOF
