  0
SECTION
  2
HEADER
  9
$ACADVER
  1
AC1014
  9
$ACADMAINTVER
 70
     0
  9
$DWGCODEPAGE
  3
ANSI_1250
  9
$INSBASE
 10
0.0
 20
0.0
 30
0.0
  9
$EXTMIN
 10
0.0
 20
-364.001233
 30
0.0
  9
$EXTMAX
 10
1349.672502
 20
0.0
 30
0.0
  9
$LIMMIN
 10
-1000.0
 20
-1000.0
  9
$LIMMAX
 10
1000.0
 20
1000.0
  9
$ORTHOMODE
 70
     0
  9
$REGENMODE
 70
     1
  9
$FILLMODE
 70
     1
  9
$QTEXTMODE
 70
     0
  9
$MIRRTEXT
 70
     0
  9
$DRAGMODE
 70
     2
  9
$LTSCALE
 40
3.0
  9
$OSMODE
 70
    32
  9
$ATTMODE
 70
     1
  9
$TEXTSIZE
 40
50.0
  9
$TRACEWID
 40
0.05
  9
$TEXTSTYLE
  7
STANDARD
  9
$CLAYER
  8
KOTY-UPLNE
  9
$CELTYPE
  6
BYLAYER
  9
$CECOLOR
 62
   256
  9
$CELTSCALE
 40
1.0
  9
$DELOBJ
 70
     1
  9
$DISPSILH
 70
     0
  9
$DIMSCALE
 40
3.0
  9
$DIMASZ
 40
5.0
  9
$DIMEXO
 40
1.0
  9
$DIMDLI
 40
0.0
  9
$DIMRND
 40
1.0
  9
$DIMDLE
 40
1.0
  9
$DIMEXE
 40
2.0
  9
$DIMTP
 40
0.0
  9
$DIMTM
 40
0.0
  9
$DIMTXT
 40
6.44
  9
$DIMCEN
 40
1.0
  9
$DIMTSZ
 40
0.0
  9
$DIMTOL
 70
     0
  9
$DIMLIM
 70
     0
  9
$DIMTIH
 70
     0
  9
$DIMTOH
 70
     0
  9
$DIMSE1
 70
     0
  9
$DIMSE2
 70
     0
  9
$DIMTAD
 70
     3
  9
$DIMZIN
 70
     0
  9
$DIMBLK
  1

  9
$DIMASO
 70
     1
  9
$DIMSHO
 70
     0
  9
$DIMPOST
  1

  9
$DIMAPOST
  1

  9
$DIMALT
 70
     0
  9
$DIMALTD
 70
     2
  9
$DIMALTF
 40
25.4
  9
$DIMLFAC
 40
1.0
  9
$DIMTOFL
 70
     1
  9
$DIMTVP
 40
0.0
  9
$DIMTIX
 70
     1
  9
$DIMSOXD
 70
     0
  9
$DIMSAH
 70
     0
  9
$DIMBLK1
  1

  9
$DIMBLK2
  1

  9
$DIMSTYLE
  2
UPLNE
  9
$DIMCLRD
 70
   256
  9
$DIMCLRE
 70
   256
  9
$DIMCLRT
 70
     5
  9
$DIMTFAC
 40
1.0
  9
$DIMGAP
 40
2.0
  9
$DIMJUST
 70
     0
  9
$DIMSD1
 70
     0
  9
$DIMSD2
 70
     0
  9
$DIMTOLJ
 70
     1
  9
$DIMTZIN
 70
     0
  9
$DIMALTZ
 70
     0
  9
$DIMALTTZ
 70
     0
  9
$DIMFIT
 70
     5
  9
$DIMUPT
 70
     0
  9
$DIMUNIT
 70
     2
  9
$DIMDEC
 70
     0
  9
$DIMTDEC
 70
     0
  9
$DIMALTU
 70
     2
  9
$DIMALTTD
 70
     2
  9
$DIMTXSTY
  7
STANDARD
  9
$DIMAUNIT
 70
     0
  9
$LUNITS
 70
     2
  9
$LUPREC
 70
     2
  9
$SKETCHINC
 40
0.1
  9
$FILLETRAD
 40
5.0
  9
$AUNITS
 70
     0
  9
$AUPREC
 70
     2
  9
$MENU
  1
acad
  9
$ELEVATION
 40
0.0
  9
$PELEVATION
 40
0.0
  9
$THICKNESS
 40
0.0
  9
$LIMCHECK
 70
     0
  9
$BLIPMODE
 70
     1
  9
$CHAMFERA
 40
0.0
  9
$CHAMFERB
 40
0.0
  9
$CHAMFERC
 40
0.0
  9
$CHAMFERD
 40
0.0
  9
$SKPOLY
 70
     0
  9
$TDCREATE
 40
2448722.252204629
  9
$TDUPDATE
 40
2452465.561065162
  9
$TDINDWG
 40
2.5238072917
  9
$TDUSRTIMER
 40
2.5238072917
  9
$USRTIMER
 70
     1
  9
$ANGBASE
 50
0.0
  9
$ANGDIR
 70
     0
  9
$PDMODE
 70
     0
  9
$PDSIZE
 40
0.0
  9
$PLINEWID
 40
0.0
  9
$COORDS
 70
     2
  9
$SPLFRAME
 70
     0
  9
$SPLINETYPE
 70
     6
  9
$SPLINESEGS
 70
     8
  9
$ATTDIA
 70
     0
  9
$ATTREQ
 70
     1
  9
$HANDLING
 70
     1
  9
$HANDSEED
  5
FD
  9
$SURFTAB1
 70
     6
  9
$SURFTAB2
 70
     6
  9
$SURFTYPE
 70
     6
  9
$SURFU
 70
     6
  9
$SURFV
 70
     6
  9
$UCSNAME
  2

  9
$UCSORG
 10
0.0
 20
0.0
 30
0.0
  9
$UCSXDIR
 10
1.0
 20
0.0
 30
0.0
  9
$UCSYDIR
 10
0.0
 20
1.0
 30
0.0
  9
$PUCSNAME
  2

  9
$PUCSORG
 10
0.0
 20
0.0
 30
0.0
  9
$PUCSXDIR
 10
1.0
 20
0.0
 30
0.0
  9
$PUCSYDIR
 10
0.0
 20
1.0
 30
0.0
  9
$USERI1
 70
     1
  9
$USERI2
 70
     0
  9
$USERI3
 70
     0
  9
$USERI4
 70
     0
  9
$USERI5
 70
     0
  9
$USERR1
 40
0.0
  9
$USERR2
 40
0.0
  9
$USERR3
 40
0.0
  9
$USERR4
 40
0.0
  9
$USERR5
 40
0.0
  9
$WORLDVIEW
 70
     1
  9
$SHADEDGE
 70
     3
  9
$SHADEDIF
 70
    70
  9
$TILEMODE
 70
     1
  9
$MAXACTVP
 70
    16
  9
$PINSBASE
 10
0.0
 20
0.0
 30
0.0
  9
$PLIMCHECK
 70
     0
  9
$PEXTMIN
 10
1.000000E+20
 20
1.000000E+20
 30
1.000000E+20
  9
$PEXTMAX
 10
-1.000000E+20
 20
-1.000000E+20
 30
-1.000000E+20
  9
$PLIMMIN
 10
0.0
 20
0.0
  9
$PLIMMAX
 10
12.0
 20
9.0
  9
$UNITMODE
 70
     0
  9
$VISRETAIN
 70
     0
  9
$PLINEGEN
 70
     0
  9
$PSLTSCALE
 70
     0
  9
$TREEDEPTH
 70
  3020
  9
$PICKSTYLE
 70
     0
  9
$CMLSTYLE
  2
STANDARD
  9
$CMLJUST
 70
     0
  9
$CMLSCALE
 40
1.0
  9
$PROXYGRAPHICS
 70
     1
  9
$MEASUREMENT
 70
     0
  0
ENDSEC
  0
SECTION
  2
CLASSES
  0
CLASS
  1
LWPOLYLINE
  2
AcDbPolyline
  3
"AutoCAD"
 90
        0
280
     0
281
     1
  0
CLASS
  1
DICTIONARYVAR
  2
AcDbDictionaryVar
  3
"AutoCAD"
 90
        0
280
     0
281
     0
  0
ENDSEC
  0
SECTION
  2
TABLES
  0
TABLE
  2
VPORT
  5
12
100
AcDbSymbolTable
 70
     2
  0
VPORT
  5
FC
100
AcDbSymbolTableRecord
100
AcDbViewportTableRecord
  2
*ACTIVE
 70
     0
 10
0.0
 20
0.0
 11
1.0
 21
1.0
 12
698.870165
 22
-142.482087
 13
0.0
 23
0.0
 14
1.0
 24
1.0
 15
600.0
 25
600.0
 16
0.0
 26
0.0
 36
1.0
 17
0.0
 27
0.0
 37
0.0
 40
671.449848
 41
2.224444
 42
50.0
 43
0.0
 44
0.0
 50
0.0
 51
0.0
 71
     0
 72
   100
 73
     1
 74
     0
 75
     0
 76
     0
 77
     0
 78
     0
  0
ENDTAB
  0
TABLE
  2
LTYPE
  5
D
100
AcDbSymbolTable
 70
     1
  0
LTYPE
  5
E
100
AcDbSymbolTableRecord
100
AcDbLinetypeTableRecord
  2
BYBLOCK
 70
     0
  3

 72
    65
 73
     0
 40
0.0
  0
LTYPE
  5
F
100
AcDbSymbolTableRecord
100
AcDbLinetypeTableRecord
  2
BYLAYER
 70
     0
  3

 72
    65
 73
     0
 40
0.0
  0
LTYPE
  5
5
100
AcDbSymbolTableRecord
100
AcDbLinetypeTableRecord
  2
CONTINUOUS
 70
     0
  3
Solid line
 72
    65
 73
     0
 40
0.0
  0
ENDTAB
  0
TABLE
  2
LAYER
  5
A
100
AcDbSymbolTable
 70
     7
  0
LAYER
  5
4
100
AcDbSymbolTableRecord
100
AcDbLayerTableRecord
  2
0
 70
     0
 62
     7
  6
CONTINUOUS
  0
LAYER
  5
1B
100
AcDbSymbolTableRecord
100
AcDbLayerTableRecord
  2
KOTY-UPLNE
 70
     0
 62
     7
  6
CONTINUOUS
  0
LAYER
  5
42
100
AcDbSymbolTableRecord
100
AcDbLayerTableRecord
  2
RAMEC
 70
     0
 62
     5
  6
CONTINUOUS
  0
LAYER
  5
D6
100
AcDbSymbolTableRecord
100
AcDbLayerTableRecord
  2
POZICE
 70
     0
 62
     1
  6
CONTINUOUS
  0
LAYER
  5
3F
100
AcDbSymbolTableRecord
100
AcDbLayerTableRecord
  2
POPIS
 70
     0
 62
     1
  6
CONTINUOUS
  0
LAYER
  5
2A
100
AcDbSymbolTableRecord
100
AcDbLayerTableRecord
  2
DEFPOINTS
 70
     0
 62
     7
  6
CONTINUOUS
  0
LAYER
  5
3D
100
AcDbSymbolTableRecord
100
AcDbLayerTableRecord
  2
TRAPEZ-VELKY
 70
     0
 62
     7
  6
CONTINUOUS
  0
ENDTAB
  0
TABLE
  2
STYLE
  5
B
100
AcDbSymbolTable
 70
     2
  0
STYLE
  5
C
100
AcDbSymbolTableRecord
100
AcDbTextStyleTableRecord
  2
STANDARD
 70
     0
 40
0.0
 41
0.9
 50
0.0
 71
     0
 42
50.0
  3
simplex.shx
  4

  0
STYLE
  5
40
100
AcDbSymbolTableRecord
100
AcDbTextStyleTableRecord
  2
STYLE1
 70
     0
 40
0.0
 41
0.9
 50
0.0
 71
     0
 42
50.0
  3
simplex.shx
  4

  0
ENDTAB
  0
TABLE
  2
VIEW
  5
10
100
AcDbSymbolTable
 70
     0
  0
ENDTAB
  0
TABLE
  2
UCS
  5
11
100
AcDbSymbolTable
 70
     0
  0
ENDTAB
  0
TABLE
  2
APPID
  5
14
100
AcDbSymbolTable
 70
     1
  0
APPID
  5
15
100
AcDbSymbolTableRecord
100
AcDbRegAppTableRecord
  2
ACAD
 70
     0
  0
ENDTAB
  0
TABLE
  2
DIMSTYLE
  5
16
100
AcDbSymbolTable
 70
     1
  0
DIMSTYLE
105
1D
102
{ACAD_REACTORS
330
D8
330
2F
330
50
330
B9
330
AC
330
C6
330
8C
330
7F
330
43
330
1E
330
9C
330
E5
330
5F
330
70
102
}
100
AcDbSymbolTableRecord
100
AcDbDimStyleTableRecord
  2
UPLNE
 70
     0
  3

  4

  5

  6

  7

 40
5.0
 41
5.0
 42
1.0
 43
0.0
 44
2.0
 45
1.0
 46
1.0
 47
0.0
 48
0.0
140
6.44
141
1.0
142
0.0
143
25.4
144
1.0
145
0.0
146
1.0
147
1.0
 71
     0
 72
     0
 73
     0
 74
     0
 75
     0
 76
     0
 77
     3
 78
     0
170
     0
171
     2
172
     1
173
     0
174
     1
175
     0
176
   256
177
   256
178
     5
270
     2
271
     0
272
     0
273
     2
274
     2
340
C
275
     0
280
     0
281
     0
282
     0
283
     1
284
     0
285
     0
286
     0
287
     5
288
     0
  0
ENDTAB
  0
TABLE
  2
BLOCK_RECORD
  5
1
100
AcDbSymbolTable
 70
    14
  0
BLOCK_RECORD
  5
2
100
AcDbSymbolTableRecord
100
AcDbBlockTableRecord
  2
*MODEL_SPACE
  0
BLOCK_RECORD
  5
7
100
AcDbSymbolTableRecord
100
AcDbBlockTableRecord
  2
*PAPER_SPACE
  0
BLOCK_RECORD
  5
D9
100
AcDbSymbolTableRecord
100
AcDbBlockTableRecord
  2
*D0
  0
BLOCK_RECORD
  5
30
100
AcDbSymbolTableRecord
100
AcDbBlockTableRecord
  2
*D1
  0
BLOCK_RECORD
  5
51
100
AcDbSymbolTableRecord
100
AcDbBlockTableRecord
  2
*D2
  0
BLOCK_RECORD
  5
BA
100
AcDbSymbolTableRecord
100
AcDbBlockTableRecord
  2
*D3
  0
BLOCK_RECORD
  5
AD
100
AcDbSymbolTableRecord
100
AcDbBlockTableRecord
  2
*D4
  0
BLOCK_RECORD
  5
C7
100
AcDbSymbolTableRecord
100
AcDbBlockTableRecord
  2
*D5
  0
BLOCK_RECORD
  5
8D
100
AcDbSymbolTableRecord
100
AcDbBlockTableRecord
  2
*D6
  0
BLOCK_RECORD
  5
80
100
AcDbSymbolTableRecord
100
AcDbBlockTableRecord
  2
*D7
  0
BLOCK_RECORD
  5
44
100
AcDbSymbolTableRecord
100
AcDbBlockTableRecord
  2
*D8
  0
BLOCK_RECORD
  5
1F
100
AcDbSymbolTableRecord
100
AcDbBlockTableRecord
  2
*D9
  0
BLOCK_RECORD
  5
9D
100
AcDbSymbolTableRecord
100
AcDbBlockTableRecord
  2
*D10
  0
BLOCK_RECORD
  5
E6
100
AcDbSymbolTableRecord
100
AcDbBlockTableRecord
  2
*D11
  0
BLOCK_RECORD
  5
60
100
AcDbSymbolTableRecord
100
AcDbBlockTableRecord
  2
*D12
  0
BLOCK_RECORD
  5
71
100
AcDbSymbolTableRecord
100
AcDbBlockTableRecord
  2
*D13
  0
ENDTAB
  0
ENDSEC
  0
SECTION
  2
BLOCKS
  0
BLOCK
  5
3
100
AcDbEntity
  8
0
100
AcDbBlockBegin
  2
*MODEL_SPACE
 70
     0
 10
0.0
 20
0.0
 30
0.0
  3
*MODEL_SPACE
  1

  0
ENDBLK
  5
6
100
AcDbEntity
  8
0
100
AcDbBlockEnd
  0
BLOCK
  5
8
100
AcDbEntity
 67
     1
  8
0
100
AcDbBlockBegin
  2
*PAPER_SPACE
 70
     0
 10
0.0
 20
0.0
 30
0.0
  3
*PAPER_SPACE
  1

  0
ENDBLK
  5
9
100
AcDbEntity
 67
     1
  8
0
100
AcDbBlockEnd
  0
BLOCK
  5
E3
100
AcDbEntity
  8
0
100
AcDbBlockBegin
  2
*D0
 70
     1
 10
0.0
 20
0.0
 30
0.0
  3
*D0
  1

  0
LINE
  5
DA
100
AcDbEntity
  8
0
  6
BYBLOCK
100
AcDbLine
 10
2066.582687
 20
1043.996493
 30
0.0
 11
2227.50071
 21
1043.996493
 31
0.0
  0
LINE
  5
DB
100
AcDbEntity
  8
0
  6
BYBLOCK
100
AcDbLine
 10
2114.082687
 20
1088.996493
 30
0.0
 11
2227.50071
 21
1088.996493
 31
0.0
  0
LINE
  5
DC
100
AcDbEntity
  8
0
  6
BYBLOCK
100
AcDbLine
 10
2221.50071
 20
1058.996493
 30
0.0
 11
2221.50071
 21
1073.996493
 31
0.0
  0
SOLID
  5
DD
100
AcDbEntity
  8
0
  6
BYBLOCK
100
AcDbTrace
 10
2219.00071
 20
1058.996493
 30
0.0
 11
2224.00071
 21
1058.996493
 31
0.0
 12
2221.50071
 22
1043.996493
 32
0.0
 13
2221.50071
 23
1043.996493
 33
0.0
  0
SOLID
  5
DE
100
AcDbEntity
  8
0
  6
BYBLOCK
100
AcDbTrace
 10
2219.00071
 20
1073.996493
 30
0.0
 11
2224.00071
 21
1073.996493
 31
0.0
 12
2221.50071
 22
1088.996493
 32
0.0
 13
2221.50071
 23
1088.996493
 33
0.0
  0
MTEXT
  5
DF
100
AcDbEntity
  8
0
  6
BYBLOCK
 62
     5
100
AcDbMText
 10
2205.84071
 20
1066.496493
 30
0.0
 40
19.32
 41
0.0
 71
     5
 72
     1
  1
\A1;45
 11
0.0
 21
1.0
 31
0.0
  0
POINT
  5
E0
100
AcDbEntity
  8
DEFPOINTS
  6
BYBLOCK
 62
     0
100
AcDbPoint
 10
2063.582687
 20
1043.996493
 30
0.0
  0
POINT
  5
E1
100
AcDbEntity
  8
DEFPOINTS
  6
BYBLOCK
 62
     0
100
AcDbPoint
 10
2111.082687
 20
1088.996493
 30
0.0
  0
POINT
  5
E2
100
AcDbEntity
  8
DEFPOINTS
  6
BYBLOCK
 62
     0
100
AcDbPoint
 10
2221.50071
 20
1088.996493
 30
0.0
  0
ENDBLK
  5
E4
100
AcDbEntity
  8
0
100
AcDbBlockEnd
  0
BLOCK
  5
3A
100
AcDbEntity
  8
0
100
AcDbBlockBegin
  2
*D1
 70
     1
 10
0.0
 20
0.0
 30
0.0
  3
*D1
  1

  0
LINE
  5
31
100
AcDbEntity
  8
0
  6
BYBLOCK
100
AcDbLine
 10
2096.082687
 20
1085.996493
 30
0.0
 11
2096.082687
 21
924.465281
 31
0.0
  0
LINE
  5
32
100
AcDbEntity
  8
0
  6
BYBLOCK
100
AcDbLine
 10
1096.182687
 20
1085.996493
 30
0.0
 11
1096.182687
 21
924.465281
 31
0.0
  0
LINE
  5
33
100
AcDbEntity
  8
0
  6
BYBLOCK
100
AcDbLine
 10
2081.082687
 20
930.465281
 30
0.0
 11
1111.182687
 21
930.465281
 31
0.0
  0
SOLID
  5
34
100
AcDbEntity
  8
0
  6
BYBLOCK
100
AcDbTrace
 10
2081.082687
 20
932.965281
 30
0.0
 11
2081.082687
 21
927.965281
 31
0.0
 12
2096.082687
 22
930.465281
 32
0.0
 13
2096.082687
 23
930.465281
 33
0.0
  0
SOLID
  5
35
100
AcDbEntity
  8
0
  6
BYBLOCK
100
AcDbTrace
 10
1111.182687
 20
932.965281
 30
0.0
 11
1111.182687
 21
927.965281
 31
0.0
 12
1096.182687
 22
930.465281
 32
0.0
 13
1096.182687
 23
930.465281
 33
0.0
  0
MTEXT
  5
36
100
AcDbEntity
  8
0
  6
BYBLOCK
 62
     5
100
AcDbMText
 10
1596.132687
 20
946.125281
 30
0.0
 40
19.32
 41
0.0
 71
     5
 72
     1
  1
\A1;1000
  0
POINT
  5
37
100
AcDbEntity
  8
DEFPOINTS
  6
BYBLOCK
 62
     0
100
AcDbPoint
 10
2096.082687
 20
1088.996493
 30
0.0
  0
POINT
  5
38
100
AcDbEntity
  8
DEFPOINTS
  6
BYBLOCK
 62
     0
100
AcDbPoint
 10
1096.182687
 20
1088.996493
 30
0.0
  0
POINT
  5
39
100
AcDbEntity
  8
DEFPOINTS
  6
BYBLOCK
 62
     0
100
AcDbPoint
 10
1096.182687
 20
930.465281
 30
0.0
  0
ENDBLK
  5
3B
100
AcDbEntity
  8
0
100
AcDbBlockEnd
  0
BLOCK
  5
5B
100
AcDbEntity
  8
0
100
AcDbBlockBegin
  2
*D2
 70
     1
 10
0.0
 20
0.0
 30
0.0
  3
*D2
  1

  0
LINE
  5
52
100
AcDbEntity
  8
0
  6
BYBLOCK
100
AcDbLine
 10
1096.182687
 20
1085.996493
 30
0.0
 11
1096.182687
 21
976.457726
 31
0.0
  0
LINE
  5
53
100
AcDbEntity
  8
0
  6
BYBLOCK
100
AcDbLine
 10
1429.482687
 20
1085.996493
 30
0.0
 11
1429.482687
 21
976.457726
 31
0.0
  0
LINE
  5
54
100
AcDbEntity
  8
0
  6
BYBLOCK
100
AcDbLine
 10
1111.182687
 20
982.457726
 30
0.0
 11
1414.482687
 21
982.457726
 31
0.0
  0
SOLID
  5
55
100
AcDbEntity
  8
0
  6
BYBLOCK
100
AcDbTrace
 10
1111.182687
 20
984.957726
 30
0.0
 11
1111.182687
 21
979.957726
 31
0.0
 12
1096.182687
 22
982.457726
 32
0.0
 13
1096.182687
 23
982.457726
 33
0.0
  0
SOLID
  5
56
100
AcDbEntity
  8
0
  6
BYBLOCK
100
AcDbTrace
 10
1414.482687
 20
984.957726
 30
0.0
 11
1414.482687
 21
979.957726
 31
0.0
 12
1429.482687
 22
982.457726
 32
0.0
 13
1429.482687
 23
982.457726
 33
0.0
  0
MTEXT
  5
57
100
AcDbEntity
  8
0
  6
BYBLOCK
 62
     5
100
AcDbMText
 10
1262.832687
 20
999.957726
 30
0.0
 40
19.32
 41
0.0
 71
     5
 72
     1
  1
\A1;333,3
  0
POINT
  5
58
100
AcDbEntity
  8
DEFPOINTS
  6
BYBLOCK
 62
     0
100
AcDbPoint
 10
1096.182687
 20
1088.996493
 30
0.0
  0
POINT
  5
59
100
AcDbEntity
  8
DEFPOINTS
  6
BYBLOCK
 62
     0
100
AcDbPoint
 10
1429.482687
 20
1088.996493
 30
0.0
  0
POINT
  5
5A
100
AcDbEntity
  8
DEFPOINTS
  6
BYBLOCK
 62
     0
100
AcDbPoint
 10
1429.482687
 20
982.457726
 30
0.0
  0
ENDBLK
  5
5C
100
AcDbEntity
  8
0
100
AcDbBlockEnd
  0
BLOCK
  5
C4
100
AcDbEntity
  8
0
100
AcDbBlockBegin
  2
*D3
 70
     1
 10
0.0
 20
0.0
 30
0.0
  3
*D3
  1

  0
LINE
  5
BB
100
AcDbEntity
  8
0
  6
BYBLOCK
100
AcDbLine
 10
1730.282687
 20
1046.996493
 30
0.0
 11
1730.282687
 21
1132.268176
 31
0.0
  0
LINE
  5
BC
100
AcDbEntity
  8
0
  6
BYBLOCK
100
AcDbLine
 10
1676.282687
 20
1046.996493
 30
0.0
 11
1676.282687
 21
1132.268176
 31
0.0
  0
LINE
  5
BD
100
AcDbEntity
  8
0
  6
BYBLOCK
100
AcDbLine
 10
1715.282687
 20
1126.268176
 30
0.0
 11
1691.282687
 21
1126.268176
 31
0.0
  0
SOLID
  5
BE
100
AcDbEntity
  8
0
  6
BYBLOCK
100
AcDbTrace
 10
1715.282687
 20
1128.768176
 30
0.0
 11
1715.282687
 21
1123.768176
 31
0.0
 12
1730.282687
 22
1126.268176
 32
0.0
 13
1730.282687
 23
1126.268176
 33
0.0
  0
SOLID
  5
BF
100
AcDbEntity
  8
0
  6
BYBLOCK
100
AcDbTrace
 10
1691.282687
 20
1128.768176
 30
0.0
 11
1691.282687
 21
1123.768176
 31
0.0
 12
1676.282687
 22
1126.268176
 32
0.0
 13
1676.282687
 23
1126.268176
 33
0.0
  0
MTEXT
  5
C0
100
AcDbEntity
  8
0
  6
BYBLOCK
 62
     5
100
AcDbMText
 10
1703.282687
 20
1141.928176
 30
0.0
 40
19.32
 41
0.0
 71
     5
 72
     1
  1
\A1;54
  0
POINT
  5
C1
100
AcDbEntity
  8
DEFPOINTS
  6
BYBLOCK
 62
     0
100
AcDbPoint
 10
1730.282687
 20
1043.996493
 30
0.0
  0
POINT
  5
C2
100
AcDbEntity
  8
DEFPOINTS
  6
BYBLOCK
 62
     0
100
AcDbPoint
 10
1676.282687
 20
1043.996493
 30
0.0
  0
POINT
  5
C3
100
AcDbEntity
  8
DEFPOINTS
  6
BYBLOCK
 62
     0
100
AcDbPoint
 10
1676.282687
 20
1126.268176
 30
0.0
  0
ENDBLK
  5
C5
100
AcDbEntity
  8
0
100
AcDbBlockEnd
  0
BLOCK
  5
B7
100
AcDbEntity
  8
0
100
AcDbBlockBegin
  2
*D4
 70
     1
 10
0.0
 20
0.0
 30
0.0
  3
*D4
  1

  0
LINE
  5
AE
100
AcDbEntity
  8
0
  6
BYBLOCK
100
AcDbLine
 10
1623.132687
 20
1046.996493
 30
0.0
 11
1623.132687
 21
1132.268176
 31
0.0
  0
LINE
  5
AF
100
AcDbEntity
  8
0
  6
BYBLOCK
100
AcDbLine
 10
1569.132687
 20
1046.996493
 30
0.0
 11
1569.132687
 21
1132.268176
 31
0.0
  0
LINE
  5
B0
100
AcDbEntity
  8
0
  6
BYBLOCK
100
AcDbLine
 10
1608.132687
 20
1126.268176
 30
0.0
 11
1584.132687
 21
1126.268176
 31
0.0
  0
SOLID
  5
B1
100
AcDbEntity
  8
0
  6
BYBLOCK
100
AcDbTrace
 10
1608.132687
 20
1128.768176
 30
0.0
 11
1608.132687
 21
1123.768176
 31
0.0
 12
1623.132687
 22
1126.268176
 32
0.0
 13
1623.132687
 23
1126.268176
 33
0.0
  0
SOLID
  5
B2
100
AcDbEntity
  8
0
  6
BYBLOCK
100
AcDbTrace
 10
1584.132687
 20
1128.768176
 30
0.0
 11
1584.132687
 21
1123.768176
 31
0.0
 12
1569.132687
 22
1126.268176
 32
0.0
 13
1569.132687
 23
1126.268176
 33
0.0
  0
MTEXT
  5
B3
100
AcDbEntity
  8
0
  6
BYBLOCK
 62
     5
100
AcDbMText
 10
1596.132687
 20
1141.928176
 30
0.0
 40
19.32
 41
0.0
 71
     5
 72
     1
  1
\A1;54
  0
POINT
  5
B4
100
AcDbEntity
  8
DEFPOINTS
  6
BYBLOCK
 62
     0
100
AcDbPoint
 10
1623.132687
 20
1043.996493
 30
0.0
  0
POINT
  5
B5
100
AcDbEntity
  8
DEFPOINTS
  6
BYBLOCK
 62
     0
100
AcDbPoint
 10
1569.132687
 20
1043.996493
 30
0.0
  0
POINT
  5
B6
100
AcDbEntity
  8
DEFPOINTS
  6
BYBLOCK
 62
     0
100
AcDbPoint
 10
1569.132687
 20
1126.268176
 30
0.0
  0
ENDBLK
  5
B8
100
AcDbEntity
  8
0
100
AcDbBlockEnd
  0
BLOCK
  5
D3
100
AcDbEntity
  8
0
100
AcDbBlockBegin
  2
*D5
 70
     1
 10
0.0
 20
0.0
 30
0.0
  3
*D5
  1

  0
LINE
  5
C8
100
AcDbEntity
  8
0
  6
BYBLOCK
100
AcDbLine
 10
1626.132687
 20
1043.996493
 30
0.0
 11
1626.132687
 21
976.457726
 31
0.0
  0
LINE
  5
C9
100
AcDbEntity
  8
0
  6
BYBLOCK
100
AcDbLine
 10
1673.282687
 20
1043.996493
 30
0.0
 11
1673.282687
 21
976.457726
 31
0.0
  0
LINE
  5
CA
100
AcDbEntity
  8
0
  6
BYBLOCK
100
AcDbLine
 10
1611.132687
 20
982.457726
 30
0.0
 11
1596.132687
 21
982.457726
 31
0.0
  0
LINE
  5
CB
100
AcDbEntity
  8
0
  6
BYBLOCK
100
AcDbLine
 10
1688.282687
 20
982.457726
 30
0.0
 11
1703.282687
 21
982.457726
 31
0.0
  0
LINE
  5
CC
100
AcDbEntity
  8
0
  6
BYBLOCK
100
AcDbLine
 10
1626.132687
 20
982.457726
 30
0.0
 11
1673.282687
 21
982.457726
 31
0.0
  0
SOLID
  5
CD
100
AcDbEntity
  8
0
  6
BYBLOCK
100
AcDbTrace
 10
1611.132687
 20
984.957726
 30
0.0
 11
1611.132687
 21
979.957726
 31
0.0
 12
1626.132687
 22
982.457726
 32
0.0
 13
1626.132687
 23
982.457726
 33
0.0
  0
SOLID
  5
CE
100
AcDbEntity
  8
0
  6
BYBLOCK
100
AcDbTrace
 10
1688.282687
 20
984.957726
 30
0.0
 11
1688.282687
 21
979.957726
 31
0.0
 12
1673.282687
 22
982.457726
 32
0.0
 13
1673.282687
 23
982.457726
 33
0.0
  0
MTEXT
  5
CF
100
AcDbEntity
  8
0
  6
BYBLOCK
 62
     5
100
AcDbMText
 10
1649.707687
 20
999.957726
 30
0.0
 40
19.32
 41
0.0
 71
     5
 72
     1
  1
\A1;47,15
  0
POINT
  5
D0
100
AcDbEntity
  8
DEFPOINTS
  6
BYBLOCK
 62
     0
100
AcDbPoint
 10
1626.132687
 20
1046.996493
 30
0.0
  0
POINT
  5
D1
100
AcDbEntity
  8
DEFPOINTS
  6
BYBLOCK
 62
     0
100
AcDbPoint
 10
1673.282687
 20
1046.996493
 30
0.0
  0
POINT
  5
D2
100
AcDbEntity
  8
DEFPOINTS
  6
BYBLOCK
 62
     0
100
AcDbPoint
 10
1673.282687
 20
982.457726
 30
0.0
  0
ENDBLK
  5
D4
100
AcDbEntity
  8
0
100
AcDbBlockEnd
  0
BLOCK
  5
9A
100
AcDbEntity
  8
0
100
AcDbBlockBegin
  2
*D6
 70
     1
 10
0.0
 20
0.0
 30
0.0
  3
*D6
  1

  0
LINE
  5
8E
100
AcDbEntity
  8
0
  6
BYBLOCK
100
AcDbLine
 10
1676.282687
 20
1046.996493
 30
0.0
 11
1771.900072
 21
1046.996493
 31
0.0
  0
LINE
  5
8F
100
AcDbEntity
  8
0
  6
BYBLOCK
100
AcDbLine
 10
1679.282687
 20
1043.996493
 30
0.0
 11
1771.900072
 21
1043.996493
 31
0.0
  0
LINE
  5
90
100
AcDbEntity
  8
0
  6
BYBLOCK
100
AcDbLine
 10
1765.900072
 20
1061.996493
 30
0.0
 11
1765.900072
 21
1076.996493
 31
0.0
  0
LINE
  5
91
100
AcDbEntity
  8
0
  6
BYBLOCK
100
AcDbLine
 10
1765.900072
 20
1028.996493
 30
0.0
 11
1765.900072
 21
1013.996493
 31
0.0
  0
MTEXT
  5
92
100
AcDbEntity
  8
0
  6
BYBLOCK
 62
     5
100
AcDbMText
 10
1750.150072
 20
1024.587249
 30
0.0
 40
19.32
 41
0.0
 71
     5
 72
     1
  1
\A1;3
 11
0.0
 21
1.0
 31
0.0
  0
LINE
  5
93
100
AcDbEntity
  8
0
  6
BYBLOCK
100
AcDbLine
 10
1765.900072
 20
1046.996493
 30
0.0
 11
1765.900072
 21
1043.996493
 31
0.0
  0
LINE
  5
94
100
AcDbEntity
  8
0
  6
BYBLOCK
100
AcDbLine
 10
1765.900072
 20
1046.996493
 30
0.0
 11
1765.900072
 21
1043.996493
 31
0.0
  0
SOLID
  5
95
100
AcDbEntity
  8
0
  6
BYBLOCK
100
AcDbTrace
 10
1763.400072
 20
1061.996493
 30
0.0
 11
1768.400072
 21
1061.996493
 31
0.0
 12
1765.900072
 22
1046.996493
 32
0.0
 13
1765.900072
 23
1046.996493
 33
0.0
  0
SOLID
  5
96
100
AcDbEntity
  8
0
  6
BYBLOCK
100
AcDbTrace
 10
1763.400072
 20
1028.996493
 30
0.0
 11
1768.400072
 21
1028.996493
 31
0.0
 12
1765.900072
 22
1043.996493
 32
0.0
 13
1765.900072
 23
1043.996493
 33
0.0
  0
POINT
  5
97
100
AcDbEntity
  8
DEFPOINTS
  6
BYBLOCK
 62
     0
100
AcDbPoint
 10
1673.282687
 20
1046.996493
 30
0.0
  0
POINT
  5
98
100
AcDbEntity
  8
DEFPOINTS
  6
BYBLOCK
 62
     0
100
AcDbPoint
 10
1676.282687
 20
1043.996493
 30
0.0
  0
POINT
  5
99
100
AcDbEntity
  8
DEFPOINTS
  6
BYBLOCK
 62
     0
100
AcDbPoint
 10
1765.900072
 20
1043.996493
 30
0.0
  0
ENDBLK
  5
9B
100
AcDbEntity
  8
0
100
AcDbBlockEnd
  0
BLOCK
  5
8A
100
AcDbEntity
  8
0
100
AcDbBlockBegin
  2
*D7
 70
     1
 10
0.0
 20
0.0
 30
0.0
  3
*D7
  1

  0
LINE
  5
81
100
AcDbEntity
  8
0
  6
BYBLOCK
100
AcDbLine
 10
1730.282687
 20
1040.996493
 30
0.0
 11
1730.282687
 21
976.457726
 31
0.0
  0
LINE
  5
82
100
AcDbEntity
  8
0
  6
BYBLOCK
100
AcDbLine
 10
1795.282687
 20
1040.996493
 30
0.0
 11
1795.282687
 21
976.457726
 31
0.0
  0
LINE
  5
83
100
AcDbEntity
  8
0
  6
BYBLOCK
100
AcDbLine
 10
1745.282687
 20
982.457726
 30
0.0
 11
1780.282687
 21
982.457726
 31
0.0
  0
SOLID
  5
84
100
AcDbEntity
  8
0
  6
BYBLOCK
100
AcDbTrace
 10
1745.282687
 20
984.957726
 30
0.0
 11
1745.282687
 21
979.957726
 31
0.0
 12
1730.282687
 22
982.457726
 32
0.0
 13
1730.282687
 23
982.457726
 33
0.0
  0
SOLID
  5
85
100
AcDbEntity
  8
0
  6
BYBLOCK
100
AcDbTrace
 10
1780.282687
 20
984.957726
 30
0.0
 11
1780.282687
 21
979.957726
 31
0.0
 12
1795.282687
 22
982.457726
 32
0.0
 13
1795.282687
 23
982.457726
 33
0.0
  0
MTEXT
  5
86
100
AcDbEntity
  8
0
  6
BYBLOCK
 62
     5
100
AcDbMText
 10
1762.782687
 20
998.117726
 30
0.0
 40
19.32
 41
0.0
 71
     5
 72
     1
  1
\A1;65
  0
POINT
  5
87
100
AcDbEntity
  8
DEFPOINTS
  6
BYBLOCK
 62
     0
100
AcDbPoint
 10
1730.282687
 20
1043.996493
 30
0.0
  0
POINT
  5
88
100
AcDbEntity
  8
DEFPOINTS
  6
BYBLOCK
 62
     0
100
AcDbPoint
 10
1795.282687
 20
1043.996493
 30
0.0
  0
POINT
  5
89
100
AcDbEntity
  8
DEFPOINTS
  6
BYBLOCK
 62
     0
100
AcDbPoint
 10
1795.282687
 20
982.457726
 30
0.0
  0
ENDBLK
  5
8B
100
AcDbEntity
  8
0
100
AcDbBlockEnd
  0
BLOCK
  5
4E
100
AcDbEntity
  8
0
100
AcDbBlockBegin
  2
*D8
 70
     1
 10
0.0
 20
0.0
 30
0.0
  3
*D8
  1

  0
LINE
  5
45
100
AcDbEntity
  8
0
  6
BYBLOCK
100
AcDbLine
 10
1111.182687
 20
1091.996493
 30
0.0
 11
1111.182687
 21
1132.268176
 31
0.0
  0
LINE
  5
46
100
AcDbEntity
  8
0
  6
BYBLOCK
100
AcDbLine
 10
1414.482687
 20
1091.996493
 30
0.0
 11
1414.482687
 21
1132.268176
 31
0.0
  0
LINE
  5
47
100
AcDbEntity
  8
0
  6
BYBLOCK
100
AcDbLine
 10
1126.182687
 20
1126.268176
 30
0.0
 11
1399.482687
 21
1126.268176
 31
0.0
  0
SOLID
  5
48
100
AcDbEntity
  8
0
  6
BYBLOCK
100
AcDbTrace
 10
1126.182687
 20
1128.768176
 30
0.0
 11
1126.182687
 21
1123.768176
 31
0.0
 12
1111.182687
 22
1126.268176
 32
0.0
 13
1111.182687
 23
1126.268176
 33
0.0
  0
SOLID
  5
49
100
AcDbEntity
  8
0
  6
BYBLOCK
100
AcDbTrace
 10
1399.482687
 20
1128.768176
 30
0.0
 11
1399.482687
 21
1123.768176
 31
0.0
 12
1414.482687
 22
1126.268176
 32
0.0
 13
1414.482687
 23
1126.268176
 33
0.0
  0
MTEXT
  5
4A
100
AcDbEntity
  8
0
  6
BYBLOCK
 62
     5
100
AcDbMText
 10
1262.832687
 20
1143.768176
 30
0.0
 40
19.32
 41
0.0
 71
     5
 72
     1
  1
\A1;303,3
  0
POINT
  5
4B
100
AcDbEntity
  8
DEFPOINTS
  6
BYBLOCK
 62
     0
100
AcDbPoint
 10
1111.182687
 20
1088.996493
 30
0.0
  0
POINT
  5
4C
100
AcDbEntity
  8
DEFPOINTS
  6
BYBLOCK
 62
     0
100
AcDbPoint
 10
1414.482687
 20
1088.996493
 30
0.0
  0
POINT
  5
4D
100
AcDbEntity
  8
DEFPOINTS
  6
BYBLOCK
 62
     0
100
AcDbPoint
 10
1414.482687
 20
1126.268176
 30
0.0
  0
ENDBLK
  5
4F
100
AcDbEntity
  8
0
100
AcDbBlockEnd
  0
BLOCK
  5
2D
100
AcDbEntity
  8
0
100
AcDbBlockBegin
  2
*D9
 70
     1
 10
0.0
 20
0.0
 30
0.0
  3
*D9
  1

  0
LINE
  5
20
100
AcDbEntity
  8
0
  6
BYBLOCK
100
AcDbLine
 10
1569.132687
 20
1046.996493
 30
0.0
 11
1569.132687
 21
1132.268176
 31
0.0
  0
LINE
  5
21
100
AcDbEntity
  8
0
  6
BYBLOCK
100
AcDbLine
 10
1566.132687
 20
1049.996493
 30
0.0
 11
1566.132687
 21
1132.268176
 31
0.0
  0
LINE
  5
22
100
AcDbEntity
  8
0
  6
BYBLOCK
100
AcDbLine
 10
1584.132687
 20
1126.268176
 30
0.0
 11
1599.132687
 21
1126.268176
 31
0.0
  0
LINE
  5
23
100
AcDbEntity
  8
0
  6
BYBLOCK
100
AcDbLine
 10
1551.132687
 20
1126.268176
 30
0.0
 11
1536.132687
 21
1126.268176
 31
0.0
  0
MTEXT
  5
24
100
AcDbEntity
  8
0
  6
BYBLOCK
 62
     5
100
AcDbMText
 10
1549.556043
 20
1142.018176
 30
0.0
 40
19.32
 41
0.0
 71
     5
 72
     1
  1
\A1;3
  0
LINE
  5
25
100
AcDbEntity
  8
0
  6
BYBLOCK
100
AcDbLine
 10
1569.132687
 20
1126.268176
 30
0.0
 11
1566.132687
 21
1126.268176
 31
0.0
  0
LINE
  5
26
100
AcDbEntity
  8
0
  6
BYBLOCK
100
AcDbLine
 10
1569.132687
 20
1126.268176
 30
0.0
 11
1566.132687
 21
1126.268176
 31
0.0
  0
SOLID
  5
27
100
AcDbEntity
  8
0
  6
BYBLOCK
100
AcDbTrace
 10
1584.132687
 20
1128.768176
 30
0.0
 11
1584.132687
 21
1123.768176
 31
0.0
 12
1569.132687
 22
1126.268176
 32
0.0
 13
1569.132687
 23
1126.268176
 33
0.0
  0
SOLID
  5
28
100
AcDbEntity
  8
0
  6
BYBLOCK
100
AcDbTrace
 10
1551.132687
 20
1128.768176
 30
0.0
 11
1551.132687
 21
1123.768176
 31
0.0
 12
1566.132687
 22
1126.268176
 32
0.0
 13
1566.132687
 23
1126.268176
 33
0.0
  0
POINT
  5
29
100
AcDbEntity
  8
DEFPOINTS
  6
BYBLOCK
 62
     0
100
AcDbPoint
 10
1569.132687
 20
1043.996493
 30
0.0
  0
POINT
  5
2B
100
AcDbEntity
  8
DEFPOINTS
  6
BYBLOCK
 62
     0
100
AcDbPoint
 10
1566.132687
 20
1046.996493
 30
0.0
  0
POINT
  5
2C
100
AcDbEntity
  8
DEFPOINTS
  6
BYBLOCK
 62
     0
100
AcDbPoint
 10
1566.132687
 20
1126.268176
 30
0.0
  0
ENDBLK
  5
2E
100
AcDbEntity
  8
0
100
AcDbBlockEnd
  0
BLOCK
  5
AA
100
AcDbEntity
  8
0
100
AcDbBlockBegin
  2
*D10
 70
     1
 10
0.0
 20
0.0
 30
0.0
  3
*D10
  1

  0
LINE
  5
9E
100
AcDbEntity
  8
0
  6
BYBLOCK
100
AcDbLine
 10
1623.132687
 20
1046.996493
 30
0.0
 11
1623.132687
 21
1132.268176
 31
0.0
  0
LINE
  5
9F
100
AcDbEntity
  8
0
  6
BYBLOCK
100
AcDbLine
 10
1626.132687
 20
1049.996493
 30
0.0
 11
1626.132687
 21
1132.268176
 31
0.0
  0
LINE
  5
A0
100
AcDbEntity
  8
0
  6
BYBLOCK
100
AcDbLine
 10
1608.132687
 20
1126.268176
 30
0.0
 11
1593.132687
 21
1126.268176
 31
0.0
  0
LINE
  5
A1
100
AcDbEntity
  8
0
  6
BYBLOCK
100
AcDbLine
 10
1641.132687
 20
1126.268176
 30
0.0
 11
1656.132687
 21
1126.268176
 31
0.0
  0
MTEXT
  5
A2
100
AcDbEntity
  8
0
  6
BYBLOCK
 62
     5
100
AcDbMText
 10
1637.518401
 20
1142.018176
 30
0.0
 40
19.32
 41
0.0
 71
     5
 72
     1
  1
\A1;3
  0
LINE
  5
A3
100
AcDbEntity
  8
0
  6
BYBLOCK
100
AcDbLine
 10
1623.132687
 20
1126.268176
 30
0.0
 11
1626.132687
 21
1126.268176
 31
0.0
  0
LINE
  5
A4
100
AcDbEntity
  8
0
  6
BYBLOCK
100
AcDbLine
 10
1623.132687
 20
1126.268176
 30
0.0
 11
1626.132687
 21
1126.268176
 31
0.0
  0
SOLID
  5
A5
100
AcDbEntity
  8
0
  6
BYBLOCK
100
AcDbTrace
 10
1608.132687
 20
1128.768176
 30
0.0
 11
1608.132687
 21
1123.768176
 31
0.0
 12
1623.132687
 22
1126.268176
 32
0.0
 13
1623.132687
 23
1126.268176
 33
0.0
  0
SOLID
  5
A6
100
AcDbEntity
  8
0
  6
BYBLOCK
100
AcDbTrace
 10
1641.132687
 20
1128.768176
 30
0.0
 11
1641.132687
 21
1123.768176
 31
0.0
 12
1626.132687
 22
1126.268176
 32
0.0
 13
1626.132687
 23
1126.268176
 33
0.0
  0
POINT
  5
A7
100
AcDbEntity
  8
DEFPOINTS
  6
BYBLOCK
 62
     0
100
AcDbPoint
 10
1623.132687
 20
1043.996493
 30
0.0
  0
POINT
  5
A8
100
AcDbEntity
  8
DEFPOINTS
  6
BYBLOCK
 62
     0
100
AcDbPoint
 10
1626.132687
 20
1046.996493
 30
0.0
  0
POINT
  5
A9
100
AcDbEntity
  8
DEFPOINTS
  6
BYBLOCK
 62
     0
100
AcDbPoint
 10
1626.132687
 20
1126.268176
 30
0.0
  0
ENDBLK
  5
AB
100
AcDbEntity
  8
0
100
AcDbBlockEnd
  0
BLOCK
  5
F2
100
AcDbEntity
  8
0
100
AcDbBlockBegin
  2
*D11
 70
     1
 10
0.0
 20
0.0
 30
0.0
  3
*D11
  1

  0
LINE
  5
E7
100
AcDbEntity
  8
0
  6
BYBLOCK
100
AcDbLine
 10
2096.082687
 20
1091.996493
 30
0.0
 11
2096.082687
 21
1132.268176
 31
0.0
  0
LINE
  5
E8
100
AcDbEntity
  8
0
  6
BYBLOCK
100
AcDbLine
 10
2085.082687
 20
1091.996493
 30
0.0
 11
2085.082687
 21
1132.268176
 31
0.0
  0
LINE
  5
E9
100
AcDbEntity
  8
0
  6
BYBLOCK
100
AcDbLine
 10
2111.082687
 20
1126.268176
 30
0.0
 11
2126.082687
 21
1126.268176
 31
0.0
  0
LINE
  5
EA
100
AcDbEntity
  8
0
  6
BYBLOCK
100
AcDbLine
 10
2070.082687
 20
1126.268176
 30
0.0
 11
2055.082687
 21
1126.268176
 31
0.0
  0
LINE
  5
EB
100
AcDbEntity
  8
0
  6
BYBLOCK
100
AcDbLine
 10
2096.082687
 20
1126.268176
 30
0.0
 11
2085.082687
 21
1126.268176
 31
0.0
  0
SOLID
  5
EC
100
AcDbEntity
  8
0
  6
BYBLOCK
100
AcDbTrace
 10
2111.082687
 20
1128.768176
 30
0.0
 11
2111.082687
 21
1123.768176
 31
0.0
 12
2096.082687
 22
1126.268176
 32
0.0
 13
2096.082687
 23
1126.268176
 33
0.0
  0
SOLID
  5
ED
100
AcDbEntity
  8
0
  6
BYBLOCK
100
AcDbTrace
 10
2070.082687
 20
1128.768176
 30
0.0
 11
2070.082687
 21
1123.768176
 31
0.0
 12
2085.082687
 22
1126.268176
 32
0.0
 13
2085.082687
 23
1126.268176
 33
0.0
  0
MTEXT
  5
EE
100
AcDbEntity
  8
0
  6
BYBLOCK
 62
     5
100
AcDbMText
 10
2090.582687
 20
1141.928176
 30
0.0
 40
19.32
 41
0.0
 71
     5
 72
     1
  1
\A1;11
  0
POINT
  5
EF
100
AcDbEntity
  8
DEFPOINTS
  6
BYBLOCK
 62
     0
100
AcDbPoint
 10
2096.082687
 20
1088.996493
 30
0.0
  0
POINT
  5
F0
100
AcDbEntity
  8
DEFPOINTS
  6
BYBLOCK
 62
     0
100
AcDbPoint
 10
2085.082687
 20
1088.996493
 30
0.0
  0
POINT
  5
F1
100
AcDbEntity
  8
DEFPOINTS
  6
BYBLOCK
 62
     0
100
AcDbPoint
 10
2085.082687
 20
1126.268176
 30
0.0
  0
ENDBLK
  5
F3
100
AcDbEntity
  8
0
100
AcDbBlockEnd
  0
BLOCK
  5
6C
100
AcDbEntity
  8
0
100
AcDbBlockBegin
  2
*D12
 70
     1
 10
0.0
 20
0.0
 30
0.0
  3
*D12
  1

  0
LINE
  5
61
100
AcDbEntity
  8
0
  6
BYBLOCK
100
AcDbLine
 10
1414.482687
 20
1091.996493
 30
0.0
 11
1414.482687
 21
1132.268176
 31
0.0
  0
LINE
  5
62
100
AcDbEntity
  8
0
  6
BYBLOCK
100
AcDbLine
 10
1444.482687
 20
1091.996493
 30
0.0
 11
1444.482687
 21
1132.268176
 31
0.0
  0
LINE
  5
63
100
AcDbEntity
  8
0
  6
BYBLOCK
100
AcDbLine
 10
1399.482687
 20
1126.268176
 30
0.0
 11
1384.482687
 21
1126.268176
 31
0.0
  0
LINE
  5
64
100
AcDbEntity
  8
0
  6
BYBLOCK
100
AcDbLine
 10
1459.482687
 20
1126.268176
 30
0.0
 11
1474.482687
 21
1126.268176
 31
0.0
  0
LINE
  5
65
100
AcDbEntity
  8
0
  6
BYBLOCK
100
AcDbLine
 10
1414.482687
 20
1126.268176
 30
0.0
 11
1444.482687
 21
1126.268176
 31
0.0
  0
SOLID
  5
66
100
AcDbEntity
  8
0
  6
BYBLOCK
100
AcDbTrace
 10
1399.482687
 20
1128.768176
 30
0.0
 11
1399.482687
 21
1123.768176
 31
0.0
 12
1414.482687
 22
1126.268176
 32
0.0
 13
1414.482687
 23
1126.268176
 33
0.0
  0
SOLID
  5
67
100
AcDbEntity
  8
0
  6
BYBLOCK
100
AcDbTrace
 10
1459.482687
 20
1128.768176
 30
0.0
 11
1459.482687
 21
1123.768176
 31
0.0
 12
1444.482687
 22
1126.268176
 32
0.0
 13
1444.482687
 23
1126.268176
 33
0.0
  0
MTEXT
  5
68
100
AcDbEntity
  8
0
  6
BYBLOCK
 62
     5
100
AcDbMText
 10
1429.482687
 20
1141.928176
 30
0.0
 40
19.32
 41
0.0
 71
     5
 72
     1
  1
\A1;30
  0
POINT
  5
69
100
AcDbEntity
  8
DEFPOINTS
  6
BYBLOCK
 62
     0
100
AcDbPoint
 10
1414.482687
 20
1088.996493
 30
0.0
  0
POINT
  5
6A
100
AcDbEntity
  8
DEFPOINTS
  6
BYBLOCK
 62
     0
100
AcDbPoint
 10
1444.482687
 20
1088.996493
 30
0.0
  0
POINT
  5
6B
100
AcDbEntity
  8
DEFPOINTS
  6
BYBLOCK
 62
     0
100
AcDbPoint
 10
1444.482687
 20
1126.268176
 30
0.0
  0
ENDBLK
  5
6D
100
AcDbEntity
  8
0
100
AcDbBlockEnd
  0
BLOCK
  5
7D
100
AcDbEntity
  8
0
100
AcDbBlockBegin
  2
*D13
 70
     1
 10
0.0
 20
0.0
 30
0.0
  3
*D13
  1

  0
LINE
  5
72
100
AcDbEntity
  8
0
  6
BYBLOCK
100
AcDbLine
 10
1777.782687
 20
1091.996493
 30
0.0
 11
1777.782687
 21
1132.268176
 31
0.0
  0
LINE
  5
73
100
AcDbEntity
  8
0
  6
BYBLOCK
100
AcDbLine
 10
1795.282687
 20
1046.996493
 30
0.0
 11
1795.282687
 21
1132.268176
 31
0.0
  0
LINE
  5
74
100
AcDbEntity
  8
0
  6
BYBLOCK
100
AcDbLine
 10
1762.782687
 20
1126.268176
 30
0.0
 11
1747.782687
 21
1126.268176
 31
0.0
  0
LINE
  5
75
100
AcDbEntity
  8
0
  6
BYBLOCK
100
AcDbLine
 10
1810.282687
 20
1126.268176
 30
0.0
 11
1825.282687
 21
1126.268176
 31
0.0
  0
LINE
  5
76
100
AcDbEntity
  8
0
  6
BYBLOCK
100
AcDbLine
 10
1777.782687
 20
1126.268176
 30
0.0
 11
1795.282687
 21
1126.268176
 31
0.0
  0
SOLID
  5
77
100
AcDbEntity
  8
0
  6
BYBLOCK
100
AcDbTrace
 10
1762.782687
 20
1128.768176
 30
0.0
 11
1762.782687
 21
1123.768176
 31
0.0
 12
1777.782687
 22
1126.268176
 32
0.0
 13
1777.782687
 23
1126.268176
 33
0.0
  0
SOLID
  5
78
100
AcDbEntity
  8
0
  6
BYBLOCK
100
AcDbTrace
 10
1810.282687
 20
1128.768176
 30
0.0
 11
1810.282687
 21
1123.768176
 31
0.0
 12
1795.282687
 22
1126.268176
 32
0.0
 13
1795.282687
 23
1126.268176
 33
0.0
  0
MTEXT
  5
79
100
AcDbEntity
  8
0
  6
BYBLOCK
 62
     5
100
AcDbMText
 10
1786.532687
 20
1143.768176
 30
0.0
 40
19.32
 41
0.0
 71
     5
 72
     1
  1
\A1;17,5
  0
POINT
  5
7A
100
AcDbEntity
  8
DEFPOINTS
  6
BYBLOCK
 62
     0
100
AcDbPoint
 10
1777.782687
 20
1088.996493
 30
0.0
  0
POINT
  5
7B
100
AcDbEntity
  8
DEFPOINTS
  6
BYBLOCK
 62
     0
100
AcDbPoint
 10
1795.282687
 20
1043.996493
 30
0.0
  0
POINT
  5
7C
100
AcDbEntity
  8
DEFPOINTS
  6
BYBLOCK
 62
     0
100
AcDbPoint
 10
1795.282687
 20
1126.268176
 30
0.0
  0
ENDBLK
  5
7E
100
AcDbEntity
  8
0
100
AcDbBlockEnd
  0
ENDSEC
  0
SECTION
  2
ENTITIES
  0
DIMENSION
  5
1E
100
AcDbEntity
  8
KOTY-UPLNE
100
AcDbDimension
  2
*D9
 10
622.805297
 20
-111.074478
 30
0.0
 11
606.228653
 21
-95.324478
 31
0.0
 12
-943.32739
 22
-1237.342654
 32
0.0
 70
   128
  3
UPLNE
100
AcDbAlignedDimension
 13
625.805297
 23
-193.346161
 33
0.0
 14
622.805297
 24
-190.346161
 34
0.0
100
AcDbRotatedDimension
1001
ACAD
1000
DSTYLE
1002
{
1070
    40
1040
3.0
1070
   147
1040
2.0
1002
}
  0
DIMENSION
  5
2F
100
AcDbEntity
  8
KOTY-UPLNE
100
AcDbDimension
  2
*D1
 10
152.855297
 20
-306.877373
 30
0.0
 11
652.805297
 21
-291.217373
 31
0.0
 12
-943.32739
 22
-1237.342654
 32
0.0
  3
UPLNE
100
AcDbAlignedDimension
 13
1152.755297
 23
-148.346161
 33
0.0
 14
152.855297
 24
-148.346161
 34
0.0
100
AcDbRotatedDimension
1001
ACAD
1000
DSTYLE
1002
{
1070
    40
1040
3.0
1070
   147
1040
2.0
1002
}
  0
LWPOLYLINE
  5
3C
100
AcDbEntity
  8
TRAPEZ-VELKY
100
AcDbPolyline
 90
       84
 70
     0
 43
5.0
 10
1171.430297
 20
-157.794928
 10
1168.994985
 20
-151.532697
 42
0.30931
 10
1164.334962
 20
-148.344928
 10
1152.755297
 20
-148.344928
 10
1143.301848
 20
-148.344928
 42
0.151123
 10
1140.478832
 20
-149.218116
 10
1137.581977
 20
-151.199759
 42
0.151123
 10
1135.74497
 20
-153.51434
 10
1121.494985
 20
-190.157159
 42
-0.30931
 10
1116.834962
 20
-193.344928
 10
1068.326365
 20
-193.344928
 42
-0.198912
 10
1064.790831
 20
-191.880462
 10
1064.719763
 20
-191.809394
 42
0.198912
 10
1061.184229
 20
-190.344928
 10
1018.176365
 20
-190.344928
 42
0.198912
 10
1014.640831
 20
-191.809394
 10
1014.569763
 20
-191.880462
 42
-0.198912
 10
1011.034229
 20
-193.344928
 10
961.176365
 20
-193.344928
 42
-0.198912
 10
957.640831
 20
-191.880462
 10
957.569763
 20
-191.809394
 42
0.198912
 10
954.034229
 20
-190.344928
 10
911.026365
 20
-190.344928
 42
0.198912
 10
907.490831
 20
-191.809394
 10
907.419763
 20
-191.880462
 42
-0.198912
 10
903.884229
 20
-193.344928
 10
855.375633
 20
-193.344928
 42
-0.30931
 10
850.715609
 20
-190.157159
 10
835.694985
 20
-151.532697
 42
0.30931
 10
831.034962
 20
-148.344928
 10
819.455297
 20
-148.344928
 10
807.875633
 20
-148.344928
 42
0.30931
 10
803.215609
 20
-151.532697
 10
788.194985
 20
-190.157159
 42
-0.30931
 10
783.534962
 20
-193.344928
 10
735.026365
 20
-193.344928
 42
-0.198912
 10
731.490831
 20
-191.880462
 10
731.419763
 20
-191.809394
 42
0.198912
 10
727.884229
 20
-190.344928
 10
684.876365
 20
-190.344928
 42
0.198912
 10
681.340831
 20
-191.809394
 10
681.269763
 20
-191.880462
 42
-0.198912
 10
677.734229
 20
-193.344928
 10
627.876365
 20
-193.344928
 42
-0.198912
 10
624.340831
 20
-191.880462
 10
624.269763
 20
-191.809394
 42
0.198912
 10
620.734229
 20
-190.344928
 10
577.726365
 20
-190.344928
 42
0.198912
 10
574.190831
 20
-191.809394
 10
574.119763
 20
-191.880462
 42
-0.198912
 10
570.584229
 20
-193.344928
 10
522.075633
 20
-193.344928
 42
-0.30931
 10
517.415609
 20
-190.157159
 10
502.394985
 20
-151.532697
 42
0.30931
 10
497.734962
 20
-148.344928
 10
486.155297
 20
-148.344928
 10
474.575633
 20
-148.344928
 42
0.30931
 10
469.915609
 20
-151.532697
 10
454.894985
 20
-190.157159
 42
-0.30931
 10
450.234962
 20
-193.344928
 10
401.726365
 20
-193.344928
 42
-0.198912
 10
398.190831
 20
-191.880462
 10
398.119763
 20
-191.809394
 42
0.198912
 10
394.584229
 20
-190.344928
 10
351.576365
 20
-190.344928
 42
0.198912
 10
348.040831
 20
-191.809394
 10
347.969763
 20
-191.880462
 42
-0.198912
 10
344.434229
 20
-193.344928
 10
294.576365
 20
-193.344928
 42
-0.198912
 10
291.040831
 20
-191.880462
 10
290.969763
 20
-191.809394
 42
0.198912
 10
287.434229
 20
-190.344928
 10
244.426365
 20
-190.344928
 42
0.198912
 10
240.890831
 20
-191.809394
 10
240.819763
 20
-191.880462
 42
-0.198912
 10
237.284229
 20
-193.344928
 10
188.775633
 20
-193.344928
 42
-0.30931
 10
184.115609
 20
-190.157159
 10
169.094985
 20
-151.532697
 42
0.30931
 10
164.434962
 20
-148.344928
 10
152.855297
 20
-148.344928
 10
141.275633
 20
-148.344928
 42
0.30931
 10
136.615609
 20
-151.532697
 10
132.605297
 20
-161.844928
  0
MTEXT
  5
3E
100
AcDbEntity
  8
POPIS
100
AcDbMText
 10
661.730741
 20
-42.124031
 30
0.0
 40
40.0
 41
1.0
 71
     5
 72
     1
  1
TR 45/333
  7
STYLE1
  0
LWPOLYLINE
  5
41
100
AcDbEntity
  8
RAMEC
100
AcDbPolyline
 90
        4
 70
     1
 43
0.0
 10
0.0
 20
0.0
 10
0.0
 20
-364.001233
 10
1349.672502
 20
-364.001233
 10
1349.672502
 20
0.0
  0
DIMENSION
  5
43
100
AcDbEntity
  8
KOTY-UPLNE
100
AcDbDimension
  2
*D8
 10
471.155297
 20
-111.074478
 30
0.0
 11
319.505297
 21
-93.574478
 31
0.0
 12
-943.32739
 22
-1237.342654
 32
0.0
  1
303,3
  3
UPLNE
100
AcDbAlignedDimension
 13
167.855297
 23
-148.346161
 33
0.0
 14
471.155297
 24
-148.346161
 34
0.0
100
AcDbRotatedDimension
1001
ACAD
1000
DSTYLE
1002
{
1070
    40
1040
3.0
1070
   147
1040
2.0
1002
}
  0
DIMENSION
  5
50
100
AcDbEntity
  8
KOTY-UPLNE
100
AcDbDimension
  2
*D2
 10
486.155297
 20
-254.884928
 30
0.0
 11
319.505297
 21
-237.384928
 31
0.0
 12
-943.32739
 22
-1237.342654
 32
0.0
  1
333,3
  3
UPLNE
100
AcDbAlignedDimension
 13
152.855297
 23
-148.346161
 33
0.0
 14
486.155297
 24
-148.346161
 34
0.0
100
AcDbRotatedDimension
1001
ACAD
1000
DSTYLE
1002
{
1070
    40
1040
3.0
1070
   147
1040
2.0
1002
}
  0
MTEXT
  5
5D
102
{ACAD_REACTORS
330
5E
102
}
100
AcDbEntity
  8
KOTY-UPLNE
 62
     5
100
AcDbMText
 10
413.110336
 20
-143.740746
 30
0.0
 40
16.5
 41
0.0
 71
     6
 72
     1
  1
\A1;R=5
  0
LEADER
  5
5E
100
AcDbEntity
  8
KOTY-UPLNE
100
AcDbLeader
  3
UPLNE
 73
     0
 75
     1
 40
16.5
 41
43.135714
 76
     3
 10
453.655297
 20
-193.346161
 30
0.0
 10
434.110336
 20
-157.990746
 30
0.0
 10
419.110336
 20
-157.990746
 30
0.0
 77
   256
340
5D
1001
ACAD
1000
DSTYLE
1002
{
1070
    40
1040
3.0
1070
   147
1040
2.0
1002
}
  0
DIMENSION
  5
5F
100
AcDbEntity
  8
KOTY-UPLNE
100
AcDbDimension
  2
*D12
 10
501.155297
 20
-111.074478
 30
0.0
 11
486.155297
 21
-95.414478
 31
0.0
 12
-943.32739
 22
-1237.342654
 32
0.0
  3
UPLNE
100
AcDbAlignedDimension
 13
471.155297
 23
-148.346161
 33
0.0
 14
501.155297
 24
-148.346161
 34
0.0
100
AcDbRotatedDimension
1001
ACAD
1000
DSTYLE
1002
{
1070
    40
1040
3.0
1070
   147
1040
2.0
1002
}
  0
MTEXT
  5
6E
102
{ACAD_REACTORS
330
6F
102
}
100
AcDbEntity
  8
KOTY-UPLNE
 62
     5
100
AcDbMText
 10
530.933668
 20
-219.524727
 30
0.0
 40
16.5
 41
0.0
 71
     4
 72
     1
  1
\A1;R=5
  0
LEADER
  5
6F
100
AcDbEntity
  8
KOTY-UPLNE
100
AcDbLeader
  3
UPLNE
 73
     0
 74
     0
 75
     1
 40
16.5
 41
43.135714
 76
     3
 10
471.155297
 20
-148.346161
 30
0.0
 10
509.933668
 20
-233.774727
 30
0.0
 10
524.933668
 20
-233.774727
 30
0.0
 77
   256
340
6E
1001
ACAD
1000
DSTYLE
1002
{
1070
    40
1040
3.0
1070
   147
1040
2.0
1002
}
  0
DIMENSION
  5
70
100
AcDbEntity
  8
KOTY-UPLNE
100
AcDbDimension
  2
*D13
 10
851.955297
 20
-111.074478
 30
0.0
 11
843.205297
 21
-93.574478
 31
0.0
 12
-943.32739
 22
-1237.342654
 32
0.0
  1
17,5
  3
UPLNE
100
AcDbAlignedDimension
 13
834.455297
 23
-148.346161
 33
0.0
 14
851.955297
 24
-193.346161
 34
0.0
100
AcDbRotatedDimension
1001
ACAD
1000
DSTYLE
1002
{
1070
    40
1040
3.0
1070
   147
1040
2.0
1002
}
  0
DIMENSION
  5
7F
100
AcDbEntity
  8
KOTY-UPLNE
100
AcDbDimension
  2
*D7
 10
851.955297
 20
-254.884928
 30
0.0
 11
819.455297
 21
-239.224928
 31
0.0
 12
-943.32739
 22
-1237.342654
 32
0.0
  3
UPLNE
100
AcDbAlignedDimension
 13
786.955297
 23
-193.346161
 33
0.0
 14
851.955297
 24
-193.346161
 34
0.0
100
AcDbRotatedDimension
1001
ACAD
1000
DSTYLE
1002
{
1070
    40
1040
3.0
1070
   147
1040
2.0
1002
}
  0
DIMENSION
  5
8C
100
AcDbEntity
  8
KOTY-UPLNE
100
AcDbDimension
  2
*D6
 10
822.572682
 20
-193.346161
 30
0.0
 11
806.822682
 21
-212.755405
 31
0.0
 12
-943.32739
 22
-1237.342654
 32
0.0
 70
   128
  3
UPLNE
100
AcDbAlignedDimension
 13
729.955297
 23
-190.346161
 33
0.0
 14
732.955297
 24
-193.346161
 34
0.0
 50
90.0
100
AcDbRotatedDimension
1001
ACAD
1000
DSTYLE
1002
{
1070
    40
1040
3.0
1070
   147
1040
2.0
1002
}
  0
DIMENSION
  5
9C
100
AcDbEntity
  8
KOTY-UPLNE
100
AcDbDimension
  2
*D10
 10
682.805297
 20
-111.074478
 30
0.0
 11
694.19101
 21
-95.324478
 31
0.0
 12
-943.32739
 22
-1237.342654
 32
0.0
 70
   128
  3
UPLNE
100
AcDbAlignedDimension
 13
679.805297
 23
-193.346161
 33
0.0
 14
682.805297
 24
-190.346161
 34
0.0
100
AcDbRotatedDimension
1001
ACAD
1000
DSTYLE
1002
{
1070
    40
1040
3.0
1070
   147
1040
2.0
1002
}
  0
DIMENSION
  5
AC
100
AcDbEntity
  8
KOTY-UPLNE
100
AcDbDimension
  2
*D4
 10
625.805297
 20
-111.074478
 30
0.0
 11
652.805297
 21
-95.414478
 31
0.0
 12
-943.32739
 22
-1237.342654
 32
0.0
  3
UPLNE
100
AcDbAlignedDimension
 13
679.805297
 23
-193.346161
 33
0.0
 14
625.805297
 24
-193.346161
 34
0.0
100
AcDbRotatedDimension
1001
ACAD
1000
DSTYLE
1002
{
1070
    40
1040
3.0
1070
   147
1040
2.0
1002
}
  0
DIMENSION
  5
B9
100
AcDbEntity
  8
KOTY-UPLNE
100
AcDbDimension
  2
*D3
 10
732.955297
 20
-111.074478
 30
0.0
 11
759.955297
 21
-95.414478
 31
0.0
 12
-943.32739
 22
-1237.342654
 32
0.0
  3
UPLNE
100
AcDbAlignedDimension
 13
786.955297
 23
-193.346161
 33
0.0
 14
732.955297
 24
-193.346161
 34
0.0
100
AcDbRotatedDimension
1001
ACAD
1000
DSTYLE
1002
{
1070
    40
1040
3.0
1070
   147
1040
2.0
1002
}
  0
DIMENSION
  5
C6
100
AcDbEntity
  8
KOTY-UPLNE
100
AcDbDimension
  2
*D5
 10
729.955297
 20
-254.884928
 30
0.0
 11
706.380297
 21
-237.384928
 31
0.0
 12
-943.32739
 22
-1237.342654
 32
0.0
  1
47,15
  3
UPLNE
100
AcDbAlignedDimension
 13
682.805297
 23
-190.346161
 33
0.0
 14
729.955297
 24
-190.346161
 34
0.0
100
AcDbRotatedDimension
1001
ACAD
1000
DSTYLE
1002
{
1070
    40
1040
3.0
1070
   147
1040
2.0
1002
}
  0
MTEXT
  5
D5
100
AcDbEntity
  8
POZICE
100
AcDbMText
 10
999.770461
 20
-144.476318
 30
0.0
 40
41.73
 41
1.0
 71
     5
 72
     1
  1
A
  7
STYLE1
  0
MTEXT
  5
D7
100
AcDbEntity
  8
POZICE
100
AcDbMText
 10
999.770461
 20
-239.576314
 30
0.0
 40
41.73
 41
1.0
 71
     5
 72
     1
  1
B
  7
STYLE1
  0
DIMENSION
  5
D8
100
AcDbEntity
  8
KOTY-UPLNE
100
AcDbDimension
  2
*D0
 10
1278.17332
 20
-148.346161
 30
0.0
 11
1262.51332
 21
-170.846161
 31
0.0
 12
-943.32739
 22
-1237.342654
 32
0.0
  3
UPLNE
100
AcDbAlignedDimension
 13
1120.255297
 23
-193.346161
 33
0.0
 14
1167.755297
 24
-148.346161
 34
0.0
 50
90.0
100
AcDbRotatedDimension
1001
ACAD
1000
DSTYLE
1002
{
1070
    40
1040
3.0
1070
   147
1040
2.0
1002
}
  0
DIMENSION
  5
E5
100
AcDbEntity
  8
KOTY-UPLNE
100
AcDbDimension
  2
*D11
 10
1141.755297
 20
-111.074478
 30
0.0
 11
1147.255297
 21
-95.414478
 31
0.0
 12
-943.32739
 22
-1237.342654
 32
0.0
  3
UPLNE
100
AcDbAlignedDimension
 13
1152.755297
 23
-148.346161
 33
0.0
 14
1141.755297
 24
-148.346161
 34
0.0
100
AcDbRotatedDimension
1001
ACAD
1000
DSTYLE
1002
{
1070
    40
1040
3.0
1070
   147
1040
2.0
1002
}
  0
ENDSEC
  0
SECTION
  2
OBJECTS
  0
DICTIONARY
  5
1A
100
AcDbDictionary
  3
ACAD_GROUP
350
18
  3
ACAD_MLINESTYLE
350
19
  0
DICTIONARY
  5
18
102
{ACAD_REACTORS
330
1A
102
}
100
AcDbDictionary
  0
DICTIONARY
  5
19
102
{ACAD_REACTORS
330
1A
102
}
100
AcDbDictionary
  3
STANDARD
350
1C
  0
MLINESTYLE
  5
1C
102
{ACAD_REACTORS
330
19
102
}
100
AcDbMlineStyle
  2
STANDARD
 70
     0
  3

 62
   256
 51
90.0
 52
90.0
 71
     2
 49
0.5
 62
   256
  6
BYLAYER
 49
-0.5
 62
   256
  6
BYLAYER
  0
ENDSEC
  0
EOF
