  0
SECTION
  2
HEADER
  9
$ACADVER
  1
AC1014
  9
$ACADMAINTVER
 70
     0
  9
$DWGCODEPAGE
  3
ANSI_1250
  9
$INSBASE
 10
0.0
 20
0.0
 30
0.0
  9
$EXTMIN
 10
0.0
 20
0.0
 30
0.0
  9
$EXTMAX
 10
1349.672502
 20
358.001233
 30
0.0
  9
$LIMMIN
 10
-1000.0
 20
-1000.0
  9
$LIMMAX
 10
1000.0
 20
1000.0
  9
$ORTHOMODE
 70
     1
  9
$REGENMODE
 70
     1
  9
$FILLMODE
 70
     1
  9
$QTEXTMODE
 70
     0
  9
$MIRRTEXT
 70
     0
  9
$DRAGMODE
 70
     2
  9
$LTSCALE
 40
3.0
  9
$OSMODE
 70
    43
  9
$ATTMODE
 70
     1
  9
$TEXTSIZE
 40
50.0
  9
$TRACEWID
 40
0.05
  9
$TEXTSTYLE
  7
STANDARD
  9
$CLAYER
  8
0
  9
$CELTYPE
  6
BYLAYER
  9
$CECOLOR
 62
   256
  9
$CELTSCALE
 40
1.0
  9
$DELOBJ
 70
     1
  9
$DISPSILH
 70
     0
  9
$DIMSCALE
 40
3.0
  9
$DIMASZ
 40
5.0
  9
$DIMEXO
 40
1.0
  9
$DIMDLI
 40
0.0
  9
$DIMRND
 40
0.01
  9
$DIMDLE
 40
1.0
  9
$DIMEXE
 40
2.0
  9
$DIMTP
 40
0.0
  9
$DIMTM
 40
0.0
  9
$DIMTXT
 40
6.44
  9
$DIMCEN
 40
1.0
  9
$DIMTSZ
 40
0.0
  9
$DIMTOL
 70
     0
  9
$DIMLIM
 70
     0
  9
$DIMTIH
 70
     0
  9
$DIMTOH
 70
     0
  9
$DIMSE1
 70
     0
  9
$DIMSE2
 70
     0
  9
$DIMTAD
 70
     3
  9
$DIMZIN
 70
     0
  9
$DIMBLK
  1

  9
$DIMASO
 70
     1
  9
$DIMSHO
 70
     0
  9
$DIMPOST
  1

  9
$DIMAPOST
  1

  9
$DIMALT
 70
     0
  9
$DIMALTD
 70
     2
  9
$DIMALTF
 40
25.4
  9
$DIMLFAC
 40
1.0
  9
$DIMTOFL
 70
     1
  9
$DIMTVP
 40
0.0
  9
$DIMTIX
 70
     1
  9
$DIMSOXD
 70
     0
  9
$DIMSAH
 70
     0
  9
$DIMBLK1
  1

  9
$DIMBLK2
  1

  9
$DIMSTYLE
  2
UPLNE
  9
$DIMCLRD
 70
   256
  9
$DIMCLRE
 70
   256
  9
$DIMCLRT
 70
     5
  9
$DIMTFAC
 40
1.0
  9
$DIMGAP
 40
1.0
  9
$DIMJUST
 70
     0
  9
$DIMSD1
 70
     0
  9
$DIMSD2
 70
     0
  9
$DIMTOLJ
 70
     1
  9
$DIMTZIN
 70
     0
  9
$DIMALTZ
 70
     0
  9
$DIMALTTZ
 70
     0
  9
$DIMFIT
 70
     5
  9
$DIMUPT
 70
     0
  9
$DIMUNIT
 70
     2
  9
$DIMDEC
 70
     0
  9
$DIMTDEC
 70
     2
  9
$DIMALTU
 70
     2
  9
$DIMALTTD
 70
     2
  9
$DIMTXSTY
  7
STANDARD
  9
$DIMAUNIT
 70
     0
  9
$LUNITS
 70
     2
  9
$LUPREC
 70
     2
  9
$SKETCHINC
 40
0.1
  9
$FILLETRAD
 40
3.0
  9
$AUNITS
 70
     0
  9
$AUPREC
 70
     2
  9
$MENU
  1
acad
  9
$ELEVATION
 40
0.0
  9
$PELEVATION
 40
0.0
  9
$THICKNESS
 40
0.0
  9
$LIMCHECK
 70
     0
  9
$BLIPMODE
 70
     1
  9
$CHAMFERA
 40
0.0
  9
$CHAMFERB
 40
0.0
  9
$CHAMFERC
 40
0.0
  9
$CHAMFERD
 40
0.0
  9
$SKPOLY
 70
     0
  9
$TDCREATE
 40
2448722.252204629
  9
$TDUPDATE
 40
2452898.950287847
  9
$TDINDWG
 40
2.7692122685
  9
$TDUSRTIMER
 40
2.7692122685
  9
$USRTIMER
 70
     1
  9
$ANGBASE
 50
0.0
  9
$ANGDIR
 70
     0
  9
$PDMODE
 70
     0
  9
$PDSIZE
 40
0.0
  9
$PLINEWID
 40
0.0
  9
$COORDS
 70
     2
  9
$SPLFRAME
 70
     0
  9
$SPLINETYPE
 70
     6
  9
$SPLINESEGS
 70
     8
  9
$ATTDIA
 70
     0
  9
$ATTREQ
 70
     1
  9
$HANDLING
 70
     1
  9
$HANDSEED
  5
EC
  9
$SURFTAB1
 70
     6
  9
$SURFTAB2
 70
     6
  9
$SURFTYPE
 70
     6
  9
$SURFU
 70
     6
  9
$SURFV
 70
     6
  9
$UCSNAME
  2

  9
$UCSORG
 10
0.0
 20
0.0
 30
0.0
  9
$UCSXDIR
 10
1.0
 20
0.0
 30
0.0
  9
$UCSYDIR
 10
0.0
 20
1.0
 30
0.0
  9
$PUCSNAME
  2

  9
$PUCSORG
 10
0.0
 20
0.0
 30
0.0
  9
$PUCSXDIR
 10
1.0
 20
0.0
 30
0.0
  9
$PUCSYDIR
 10
0.0
 20
1.0
 30
0.0
  9
$USERI1
 70
     1
  9
$USERI2
 70
     0
  9
$USERI3
 70
     0
  9
$USERI4
 70
     0
  9
$USERI5
 70
     0
  9
$USERR1
 40
0.0
  9
$USERR2
 40
0.0
  9
$USERR3
 40
0.0
  9
$USERR4
 40
0.0
  9
$USERR5
 40
0.0
  9
$WORLDVIEW
 70
     1
  9
$SHADEDGE
 70
     3
  9
$SHADEDIF
 70
    70
  9
$TILEMODE
 70
     1
  9
$MAXACTVP
 70
    16
  9
$PINSBASE
 10
0.0
 20
0.0
 30
0.0
  9
$PLIMCHECK
 70
     0
  9
$PEXTMIN
 10
1.000000E+20
 20
1.000000E+20
 30
1.000000E+20
  9
$PEXTMAX
 10
-1.000000E+20
 20
-1.000000E+20
 30
-1.000000E+20
  9
$PLIMMIN
 10
0.0
 20
0.0
  9
$PLIMMAX
 10
12.0
 20
9.0
  9
$UNITMODE
 70
     0
  9
$VISRETAIN
 70
     1
  9
$PLINEGEN
 70
     0
  9
$PSLTSCALE
 70
     0
  9
$TREEDEPTH
 70
  3020
  9
$PICKSTYLE
 70
     0
  9
$CMLSTYLE
  2
STANDARD
  9
$CMLJUST
 70
     0
  9
$CMLSCALE
 40
1.0
  9
$PROXYGRAPHICS
 70
     1
  9
$MEASUREMENT
 70
     0
  0
ENDSEC
  0
SECTION
  2
CLASSES
  0
CLASS
  1
LWPOLYLINE
  2
AcDbPolyline
  3
"AutoCAD"
 90
        0
280
     0
281
     1
  0
CLASS
  1
DICTIONARYVAR
  2
AcDbDictionaryVar
  3
"AutoCAD"
 90
        0
280
     0
281
     0
  0
CLASS
  1
XRECORD
  2
AcDbXrecord
  3
"<Built In>"
 90
        0
280
     0
281
     0
  0
ENDSEC
  0
SECTION
  2
TABLES
  0
TABLE
  2
VPORT
  5
12
100
AcDbSymbolTable
 70
     2
  0
VPORT
  5
EB
100
AcDbSymbolTableRecord
100
AcDbViewportTableRecord
  2
*ACTIVE
 70
     0
 10
0.0
 20
0.0
 11
1.0
 21
1.0
 12
647.576984
 22
273.597346
 13
0.0
 23
0.0
 14
1.0
 24
1.0
 15
600.0
 25
600.0
 16
0.0
 26
0.0
 36
1.0
 17
0.0
 27
0.0
 37
0.0
 40
805.830317
 41
2.059548
 42
50.0
 43
0.0
 44
0.0
 50
0.0
 51
0.0
 71
     0
 72
   100
 73
     1
 74
     0
 75
     0
 76
     0
 77
     0
 78
     0
  0
ENDTAB
  0
TABLE
  2
LTYPE
  5
D
100
AcDbSymbolTable
 70
     1
  0
LTYPE
  5
E
100
AcDbSymbolTableRecord
100
AcDbLinetypeTableRecord
  2
BYBLOCK
 70
     0
  3

 72
    65
 73
     0
 40
0.0
  0
LTYPE
  5
F
100
AcDbSymbolTableRecord
100
AcDbLinetypeTableRecord
  2
BYLAYER
 70
     0
  3

 72
    65
 73
     0
 40
0.0
  0
LTYPE
  5
5
100
AcDbSymbolTableRecord
100
AcDbLinetypeTableRecord
  2
CONTINUOUS
 70
     0
  3
Solid line
 72
    65
 73
     0
 40
0.0
  0
ENDTAB
  0
TABLE
  2
LAYER
  5
A
100
AcDbSymbolTable
 70
     7
  0
LAYER
  5
4
100
AcDbSymbolTableRecord
100
AcDbLayerTableRecord
  2
0
 70
     0
 62
     7
  6
CONTINUOUS
  0
LAYER
  5
1E
100
AcDbSymbolTableRecord
100
AcDbLayerTableRecord
  2
KOTY-UPLNE
 70
     0
 62
     7
  6
CONTINUOUS
  0
LAYER
  5
3C
100
AcDbSymbolTableRecord
100
AcDbLayerTableRecord
  2
RAMEC
 70
     0
 62
     5
  6
CONTINUOUS
  0
LAYER
  5
4C
100
AcDbSymbolTableRecord
100
AcDbLayerTableRecord
  2
POZICE
 70
     0
 62
     1
  6
CONTINUOUS
  0
LAYER
  5
5C
100
AcDbSymbolTableRecord
100
AcDbLayerTableRecord
  2
POPIS
 70
     0
 62
     1
  6
CONTINUOUS
  0
LAYER
  5
27
100
AcDbSymbolTableRecord
100
AcDbLayerTableRecord
  2
DEFPOINTS
 70
     0
 62
     7
  6
CONTINUOUS
  0
LAYER
  5
3A
100
AcDbSymbolTableRecord
100
AcDbLayerTableRecord
  2
TRAPEZ-VELKY
 70
     0
 62
     7
  6
CONTINUOUS
  0
ENDTAB
  0
TABLE
  2
STYLE
  5
B
100
AcDbSymbolTable
 70
     2
  0
STYLE
  5
C
100
AcDbSymbolTableRecord
100
AcDbTextStyleTableRecord
  2
STANDARD
 70
     0
 40
0.0
 41
0.9
 50
0.0
 71
     0
 42
50.0
  3
simplex.shx
  4

  0
STYLE
  5
4D
100
AcDbSymbolTableRecord
100
AcDbTextStyleTableRecord
  2
STYLE1
 70
     0
 40
0.0
 41
0.9
 50
0.0
 71
     0
 42
50.0
  3
simplex.shx
  4

  0
ENDTAB
  0
TABLE
  2
VIEW
  5
10
100
AcDbSymbolTable
 70
     0
  0
ENDTAB
  0
TABLE
  2
UCS
  5
11
100
AcDbSymbolTable
 70
     0
  0
ENDTAB
  0
TABLE
  2
APPID
  5
14
100
AcDbSymbolTable
 70
     1
  0
APPID
  5
15
100
AcDbSymbolTableRecord
100
AcDbRegAppTableRecord
  2
ACAD
 70
     0
  0
ENDTAB
  0
TABLE
  2
DIMSTYLE
  5
16
100
AcDbSymbolTable
 70
     1
  0
DIMSTYLE
105
1C
102
{ACAD_REACTORS
330
3D
330
2C
330
1D
330
90
330
9D
330
4E
330
CA
330
BD
330
D9
330
81
330
5F
330
AE
330
71
102
}
100
AcDbSymbolTableRecord
100
AcDbDimStyleTableRecord
  2
UPLNE
 70
     0
  3

  4

  5

  6

  7

 40
5.0
 41
5.0
 42
1.0
 43
0.0
 44
2.0
 45
0.01
 46
1.0
 47
0.0
 48
0.0
140
6.44
141
1.0
142
0.0
143
25.4
144
1.0
145
0.0
146
1.0
147
1.0
 71
     0
 72
     0
 73
     0
 74
     0
 75
     0
 76
     0
 77
     3
 78
     0
170
     0
171
     2
172
     1
173
     0
174
     1
175
     0
176
   256
177
   256
178
     5
270
     2
271
     2
272
     2
273
     2
274
     2
340
C
275
     0
280
     0
281
     0
282
     0
283
     1
284
     0
285
     0
286
     0
287
     5
288
     0
  0
ENDTAB
  0
TABLE
  2
BLOCK_RECORD
  5
1
100
AcDbSymbolTable
 70
    13
  0
BLOCK_RECORD
  5
2
100
AcDbSymbolTableRecord
100
AcDbBlockTableRecord
  2
*MODEL_SPACE
  0
BLOCK_RECORD
  5
7
100
AcDbSymbolTableRecord
100
AcDbBlockTableRecord
  2
*PAPER_SPACE
  0
BLOCK_RECORD
  5
3E
100
AcDbSymbolTableRecord
100
AcDbBlockTableRecord
  2
*D0
  0
BLOCK_RECORD
  5
2D
100
AcDbSymbolTableRecord
100
AcDbBlockTableRecord
  2
*D1
  0
BLOCK_RECORD
  5
1F
100
AcDbSymbolTableRecord
100
AcDbBlockTableRecord
  2
*D2
  0
BLOCK_RECORD
  5
91
100
AcDbSymbolTableRecord
100
AcDbBlockTableRecord
  2
*D3
  0
BLOCK_RECORD
  5
9E
100
AcDbSymbolTableRecord
100
AcDbBlockTableRecord
  2
*D4
  0
BLOCK_RECORD
  5
4F
100
AcDbSymbolTableRecord
100
AcDbBlockTableRecord
  2
*D5
  0
BLOCK_RECORD
  5
CB
100
AcDbSymbolTableRecord
100
AcDbBlockTableRecord
  2
*D6
  0
BLOCK_RECORD
  5
BE
100
AcDbSymbolTableRecord
100
AcDbBlockTableRecord
  2
*D7
  0
BLOCK_RECORD
  5
DA
100
AcDbSymbolTableRecord
100
AcDbBlockTableRecord
  2
*D8
  0
BLOCK_RECORD
  5
82
100
AcDbSymbolTableRecord
100
AcDbBlockTableRecord
  2
*D9
  0
BLOCK_RECORD
  5
60
100
AcDbSymbolTableRecord
100
AcDbBlockTableRecord
  2
*D10
  0
BLOCK_RECORD
  5
AF
100
AcDbSymbolTableRecord
100
AcDbBlockTableRecord
  2
*D11
  0
BLOCK_RECORD
  5
72
100
AcDbSymbolTableRecord
100
AcDbBlockTableRecord
  2
*D12
  0
ENDTAB
  0
ENDSEC
  0
SECTION
  2
BLOCKS
  0
BLOCK
  5
3
100
AcDbEntity
  8
0
100
AcDbBlockBegin
  2
*MODEL_SPACE
 70
     0
 10
0.0
 20
0.0
 30
0.0
  3
*MODEL_SPACE
  1

  0
ENDBLK
  5
6
100
AcDbEntity
  8
0
100
AcDbBlockEnd
  0
BLOCK
  5
8
100
AcDbEntity
 67
     1
  8
0
100
AcDbBlockBegin
  2
*PAPER_SPACE
 70
     0
 10
0.0
 20
0.0
 30
0.0
  3
*PAPER_SPACE
  1

  0
ENDBLK
  5
9
100
AcDbEntity
 67
     1
  8
0
100
AcDbBlockEnd
  0
BLOCK
  5
48
100
AcDbEntity
  8
0
100
AcDbBlockBegin
  2
*D0
 70
     1
 10
0.0
 20
0.0
 30
0.0
  3
*D0
  1

  0
LINE
  5
3F
100
AcDbEntity
  8
0
  6
BYBLOCK
100
AcDbLine
 10
-403.817313
 20
-3715.543507
 30
0.0
 11
-403.817313
 21
-3817.542274
 31
0.0
  0
LINE
  5
40
100
AcDbEntity
  8
0
  6
BYBLOCK
100
AcDbLine
 10
-70.517313
 20
-3715.542274
 30
0.0
 11
-70.517313
 21
-3817.542274
 31
0.0
  0
LINE
  5
41
100
AcDbEntity
  8
0
  6
BYBLOCK
100
AcDbLine
 10
-388.817313
 20
-3811.542274
 30
0.0
 11
-85.517313
 21
-3811.542274
 31
0.0
  0
SOLID
  5
42
100
AcDbEntity
  8
0
  6
BYBLOCK
100
AcDbTrace
 10
-388.817313
 20
-3809.042274
 30
0.0
 11
-388.817313
 21
-3814.042274
 31
0.0
 12
-403.817313
 22
-3811.542274
 32
0.0
 13
-403.817313
 23
-3811.542274
 33
0.0
  0
SOLID
  5
43
100
AcDbEntity
  8
0
  6
BYBLOCK
100
AcDbTrace
 10
-85.517313
 20
-3809.042274
 30
0.0
 11
-85.517313
 21
-3814.042274
 31
0.0
 12
-70.517313
 22
-3811.542274
 32
0.0
 13
-70.517313
 23
-3811.542274
 33
0.0
  0
MTEXT
  5
44
100
AcDbEntity
  8
0
  6
BYBLOCK
 62
     5
100
AcDbMText
 10
-237.167313
 20
-3797.042274
 30
0.0
 40
19.32
 41
0.0
 71
     5
 72
     1
  1
\A1;333,3
  0
POINT
  5
45
100
AcDbEntity
  8
DEFPOINTS
  6
BYBLOCK
 62
     0
100
AcDbPoint
 10
-403.817313
 20
-3712.543507
 30
0.0
  0
POINT
  5
46
100
AcDbEntity
  8
DEFPOINTS
  6
BYBLOCK
 62
     0
100
AcDbPoint
 10
-70.517313
 20
-3712.542274
 30
0.0
  0
POINT
  5
47
100
AcDbEntity
  8
DEFPOINTS
  6
BYBLOCK
 62
     0
100
AcDbPoint
 10
-70.517313
 20
-3811.542274
 30
0.0
  0
ENDBLK
  5
49
100
AcDbEntity
  8
0
100
AcDbBlockEnd
  0
BLOCK
  5
37
100
AcDbEntity
  8
0
100
AcDbBlockBegin
  2
*D1
 70
     1
 10
0.0
 20
0.0
 30
0.0
  3
*D1
  1

  0
LINE
  5
2E
100
AcDbEntity
  8
0
  6
BYBLOCK
100
AcDbLine
 10
-403.817313
 20
-3715.543507
 30
0.0
 11
-403.817313
 21
-3877.542274
 31
0.0
  0
LINE
  5
2F
100
AcDbEntity
  8
0
  6
BYBLOCK
100
AcDbLine
 10
596.082687
 20
-3715.543507
 30
0.0
 11
596.082687
 21
-3877.542274
 31
0.0
  0
LINE
  5
30
100
AcDbEntity
  8
0
  6
BYBLOCK
100
AcDbLine
 10
-388.817313
 20
-3871.542274
 30
0.0
 11
581.082687
 21
-3871.542274
 31
0.0
  0
SOLID
  5
31
100
AcDbEntity
  8
0
  6
BYBLOCK
100
AcDbTrace
 10
-388.817313
 20
-3869.042274
 30
0.0
 11
-388.817313
 21
-3874.042274
 31
0.0
 12
-403.817313
 22
-3871.542274
 32
0.0
 13
-403.817313
 23
-3871.542274
 33
0.0
  0
SOLID
  5
32
100
AcDbEntity
  8
0
  6
BYBLOCK
100
AcDbTrace
 10
581.082687
 20
-3869.042274
 30
0.0
 11
581.082687
 21
-3874.042274
 31
0.0
 12
596.082687
 22
-3871.542274
 32
0.0
 13
596.082687
 23
-3871.542274
 33
0.0
  0
MTEXT
  5
33
100
AcDbEntity
  8
0
  6
BYBLOCK
 62
     5
100
AcDbMText
 10
96.132687
 20
-3858.882274
 30
0.0
 40
19.32
 41
0.0
 71
     5
 72
     1
  1
\A1;1000
  0
POINT
  5
34
100
AcDbEntity
  8
DEFPOINTS
  6
BYBLOCK
 62
     0
100
AcDbPoint
 10
-403.817313
 20
-3712.543507
 30
0.0
  0
POINT
  5
35
100
AcDbEntity
  8
DEFPOINTS
  6
BYBLOCK
 62
     0
100
AcDbPoint
 10
596.082687
 20
-3712.543507
 30
0.0
  0
POINT
  5
36
100
AcDbEntity
  8
DEFPOINTS
  6
BYBLOCK
 62
     0
100
AcDbPoint
 10
596.082687
 20
-3871.542274
 30
0.0
  0
ENDBLK
  5
38
100
AcDbEntity
  8
0
100
AcDbBlockEnd
  0
BLOCK
  5
2A
100
AcDbEntity
  8
0
100
AcDbBlockBegin
  2
*D2
 70
     1
 10
0.0
 20
0.0
 30
0.0
  3
*D2
  1

  0
LINE
  5
20
100
AcDbEntity
  8
0
  6
BYBLOCK
100
AcDbLine
 10
610.582687
 20
-3712.543507
 30
0.0
 11
699.018974
 21
-3712.543507
 31
0.0
  0
LINE
  5
21
100
AcDbEntity
  8
0
  6
BYBLOCK
100
AcDbLine
 10
559.626995
 20
-3751.542274
 30
0.0
 11
699.018974
 21
-3751.542274
 31
0.0
  0
LINE
  5
22
100
AcDbEntity
  8
0
  6
BYBLOCK
100
AcDbLine
 10
693.018974
 20
-3727.543507
 30
0.0
 11
693.018974
 21
-3736.542274
 31
0.0
  0
SOLID
  5
23
100
AcDbEntity
  8
0
  6
BYBLOCK
100
AcDbTrace
 10
690.518974
 20
-3727.543507
 30
0.0
 11
695.518974
 21
-3727.543507
 31
0.0
 12
693.018974
 22
-3712.543507
 32
0.0
 13
693.018974
 23
-3712.543507
 33
0.0
  0
SOLID
  5
24
100
AcDbEntity
  8
0
  6
BYBLOCK
100
AcDbTrace
 10
690.518974
 20
-3736.542274
 30
0.0
 11
695.518974
 21
-3736.542274
 31
0.0
 12
693.018974
 22
-3751.542274
 32
0.0
 13
693.018974
 23
-3751.542274
 33
0.0
  0
MTEXT
  5
25
100
AcDbEntity
  8
0
  6
BYBLOCK
 62
     5
100
AcDbMText
 10
680.358974
 20
-3732.04289
 30
0.0
 40
19.32
 41
0.0
 71
     5
 72
     1
  1
\A1;39
 11
0.0
 21
1.0
 31
0.0
  0
POINT
  5
26
100
AcDbEntity
  8
DEFPOINTS
  6
BYBLOCK
 62
     0
100
AcDbPoint
 10
607.582687
 20
-3712.543507
 30
0.0
  0
POINT
  5
28
100
AcDbEntity
  8
DEFPOINTS
  6
BYBLOCK
 62
     0
100
AcDbPoint
 10
556.626995
 20
-3751.542274
 30
0.0
  0
POINT
  5
29
100
AcDbEntity
  8
DEFPOINTS
  6
BYBLOCK
 62
     0
100
AcDbPoint
 10
693.018974
 20
-3751.542274
 30
0.0
  0
ENDBLK
  5
2B
100
AcDbEntity
  8
0
100
AcDbBlockEnd
  0
BLOCK
  5
9B
100
AcDbEntity
  8
0
100
AcDbBlockBegin
  2
*D3
 70
     1
 10
0.0
 20
0.0
 30
0.0
  3
*D3
  1

  0
LINE
  5
92
100
AcDbEntity
  8
0
  6
BYBLOCK
100
AcDbLine
 10
-34.025352
 20
-3753.921598
 30
0.0
 11
-34.025352
 21
-3817.542274
 31
0.0
  0
LINE
  5
93
100
AcDbEntity
  8
0
  6
BYBLOCK
100
AcDbLine
 10
26.790727
 20
-3753.921598
 30
0.0
 11
26.790727
 21
-3817.542274
 31
0.0
  0
LINE
  5
94
100
AcDbEntity
  8
0
  6
BYBLOCK
100
AcDbLine
 10
-19.025352
 20
-3811.542274
 30
0.0
 11
11.790727
 21
-3811.542274
 31
0.0
  0
MTEXT
  5
95
100
AcDbEntity
  8
0
  6
BYBLOCK
 62
     5
100
AcDbMText
 10
-3.617313
 20
-3795.599354
 30
0.0
 40
19.32
 41
0.0
 71
     5
 72
     1
  1
\A1;61,5
  0
SOLID
  5
96
100
AcDbEntity
  8
0
  6
BYBLOCK
100
AcDbTrace
 10
-19.025352
 20
-3809.042274
 30
0.0
 11
-19.025352
 21
-3814.042274
 31
0.0
 12
-34.025352
 22
-3811.542274
 32
0.0
 13
-34.025352
 23
-3811.542274
 33
0.0
  0
SOLID
  5
97
100
AcDbEntity
  8
0
  6
BYBLOCK
100
AcDbTrace
 10
11.790727
 20
-3809.042274
 30
0.0
 11
11.790727
 21
-3814.042274
 31
0.0
 12
26.790727
 22
-3811.542274
 32
0.0
 13
26.790727
 23
-3811.542274
 33
0.0
  0
POINT
  5
98
100
AcDbEntity
  8
DEFPOINTS
  6
BYBLOCK
 62
     0
100
AcDbPoint
 10
-34.025352
 20
-3750.921598
 30
0.0
  0
POINT
  5
99
100
AcDbEntity
  8
DEFPOINTS
  6
BYBLOCK
 62
     0
100
AcDbPoint
 10
26.790727
 20
-3750.921598
 30
0.0
  0
POINT
  5
9A
100
AcDbEntity
  8
DEFPOINTS
  6
BYBLOCK
 62
     0
100
AcDbPoint
 10
26.790727
 20
-3811.542274
 30
0.0
  0
ENDBLK
  5
9C
100
AcDbEntity
  8
0
100
AcDbBlockEnd
  0
BLOCK
  5
A8
100
AcDbEntity
  8
0
100
AcDbBlockBegin
  2
*D4
 70
     1
 10
0.0
 20
0.0
 30
0.0
  3
*D4
  1

  0
LINE
  5
9F
100
AcDbEntity
  8
0
  6
BYBLOCK
100
AcDbLine
 10
26.790727
 20
-3753.921598
 30
0.0
 11
26.790727
 21
-3817.542274
 31
0.0
  0
LINE
  5
A0
100
AcDbEntity
  8
0
  6
BYBLOCK
100
AcDbLine
 10
64.790727
 20
-3753.921598
 30
0.0
 11
64.790727
 21
-3817.542274
 31
0.0
  0
LINE
  5
A1
100
AcDbEntity
  8
0
  6
BYBLOCK
100
AcDbLine
 10
41.790727
 20
-3811.542274
 30
0.0
 11
49.790727
 21
-3811.542274
 31
0.0
  0
SOLID
  5
A2
100
AcDbEntity
  8
0
  6
BYBLOCK
100
AcDbTrace
 10
41.790727
 20
-3809.042274
 30
0.0
 11
41.790727
 21
-3814.042274
 31
0.0
 12
26.790727
 22
-3811.542274
 32
0.0
 13
26.790727
 23
-3811.542274
 33
0.0
  0
SOLID
  5
A3
100
AcDbEntity
  8
0
  6
BYBLOCK
100
AcDbTrace
 10
49.790727
 20
-3809.042274
 30
0.0
 11
49.790727
 21
-3814.042274
 31
0.0
 12
64.790727
 22
-3811.542274
 32
0.0
 13
64.790727
 23
-3811.542274
 33
0.0
  0
MTEXT
  5
A4
100
AcDbEntity
  8
0
  6
BYBLOCK
 62
     5
100
AcDbMText
 10
45.790727
 20
-3798.882274
 30
0.0
 40
19.32
 41
0.0
 71
     5
 72
     1
  1
\A1;38
  0
POINT
  5
A5
100
AcDbEntity
  8
DEFPOINTS
  6
BYBLOCK
 62
     0
100
AcDbPoint
 10
26.790727
 20
-3750.921598
 30
0.0
  0
POINT
  5
A6
100
AcDbEntity
  8
DEFPOINTS
  6
BYBLOCK
 62
     0
100
AcDbPoint
 10
64.790727
 20
-3750.921598
 30
0.0
  0
POINT
  5
A7
100
AcDbEntity
  8
DEFPOINTS
  6
BYBLOCK
 62
     0
100
AcDbPoint
 10
64.790727
 20
-3811.542274
 30
0.0
  0
ENDBLK
  5
A9
100
AcDbEntity
  8
0
100
AcDbBlockEnd
  0
BLOCK
  5
59
100
AcDbEntity
  8
0
100
AcDbBlockBegin
  2
*D5
 70
     1
 10
0.0
 20
0.0
 30
0.0
  3
*D5
  1

  0
LINE
  5
50
100
AcDbEntity
  8
0
  6
BYBLOCK
100
AcDbLine
 10
64.790727
 20
-3753.921598
 30
0.0
 11
64.790727
 21
-3817.542274
 31
0.0
  0
LINE
  5
51
100
AcDbEntity
  8
0
  6
BYBLOCK
100
AcDbLine
 10
126.790727
 20
-3753.921598
 30
0.0
 11
126.790727
 21
-3817.542274
 31
0.0
  0
LINE
  5
52
100
AcDbEntity
  8
0
  6
BYBLOCK
100
AcDbLine
 10
79.790727
 20
-3811.542274
 30
0.0
 11
111.790727
 21
-3811.542274
 31
0.0
  0
SOLID
  5
53
100
AcDbEntity
  8
0
  6
BYBLOCK
100
AcDbTrace
 10
79.790727
 20
-3809.042274
 30
0.0
 11
79.790727
 21
-3814.042274
 31
0.0
 12
64.790727
 22
-3811.542274
 32
0.0
 13
64.790727
 23
-3811.542274
 33
0.0
  0
SOLID
  5
54
100
AcDbEntity
  8
0
  6
BYBLOCK
100
AcDbTrace
 10
111.790727
 20
-3809.042274
 30
0.0
 11
111.790727
 21
-3814.042274
 31
0.0
 12
126.790727
 22
-3811.542274
 32
0.0
 13
126.790727
 23
-3811.542274
 33
0.0
  0
MTEXT
  5
55
100
AcDbEntity
  8
0
  6
BYBLOCK
 62
     5
100
AcDbMText
 10
95.790727
 20
-3798.882274
 30
0.0
 40
19.32
 41
0.0
 71
     5
 72
     1
  1
\A1;62
  0
POINT
  5
56
100
AcDbEntity
  8
DEFPOINTS
  6
BYBLOCK
 62
     0
100
AcDbPoint
 10
64.790727
 20
-3750.921598
 30
0.0
  0
POINT
  5
57
100
AcDbEntity
  8
DEFPOINTS
  6
BYBLOCK
 62
     0
100
AcDbPoint
 10
126.790727
 20
-3750.921598
 30
0.0
  0
POINT
  5
58
100
AcDbEntity
  8
DEFPOINTS
  6
BYBLOCK
 62
     0
100
AcDbPoint
 10
126.790727
 20
-3811.542274
 30
0.0
  0
ENDBLK
  5
5A
100
AcDbEntity
  8
0
100
AcDbBlockEnd
  0
BLOCK
  5
D5
100
AcDbEntity
  8
0
100
AcDbBlockBegin
  2
*D6
 70
     1
 10
0.0
 20
0.0
 30
0.0
  3
*D6
  1

  0
LINE
  5
CC
100
AcDbEntity
  8
0
  6
BYBLOCK
100
AcDbLine
 10
126.790727
 20
-3753.921598
 30
0.0
 11
126.790727
 21
-3817.542274
 31
0.0
  0
LINE
  5
CD
100
AcDbEntity
  8
0
  6
BYBLOCK
100
AcDbLine
 10
164.790727
 20
-3753.921598
 30
0.0
 11
164.790727
 21
-3817.542274
 31
0.0
  0
LINE
  5
CE
100
AcDbEntity
  8
0
  6
BYBLOCK
100
AcDbLine
 10
141.790727
 20
-3811.542274
 30
0.0
 11
149.790727
 21
-3811.542274
 31
0.0
  0
SOLID
  5
CF
100
AcDbEntity
  8
0
  6
BYBLOCK
100
AcDbTrace
 10
141.790727
 20
-3809.042274
 30
0.0
 11
141.790727
 21
-3814.042274
 31
0.0
 12
126.790727
 22
-3811.542274
 32
0.0
 13
126.790727
 23
-3811.542274
 33
0.0
  0
SOLID
  5
D0
100
AcDbEntity
  8
0
  6
BYBLOCK
100
AcDbTrace
 10
149.790727
 20
-3809.042274
 30
0.0
 11
149.790727
 21
-3814.042274
 31
0.0
 12
164.790727
 22
-3811.542274
 32
0.0
 13
164.790727
 23
-3811.542274
 33
0.0
  0
MTEXT
  5
D1
100
AcDbEntity
  8
0
  6
BYBLOCK
 62
     5
100
AcDbMText
 10
145.790727
 20
-3798.882274
 30
0.0
 40
19.32
 41
0.0
 71
     5
 72
     1
  1
\A1;38
  0
POINT
  5
D2
100
AcDbEntity
  8
DEFPOINTS
  6
BYBLOCK
 62
     0
100
AcDbPoint
 10
126.790727
 20
-3750.921598
 30
0.0
  0
POINT
  5
D3
100
AcDbEntity
  8
DEFPOINTS
  6
BYBLOCK
 62
     0
100
AcDbPoint
 10
164.790727
 20
-3750.921598
 30
0.0
  0
POINT
  5
D4
100
AcDbEntity
  8
DEFPOINTS
  6
BYBLOCK
 62
     0
100
AcDbPoint
 10
164.790727
 20
-3811.542274
 30
0.0
  0
ENDBLK
  5
D6
100
AcDbEntity
  8
0
100
AcDbBlockEnd
  0
BLOCK
  5
C8
100
AcDbEntity
  8
0
100
AcDbBlockBegin
  2
*D7
 70
     1
 10
0.0
 20
0.0
 30
0.0
  3
*D7
  1

  0
LINE
  5
BF
100
AcDbEntity
  8
0
  6
BYBLOCK
100
AcDbLine
 10
164.790727
 20
-3753.921598
 30
0.0
 11
164.790727
 21
-3817.542274
 31
0.0
  0
LINE
  5
C0
100
AcDbEntity
  8
0
  6
BYBLOCK
100
AcDbLine
 10
226.290727
 20
-3753.921598
 30
0.0
 11
226.290727
 21
-3817.542274
 31
0.0
  0
LINE
  5
C1
100
AcDbEntity
  8
0
  6
BYBLOCK
100
AcDbLine
 10
179.790727
 20
-3811.542274
 30
0.0
 11
211.290727
 21
-3811.542274
 31
0.0
  0
MTEXT
  5
C2
100
AcDbEntity
  8
0
  6
BYBLOCK
 62
     5
100
AcDbMText
 10
195.882687
 20
-3796.579293
 30
0.0
 40
19.32
 41
0.0
 71
     5
 72
     1
  1
\A1;61,5
  0
SOLID
  5
C3
100
AcDbEntity
  8
0
  6
BYBLOCK
100
AcDbTrace
 10
179.790727
 20
-3809.042274
 30
0.0
 11
179.790727
 21
-3814.042274
 31
0.0
 12
164.790727
 22
-3811.542274
 32
0.0
 13
164.790727
 23
-3811.542274
 33
0.0
  0
SOLID
  5
C4
100
AcDbEntity
  8
0
  6
BYBLOCK
100
AcDbTrace
 10
211.290727
 20
-3809.042274
 30
0.0
 11
211.290727
 21
-3814.042274
 31
0.0
 12
226.290727
 22
-3811.542274
 32
0.0
 13
226.290727
 23
-3811.542274
 33
0.0
  0
POINT
  5
C5
100
AcDbEntity
  8
DEFPOINTS
  6
BYBLOCK
 62
     0
100
AcDbPoint
 10
164.790727
 20
-3750.921598
 30
0.0
  0
POINT
  5
C6
100
AcDbEntity
  8
DEFPOINTS
  6
BYBLOCK
 62
     0
100
AcDbPoint
 10
226.290727
 20
-3750.921598
 30
0.0
  0
POINT
  5
C7
100
AcDbEntity
  8
DEFPOINTS
  6
BYBLOCK
 62
     0
100
AcDbPoint
 10
226.290727
 20
-3811.542274
 30
0.0
  0
ENDBLK
  5
C9
100
AcDbEntity
  8
0
100
AcDbBlockEnd
  0
BLOCK
  5
E7
100
AcDbEntity
  8
0
100
AcDbBlockBegin
  2
*D8
 70
     1
 10
0.0
 20
0.0
 30
0.0
  3
*D8
  1

  0
LINE
  5
DB
100
AcDbEntity
  8
0
  6
BYBLOCK
100
AcDbLine
 10
501.432687
 20
-3751.543507
 30
0.0
 11
533.548794
 21
-3751.543507
 31
0.0
  0
LINE
  5
DC
100
AcDbEntity
  8
0
  6
BYBLOCK
100
AcDbLine
 10
496.432687
 20
-3746.543507
 30
0.0
 11
533.548794
 21
-3746.543507
 31
0.0
  0
LINE
  5
DD
100
AcDbEntity
  8
0
  6
BYBLOCK
100
AcDbLine
 10
527.548794
 20
-3766.543507
 30
0.0
 11
527.548794
 21
-3781.543507
 31
0.0
  0
LINE
  5
DE
100
AcDbEntity
  8
0
  6
BYBLOCK
100
AcDbLine
 10
527.548794
 20
-3731.543507
 30
0.0
 11
527.548794
 21
-3716.543507
 31
0.0
  0
MTEXT
  5
DF
100
AcDbEntity
  8
0
  6
BYBLOCK
 62
     5
100
AcDbMText
 10
512.476923
 20
-3785.945061
 30
0.0
 40
19.32
 41
0.0
 71
     5
 72
     1
  1
\A1;5
 11
0.0
 21
1.0
 31
0.0
  0
LINE
  5
E0
100
AcDbEntity
  8
0
  6
BYBLOCK
100
AcDbLine
 10
527.548794
 20
-3751.543507
 30
0.0
 11
527.548794
 21
-3746.543507
 31
0.0
  0
LINE
  5
E1
100
AcDbEntity
  8
0
  6
BYBLOCK
100
AcDbLine
 10
527.548794
 20
-3751.543507
 30
0.0
 11
527.548794
 21
-3746.543507
 31
0.0
  0
SOLID
  5
E2
100
AcDbEntity
  8
0
  6
BYBLOCK
100
AcDbTrace
 10
525.048794
 20
-3766.543507
 30
0.0
 11
530.048794
 21
-3766.543507
 31
0.0
 12
527.548794
 22
-3751.543507
 32
0.0
 13
527.548794
 23
-3751.543507
 33
0.0
  0
SOLID
  5
E3
100
AcDbEntity
  8
0
  6
BYBLOCK
100
AcDbTrace
 10
525.048794
 20
-3731.543507
 30
0.0
 11
530.048794
 21
-3731.543507
 31
0.0
 12
527.548794
 22
-3746.543507
 32
0.0
 13
527.548794
 23
-3746.543507
 33
0.0
  0
POINT
  5
E4
100
AcDbEntity
  8
DEFPOINTS
  6
BYBLOCK
 62
     0
100
AcDbPoint
 10
498.432687
 20
-3751.543507
 30
0.0
  0
POINT
  5
E5
100
AcDbEntity
  8
DEFPOINTS
  6
BYBLOCK
 62
     0
100
AcDbPoint
 10
493.432687
 20
-3746.543507
 30
0.0
  0
POINT
  5
E6
100
AcDbEntity
  8
DEFPOINTS
  6
BYBLOCK
 62
     0
100
AcDbPoint
 10
527.548794
 20
-3746.543507
 30
0.0
  0
ENDBLK
  5
E8
100
AcDbEntity
  8
0
100
AcDbBlockEnd
  0
BLOCK
  5
8E
100
AcDbEntity
  8
0
100
AcDbBlockBegin
  2
*D9
 70
     1
 10
0.0
 20
0.0
 30
0.0
  3
*D9
  1

  0
LINE
  5
83
100
AcDbEntity
  8
0
  6
BYBLOCK
100
AcDbLine
 10
-82.017313
 20
-3709.542274
 30
0.0
 11
-82.017313
 21
-3667.731824
 31
0.0
  0
LINE
  5
84
100
AcDbEntity
  8
0
  6
BYBLOCK
100
AcDbLine
 10
-59.017313
 20
-3709.542274
 30
0.0
 11
-59.017313
 21
-3667.731824
 31
0.0
  0
LINE
  5
85
100
AcDbEntity
  8
0
  6
BYBLOCK
100
AcDbLine
 10
-97.017313
 20
-3673.731824
 30
0.0
 11
-112.017313
 21
-3673.731824
 31
0.0
  0
LINE
  5
86
100
AcDbEntity
  8
0
  6
BYBLOCK
100
AcDbLine
 10
-44.017313
 20
-3673.731824
 30
0.0
 11
-29.017313
 21
-3673.731824
 31
0.0
  0
LINE
  5
87
100
AcDbEntity
  8
0
  6
BYBLOCK
100
AcDbLine
 10
-82.017313
 20
-3673.731824
 30
0.0
 11
-59.017313
 21
-3673.731824
 31
0.0
  0
SOLID
  5
88
100
AcDbEntity
  8
0
  6
BYBLOCK
100
AcDbTrace
 10
-97.017313
 20
-3671.231824
 30
0.0
 11
-97.017313
 21
-3676.231824
 31
0.0
 12
-82.017313
 22
-3673.731824
 32
0.0
 13
-82.017313
 23
-3673.731824
 33
0.0
  0
SOLID
  5
89
100
AcDbEntity
  8
0
  6
BYBLOCK
100
AcDbTrace
 10
-44.017313
 20
-3671.231824
 30
0.0
 11
-44.017313
 21
-3676.231824
 31
0.0
 12
-59.017313
 22
-3673.731824
 32
0.0
 13
-59.017313
 23
-3673.731824
 33
0.0
  0
MTEXT
  5
8A
100
AcDbEntity
  8
0
  6
BYBLOCK
 62
     5
100
AcDbMText
 10
-70.517313
 20
-3661.071824
 30
0.0
 40
19.32
 41
0.0
 71
     5
 72
     1
  1
\A1;23
  0
POINT
  5
8B
100
AcDbEntity
  8
DEFPOINTS
  6
BYBLOCK
 62
     0
100
AcDbPoint
 10
-82.017313
 20
-3712.542274
 30
0.0
  0
POINT
  5
8C
100
AcDbEntity
  8
DEFPOINTS
  6
BYBLOCK
 62
     0
100
AcDbPoint
 10
-59.017313
 20
-3712.542274
 30
0.0
  0
POINT
  5
8D
100
AcDbEntity
  8
DEFPOINTS
  6
BYBLOCK
 62
     0
100
AcDbPoint
 10
-59.017313
 20
-3673.731824
 30
0.0
  0
ENDBLK
  5
8F
100
AcDbEntity
  8
0
100
AcDbBlockEnd
  0
BLOCK
  5
6D
100
AcDbEntity
  8
0
100
AcDbBlockBegin
  2
*D10
 70
     1
 10
0.0
 20
0.0
 30
0.0
  3
*D10
  1

  0
LINE
  5
61
100
AcDbEntity
  8
0
  6
BYBLOCK
100
AcDbLine
 10
-82.017313
 20
-3709.542274
 30
0.0
 11
-82.017313
 21
-3667.731824
 31
0.0
  0
LINE
  5
62
100
AcDbEntity
  8
0
  6
BYBLOCK
100
AcDbLine
 10
-107.009273
 20
-3747.921598
 30
0.0
 11
-107.009273
 21
-3667.731824
 31
0.0
  0
LINE
  5
63
100
AcDbEntity
  8
0
  6
BYBLOCK
100
AcDbLine
 10
-67.017313
 20
-3673.731824
 30
0.0
 11
-52.017313
 21
-3673.731824
 31
0.0
  0
LINE
  5
64
100
AcDbEntity
  8
0
  6
BYBLOCK
100
AcDbLine
 10
-122.009273
 20
-3673.731824
 30
0.0
 11
-137.009273
 21
-3673.731824
 31
0.0
  0
MTEXT
  5
65
100
AcDbEntity
  8
0
  6
BYBLOCK
 62
     5
100
AcDbMText
 10
-132.875293
 20
-3657.981824
 30
0.0
 40
19.32
 41
0.0
 71
     5
 72
     1
  1
\A1;24,5
  0
LINE
  5
66
100
AcDbEntity
  8
0
  6
BYBLOCK
100
AcDbLine
 10
-82.017313
 20
-3673.731824
 30
0.0
 11
-107.009273
 21
-3673.731824
 31
0.0
  0
LINE
  5
67
100
AcDbEntity
  8
0
  6
BYBLOCK
100
AcDbLine
 10
-82.017313
 20
-3673.731824
 30
0.0
 11
-107.009273
 21
-3673.731824
 31
0.0
  0
SOLID
  5
68
100
AcDbEntity
  8
0
  6
BYBLOCK
100
AcDbTrace
 10
-67.017313
 20
-3671.231824
 30
0.0
 11
-67.017313
 21
-3676.231824
 31
0.0
 12
-82.017313
 22
-3673.731824
 32
0.0
 13
-82.017313
 23
-3673.731824
 33
0.0
  0
SOLID
  5
69
100
AcDbEntity
  8
0
  6
BYBLOCK
100
AcDbTrace
 10
-122.009273
 20
-3671.231824
 30
0.0
 11
-122.009273
 21
-3676.231824
 31
0.0
 12
-107.009273
 22
-3673.731824
 32
0.0
 13
-107.009273
 23
-3673.731824
 33
0.0
  0
POINT
  5
6A
100
AcDbEntity
  8
DEFPOINTS
  6
BYBLOCK
 62
     0
100
AcDbPoint
 10
-82.017313
 20
-3712.542274
 30
0.0
  0
POINT
  5
6B
100
AcDbEntity
  8
DEFPOINTS
  6
BYBLOCK
 62
     0
100
AcDbPoint
 10
-107.009273
 20
-3750.921598
 30
0.0
  0
POINT
  5
6C
100
AcDbEntity
  8
DEFPOINTS
  6
BYBLOCK
 62
     0
100
AcDbPoint
 10
-107.009273
 20
-3673.731824
 30
0.0
  0
ENDBLK
  5
6E
100
AcDbEntity
  8
0
100
AcDbBlockEnd
  0
BLOCK
  5
BB
100
AcDbEntity
  8
0
100
AcDbBlockBegin
  2
*D11
 70
     1
 10
0.0
 20
0.0
 30
0.0
  3
*D11
  1

  0
LINE
  5
B0
100
AcDbEntity
  8
0
  6
BYBLOCK
100
AcDbLine
 10
131.790727
 20
-3752.921598
 30
0.0
 11
131.790727
 21
-3667.731824
 31
0.0
  0
LINE
  5
B1
100
AcDbEntity
  8
0
  6
BYBLOCK
100
AcDbLine
 10
159.790727
 20
-3752.921598
 30
0.0
 11
159.790727
 21
-3667.731824
 31
0.0
  0
LINE
  5
B2
100
AcDbEntity
  8
0
  6
BYBLOCK
100
AcDbLine
 10
116.790727
 20
-3673.731824
 30
0.0
 11
101.790727
 21
-3673.731824
 31
0.0
  0
LINE
  5
B3
100
AcDbEntity
  8
0
  6
BYBLOCK
100
AcDbLine
 10
174.790727
 20
-3673.731824
 30
0.0
 11
189.790727
 21
-3673.731824
 31
0.0
  0
LINE
  5
B4
100
AcDbEntity
  8
0
  6
BYBLOCK
100
AcDbLine
 10
131.790727
 20
-3673.731824
 30
0.0
 11
159.790727
 21
-3673.731824
 31
0.0
  0
SOLID
  5
B5
100
AcDbEntity
  8
0
  6
BYBLOCK
100
AcDbTrace
 10
116.790727
 20
-3671.231824
 30
0.0
 11
116.790727
 21
-3676.231824
 31
0.0
 12
131.790727
 22
-3673.731824
 32
0.0
 13
131.790727
 23
-3673.731824
 33
0.0
  0
SOLID
  5
B6
100
AcDbEntity
  8
0
  6
BYBLOCK
100
AcDbTrace
 10
174.790727
 20
-3671.231824
 30
0.0
 11
174.790727
 21
-3676.231824
 31
0.0
 12
159.790727
 22
-3673.731824
 32
0.0
 13
159.790727
 23
-3673.731824
 33
0.0
  0
MTEXT
  5
B7
100
AcDbEntity
  8
0
  6
BYBLOCK
 62
     5
100
AcDbMText
 10
145.790727
 20
-3661.071824
 30
0.0
 40
19.32
 41
0.0
 71
     5
 72
     1
  1
\A1;28
  0
POINT
  5
B8
100
AcDbEntity
  8
DEFPOINTS
  6
BYBLOCK
 62
     0
100
AcDbPoint
 10
131.790727
 20
-3755.921598
 30
0.0
  0
POINT
  5
B9
100
AcDbEntity
  8
DEFPOINTS
  6
BYBLOCK
 62
     0
100
AcDbPoint
 10
159.790727
 20
-3755.921598
 30
0.0
  0
POINT
  5
BA
100
AcDbEntity
  8
DEFPOINTS
  6
BYBLOCK
 62
     0
100
AcDbPoint
 10
159.790727
 20
-3673.731824
 30
0.0
  0
ENDBLK
  5
BC
100
AcDbEntity
  8
0
100
AcDbBlockEnd
  0
BLOCK
  5
7F
100
AcDbEntity
  8
0
100
AcDbBlockBegin
  2
*D12
 70
     1
 10
0.0
 20
0.0
 30
0.0
  3
*D12
  1

  0
LINE
  5
73
100
AcDbEntity
  8
0
  6
BYBLOCK
100
AcDbLine
 10
-59.017313
 20
-3709.542274
 30
0.0
 11
-59.017313
 21
-3667.731824
 31
0.0
  0
LINE
  5
74
100
AcDbEntity
  8
0
  6
BYBLOCK
100
AcDbLine
 10
-34.025352
 20
-3747.921598
 30
0.0
 11
-34.025352
 21
-3667.731824
 31
0.0
  0
LINE
  5
75
100
AcDbEntity
  8
0
  6
BYBLOCK
100
AcDbLine
 10
-74.017313
 20
-3673.731824
 30
0.0
 11
-89.017313
 21
-3673.731824
 31
0.0
  0
LINE
  5
76
100
AcDbEntity
  8
0
  6
BYBLOCK
100
AcDbLine
 10
-19.025352
 20
-3673.731824
 30
0.0
 11
-4.025352
 21
-3673.731824
 31
0.0
  0
MTEXT
  5
77
100
AcDbEntity
  8
0
  6
BYBLOCK
 62
     5
100
AcDbMText
 10
-15.688915
 20
-3657.981824
 30
0.0
 40
19.32
 41
0.0
 71
     5
 72
     1
  1
\A1;24,5
  0
LINE
  5
78
100
AcDbEntity
  8
0
  6
BYBLOCK
100
AcDbLine
 10
-59.017313
 20
-3673.731824
 30
0.0
 11
-34.025352
 21
-3673.731824
 31
0.0
  0
LINE
  5
79
100
AcDbEntity
  8
0
  6
BYBLOCK
100
AcDbLine
 10
-59.017313
 20
-3673.731824
 30
0.0
 11
-34.025352
 21
-3673.731824
 31
0.0
  0
SOLID
  5
7A
100
AcDbEntity
  8
0
  6
BYBLOCK
100
AcDbTrace
 10
-74.017313
 20
-3671.231824
 30
0.0
 11
-74.017313
 21
-3676.231824
 31
0.0
 12
-59.017313
 22
-3673.731824
 32
0.0
 13
-59.017313
 23
-3673.731824
 33
0.0
  0
SOLID
  5
7B
100
AcDbEntity
  8
0
  6
BYBLOCK
100
AcDbTrace
 10
-19.025352
 20
-3671.231824
 30
0.0
 11
-19.025352
 21
-3676.231824
 31
0.0
 12
-34.025352
 22
-3673.731824
 32
0.0
 13
-34.025352
 23
-3673.731824
 33
0.0
  0
POINT
  5
7C
100
AcDbEntity
  8
DEFPOINTS
  6
BYBLOCK
 62
     0
100
AcDbPoint
 10
-59.017313
 20
-3712.542274
 30
0.0
  0
POINT
  5
7D
100
AcDbEntity
  8
DEFPOINTS
  6
BYBLOCK
 62
     0
100
AcDbPoint
 10
-34.025352
 20
-3750.921598
 30
0.0
  0
POINT
  5
7E
100
AcDbEntity
  8
DEFPOINTS
  6
BYBLOCK
 62
     0
100
AcDbPoint
 10
-34.025352
 20
-3673.731824
 30
0.0
  0
ENDBLK
  5
80
100
AcDbEntity
  8
0
100
AcDbBlockEnd
  0
ENDSEC
  0
SECTION
  2
ENTITIES
  0
DIMENSION
  5
1D
100
AcDbEntity
  8
KOTY-UPLNE
100
AcDbDimension
  2
*D2
 10
1249.691584
 20
169.116304
 30
0.0
 11
1237.031584
 21
188.615688
 31
0.0
 12
556.67261
 22
3920.658579
 32
0.0
  3
UPLNE
100
AcDbAlignedDimension
 13
1164.255297
 23
208.115072
 33
0.0
 14
1113.299605
 24
169.116304
 34
0.0
 50
90.0
100
AcDbRotatedDimension
1001
ACAD
1000
DSTYLE
1002
{
1070
    40
1040
3.0
1070
   271
1070
     0
1002
}
  0
DIMENSION
  5
2C
100
AcDbEntity
  8
KOTY-UPLNE
100
AcDbDimension
  2
*D1
 10
1152.755297
 20
49.116304
 30
0.0
 11
652.805297
 21
61.776304
 31
0.0
 12
556.67261
 22
3920.658579
 32
0.0
  3
UPLNE
100
AcDbAlignedDimension
 13
152.855297
 23
208.115072
 33
0.0
 14
1152.755297
 24
208.115072
 34
0.0
100
AcDbRotatedDimension
1001
ACAD
1000
DSTYLE
1002
{
1070
    40
1040
3.0
1070
   271
1070
     0
1002
}
  0
LWPOLYLINE
  5
39
100
AcDbEntity
  8
TRAPEZ-VELKY
100
AcDbPolyline
 90
       29
 70
     0
 43
5.0
 10
811.260989
 20
208.116304
 10
827.649605
 20
208.116304
 42
-0.257245
 10
832.721457
 20
205.321975
 10
853.839137
 20
171.910634
 42
0.257245
 10
858.910989
 20
169.116304
 10
916.27687
 20
169.116304
 42
0.198912
 10
917.691084
 20
169.702091
 10
921.519511
 20
173.530518
 42
-0.198912
 10
922.933724
 20
174.116304
 10
949.27687
 20
174.116304
 42
-0.198912
 10
950.691084
 20
173.530518
 10
954.519511
 20
169.702091
 42
0.198912
 10
955.933724
 20
169.116304
 10
1016.27687
 20
169.116304
 42
0.198912
 10
1017.691084
 20
169.702091
 10
1021.519511
 20
173.530518
 42
-0.198912
 10
1022.933724
 20
174.116304
 10
1049.27687
 20
174.116304
 42
-0.198912
 10
1050.691084
 20
173.530518
 10
1054.519511
 20
169.702091
 42
0.198912
 10
1055.933724
 20
169.116304
 10
1113.299605
 20
169.116304
 42
0.257245
 10
1118.371457
 20
171.910634
 10
1139.489137
 20
205.321975
 42
-0.257245
 10
1144.560989
 20
208.116304
 10
1152.755297
 20
208.116304
 10
1160.948897
 20
208.116304
 42
-0.257245
 10
1166.020749
 20
205.321975
 10
1172.743233
 20
194.685995
  0
LWPOLYLINE
  5
3B
100
AcDbEntity
  8
RAMEC
100
AcDbPolyline
 90
        4
 70
     1
 43
0.0
 10
0.0
 20
358.001233
 10
0.0
 20
0.0
 10
1349.672502
 20
0.0
 10
1349.672502
 20
358.001233
  0
DIMENSION
  5
3D
100
AcDbEntity
  8
KOTY-UPLNE
100
AcDbDimension
  2
*D0
 10
486.155297
 20
109.116304
 30
0.0
 11
319.505297
 21
123.616304
 31
0.0
 12
556.67261
 22
3920.658579
 32
0.0
  1
333,3
  3
UPLNE
100
AcDbAlignedDimension
 13
152.855297
 23
208.115072
 33
0.0
 14
486.155297
 24
208.116304
 34
0.0
100
AcDbRotatedDimension
1001
ACAD
1000
DSTYLE
1002
{
1070
    40
1040
3.0
1070
   271
1070
     0
1002
}
  0
LWPOLYLINE
  5
4A
100
AcDbEntity
  8
TRAPEZ-VELKY
100
AcDbPolyline
 90
       52
 70
     0
 43
5.0
 10
132.866653
 20
194.685995
 10
139.883497
 20
205.787696
 42
-0.257245
 10
144.11004
 20
208.116304
 10
161.600554
 20
208.116304
 42
-0.257245
 10
165.827097
 20
205.787696
 10
187.533497
 20
171.444912
 42
0.257245
 10
191.76004
 20
169.116304
 10
248.434229
 20
169.116304
 42
0.198912
 10
251.969763
 20
170.58077
 10
254.040831
 20
172.651838
 42
-0.198912
 10
257.576365
 20
174.116304
 10
281.434229
 20
174.116304
 42
-0.198912
 10
284.969763
 20
172.651838
 10
287.040831
 20
170.58077
 42
0.198912
 10
290.576365
 20
169.116304
 10
348.434229
 20
169.116304
 42
0.198912
 10
351.969763
 20
170.58077
 10
354.040831
 20
172.651838
 42
-0.198912
 10
357.576365
 20
174.116304
 10
381.434229
 20
174.116304
 42
-0.198912
 10
384.969763
 20
172.651838
 10
387.040831
 20
170.58077
 42
0.198912
 10
390.576365
 20
169.116304
 10
447.250554
 20
169.116304
 42
0.257245
 10
451.477097
 20
171.444912
 10
473.183497
 20
205.787696
 42
-0.257245
 10
477.41004
 20
208.116304
 10
494.900554
 20
208.116304
 42
-0.257245
 10
499.127097
 20
205.787696
 10
520.833497
 20
171.444912
 42
0.257245
 10
525.06004
 20
169.116304
 10
581.734229
 20
169.116304
 42
0.198912
 10
585.269763
 20
170.58077
 10
587.340831
 20
172.651838
 42
-0.198912
 10
590.876365
 20
174.116304
 10
614.734229
 20
174.116304
 42
-0.198912
 10
618.269763
 20
172.651838
 10
620.340831
 20
170.58077
 42
0.198912
 10
623.876365
 20
169.116304
 10
681.734229
 20
169.116304
 42
0.198912
 10
685.269763
 20
170.58077
 10
687.340831
 20
172.651838
 42
-0.198912
 10
690.876365
 20
174.116304
 10
714.734229
 20
174.116304
 42
-0.198912
 10
718.269763
 20
172.651838
 10
720.340831
 20
170.58077
 42
0.198912
 10
723.876365
 20
169.116304
 10
780.550554
 20
169.116304
 42
0.257245
 10
784.777097
 20
171.444912
 10
806.483497
 20
205.787696
 42
-0.257245
 10
810.71004
 20
208.116304
 10
819.455297
 20
208.116304
  0
MTEXT
  5
4B
100
AcDbEntity
  8
POZICE
100
AcDbMText
 10
657.393355
 20
28.197798
 30
0.0
 40
20.0
 41
0.0
 71
     5
 72
     1
  1
POZOR - NOVÉ OZNAČENÍ STRAN !!
  7
STYLE1
  0
DIMENSION
  5
4E
100
AcDbEntity
  8
KOTY-UPLNE
100
AcDbDimension
  2
*D5
 10
683.463337
 20
109.116304
 30
0.0
 11
652.463337
 21
121.776304
 31
0.0
 12
556.67261
 22
3920.658579
 32
0.0
  3
UPLNE
100
AcDbAlignedDimension
 13
621.463337
 23
169.73698
 33
0.0
 14
683.463337
 24
169.73698
 34
0.0
100
AcDbRotatedDimension
1001
ACAD
1000
DSTYLE
1002
{
1070
    40
1040
3.0
1070
   271
1070
     0
1002
}
  0
MTEXT
  5
5B
100
AcDbEntity
  8
POPIS
100
AcDbMText
 10
661.730741
 20
315.877201
 30
0.0
 40
40.0
 41
1.0
 71
     5
 72
     1
  1
TR 39/333
  7
STYLE1
  0
MTEXT
  5
5D
102
{ACAD_REACTORS
330
5E
102
}
100
AcDbEntity
  8
KOTY-UPLNE
 62
     5
100
AcDbMText
 10
411.088402
 20
139.76437
 30
0.0
 40
16.5
 41
0.0
 71
     4
 72
     1
  1
\A1;R=2
  0
LEADER
  5
5E
100
AcDbEntity
  8
KOTY-UPLNE
100
AcDbLeader
  3
UPLNE
 73
     0
 74
     0
 75
     1
 40
16.5
 41
43.135714
 76
     3
 10
357.528067
 20
171.029366
 30
0.0
 10
393.088402
 20
128.51437
 30
0.0
 10
408.088402
 20
128.51437
 30
0.0
 77
   256
340
5D
1001
ACAD
1000
DSTYLE
1002
{
1070
    40
1040
3.0
1070
   271
1070
     0
1002
}
  0
DIMENSION
  5
5F
100
AcDbEntity
  8
KOTY-UPLNE
100
AcDbDimension
  2
*D10
 10
449.663337
 20
246.926754
 30
0.0
 11
423.797317
 21
262.676754
 31
0.0
 12
556.67261
 22
3920.658579
 32
0.0
 70
   128
  1
24,5
  3
UPLNE
100
AcDbAlignedDimension
 13
474.655297
 23
208.116304
 33
0.0
 14
449.663337
 24
169.73698
 34
0.0
100
AcDbRotatedDimension
1001
ACAD
1000
DSTYLE
1002
{
1070
    40
1040
3.0
1070
   271
1070
     0
1002
}
  0
MTEXT
  5
6F
102
{ACAD_REACTORS
330
70
102
}
100
AcDbEntity
  8
KOTY-UPLNE
 62
     5
100
AcDbMText
 10
340.671253
 20
209.269627
 30
0.0
 40
16.5
 41
0.0
 71
     4
 72
     1
  1
\A1;R=2
  0
LEADER
  5
70
100
AcDbEntity
  8
KOTY-UPLNE
100
AcDbLeader
  3
UPLNE
 73
     0
 74
     0
 75
     1
 40
16.5
 41
43.135714
 76
     3
 10
287.315659
 20
169.115072
 30
0.0
 10
322.671253
 20
198.019627
 30
0.0
 10
337.671253
 20
198.019627
 30
0.0
 77
   256
340
6F
1001
ACAD
1000
DSTYLE
1002
{
1070
    40
1040
3.0
1070
   271
1070
     0
1002
}
  0
DIMENSION
  5
71
100
AcDbEntity
  8
KOTY-UPLNE
100
AcDbDimension
  2
*D12
 10
522.647258
 20
246.926754
 30
0.0
 11
540.983695
 21
262.676754
 31
0.0
 12
556.67261
 22
3920.658579
 32
0.0
 70
   128
  1
24,5
  3
UPLNE
100
AcDbAlignedDimension
 13
497.655297
 23
208.116304
 33
0.0
 14
522.647258
 24
169.73698
 34
0.0
100
AcDbRotatedDimension
1001
ACAD
1000
DSTYLE
1002
{
1070
    40
1040
3.0
1070
   271
1070
     0
1002
}
  0
DIMENSION
  5
81
100
AcDbEntity
  8
KOTY-UPLNE
100
AcDbDimension
  2
*D9
 10
497.655297
 20
246.926754
 30
0.0
 11
486.155297
 21
259.586754
 31
0.0
 12
556.67261
 22
3920.658579
 32
0.0
  3
UPLNE
100
AcDbAlignedDimension
 13
474.655297
 23
208.116304
 33
0.0
 14
497.655297
 24
208.116304
 34
0.0
100
AcDbRotatedDimension
1001
ACAD
1000
DSTYLE
1002
{
1070
    40
1040
3.0
1070
   271
1070
     0
1002
}
  0
DIMENSION
  5
90
100
AcDbEntity
  8
KOTY-UPLNE
100
AcDbDimension
  2
*D3
 10
583.463337
 20
109.116304
 30
0.0
 11
553.055297
 21
125.059224
 31
0.0
 12
556.67261
 22
3920.658579
 32
0.0
 70
   128
  1
61,5
  3
UPLNE
100
AcDbAlignedDimension
 13
522.647258
 23
169.73698
 33
0.0
 14
583.463337
 24
169.73698
 34
0.0
100
AcDbRotatedDimension
1001
ACAD
1000
DSTYLE
1002
{
1070
    40
1040
3.0
1070
   271
1070
     0
1002
}
  0
DIMENSION
  5
9D
100
AcDbEntity
  8
KOTY-UPLNE
100
AcDbDimension
  2
*D4
 10
621.463337
 20
109.116304
 30
0.0
 11
602.463337
 21
121.776304
 31
0.0
 12
556.67261
 22
3920.658579
 32
0.0
  3
UPLNE
100
AcDbAlignedDimension
 13
583.463337
 23
169.73698
 33
0.0
 14
621.463337
 24
169.73698
 34
0.0
100
AcDbRotatedDimension
1001
ACAD
1000
DSTYLE
1002
{
1070
    40
1040
3.0
1070
   271
1070
     0
1002
}
  0
MTEXT
  5
AA
102
{ACAD_REACTORS
330
AB
102
}
100
AcDbEntity
  8
KOTY-UPLNE
 62
     5
100
AcDbMText
 10
849.170883
 20
126.325022
 30
0.0
 40
16.5
 41
0.0
 71
     4
 72
     1
  1
\A1;R=6
  0
LEADER
  5
AB
100
AcDbEntity
  8
KOTY-UPLNE
100
AcDbLeader
  3
UPLNE
 73
     0
 74
     0
 75
     1
 40
16.5
 41
42.428571
 76
     3
 10
807.955297
 20
208.115072
 30
0.0
 10
831.170883
 20
115.075022
 30
0.0
 10
846.170883
 20
115.075022
 30
0.0
 77
   256
340
AA
1001
ACAD
1000
DSTYLE
1002
{
1070
    40
1040
3.0
1070
   271
1070
     0
1002
}
  0
MTEXT
  5
AC
102
{ACAD_REACTORS
330
AD
102
}
100
AcDbEntity
  8
KOTY-UPLNE
 62
     5
100
AcDbMText
 10
892.604898
 20
215.947781
 30
0.0
 40
16.5
 41
0.0
 71
     4
 72
     1
  1
\A1;R=6
  0
LEADER
  5
AD
100
AcDbEntity
  8
KOTY-UPLNE
100
AcDbLeader
  3
UPLNE
 73
     0
 74
     0
 75
     1
 40
16.5
 41
42.428571
 76
     3
 10
855.605297
 20
169.115072
 30
0.0
 10
874.604898
 20
204.697781
 30
0.0
 10
889.604898
 20
204.697781
 30
0.0
 77
   256
340
AC
1001
ACAD
1000
DSTYLE
1002
{
1070
    40
1040
3.0
1070
   271
1070
     0
1002
}
  0
DIMENSION
  5
AE
100
AcDbEntity
  8
KOTY-UPLNE
100
AcDbDimension
  2
*D11
 10
716.463337
 20
246.926754
 30
0.0
 11
702.463337
 21
259.586754
 31
0.0
 12
556.67261
 22
3920.658579
 32
0.0
  3
UPLNE
100
AcDbAlignedDimension
 13
688.463337
 23
164.73698
 33
0.0
 14
716.463337
 24
164.73698
 34
0.0
100
AcDbRotatedDimension
1001
ACAD
1000
DSTYLE
1002
{
1070
    40
1040
3.0
1070
   271
1070
     0
1002
}
  0
DIMENSION
  5
BD
100
AcDbEntity
  8
KOTY-UPLNE
100
AcDbDimension
  2
*D7
 10
782.963337
 20
109.116304
 30
0.0
 11
752.555297
 21
124.079286
 31
0.0
 12
556.67261
 22
3920.658579
 32
0.0
 70
   128
  1
61,5
  3
UPLNE
100
AcDbAlignedDimension
 13
721.463337
 23
169.73698
 33
0.0
 14
782.963337
 24
169.73698
 34
0.0
100
AcDbRotatedDimension
1001
ACAD
1000
DSTYLE
1002
{
1070
    40
1040
3.0
1070
   271
1070
     0
1002
}
  0
DIMENSION
  5
CA
100
AcDbEntity
  8
KOTY-UPLNE
100
AcDbDimension
  2
*D6
 10
721.463337
 20
109.116304
 30
0.0
 11
702.463337
 21
121.776304
 31
0.0
 12
556.67261
 22
3920.658579
 32
0.0
  3
UPLNE
100
AcDbAlignedDimension
 13
683.463337
 23
169.73698
 33
0.0
 14
721.463337
 24
169.73698
 34
0.0
100
AcDbRotatedDimension
1001
ACAD
1000
DSTYLE
1002
{
1070
    40
1040
3.0
1070
   271
1070
     0
1002
}
  0
MTEXT
  5
D7
100
AcDbEntity
  8
POZICE
100
AcDbMText
 10
991.479756
 20
218.650394
 30
0.0
 40
41.73
 41
1.0
 71
     5
 72
     1
  1
B
  7
STYLE1
  0
MTEXT
  5
D8
100
AcDbEntity
  8
POZICE
100
AcDbMText
 10
991.479756
 20
123.550398
 30
0.0
 40
41.73
 41
1.0
 71
     5
 72
     1
  1
A
  7
STYLE1
  0
DIMENSION
  5
D9
100
AcDbEntity
  8
KOTY-UPLNE
100
AcDbDimension
  2
*D8
 10
1084.221404
 20
174.115072
 30
0.0
 11
1069.149533
 21
134.713517
 31
0.0
 12
556.67261
 22
3920.658579
 32
0.0
 70
   128
  3
UPLNE
100
AcDbAlignedDimension
 13
1055.105297
 23
169.115072
 33
0.0
 14
1050.105297
 24
174.115072
 34
0.0
 50
90.0
100
AcDbRotatedDimension
1001
ACAD
1000
DSTYLE
1002
{
1070
    40
1040
3.0
1070
   271
1070
     0
1002
}
  0
ENDSEC
  0
SECTION
  2
OBJECTS
  0
DICTIONARY
  5
1A
100
AcDbDictionary
  3
ACAD_GROUP
350
18
  3
ACAD_MLINESTYLE
350
19
  0
DICTIONARY
  5
18
102
{ACAD_REACTORS
330
1A
102
}
100
AcDbDictionary
  0
DICTIONARY
  5
19
102
{ACAD_REACTORS
330
1A
102
}
100
AcDbDictionary
  3
STANDARD
350
1B
  0
MLINESTYLE
  5
1B
102
{ACAD_REACTORS
330
19
102
}
100
AcDbMlineStyle
  2
STANDARD
 70
     0
  3

 62
   256
 51
90.0
 52
90.0
 71
     2
 49
0.5
 62
   256
  6
BYLAYER
 49
-0.5
 62
   256
  6
BYLAYER
  0
ENDSEC
  0
EOF
