  0
SECTION
  2
HEADER
  9
$ACADVER
  1
AC1014
  9
$ACADMAINTVER
 70
     0
  9
$DWGCODEPAGE
  3
ANSI_1250
  9
$INSBASE
 10
0.0
 20
0.0
 30
0.0
  9
$EXTMIN
 10
0.0
 20
-349.001233
 30
0.0
  9
$EXTMAX
 10
1349.672502
 20
0.0
 30
0.0
  9
$LIMMIN
 10
-1000.0
 20
-1000.0
  9
$LIMMAX
 10
1000.0
 20
1000.0
  9
$ORTHOMODE
 70
     0
  9
$REGENMODE
 70
     1
  9
$FILLMODE
 70
     1
  9
$QTEXTMODE
 70
     0
  9
$MIRRTEXT
 70
     0
  9
$DRAGMODE
 70
     2
  9
$LTSCALE
 40
3.0
  9
$OSMODE
 70
    32
  9
$ATTMODE
 70
     1
  9
$TEXTSIZE
 40
50.0
  9
$TRACEWID
 40
0.05
  9
$TEXTSTYLE
  7
STANDARD
  9
$CLAYER
  8
KOTY-UPLNE
  9
$CELTYPE
  6
BYLAYER
  9
$CECOLOR
 62
   256
  9
$CELTSCALE
 40
1.0
  9
$DELOBJ
 70
     1
  9
$DISPSILH
 70
     0
  9
$DIMSCALE
 40
3.0
  9
$DIMASZ
 40
5.0
  9
$DIMEXO
 40
1.0
  9
$DIMDLI
 40
0.0
  9
$DIMRND
 40
1.0
  9
$DIMDLE
 40
1.0
  9
$DIMEXE
 40
2.0
  9
$DIMTP
 40
0.0
  9
$DIMTM
 40
0.0
  9
$DIMTXT
 40
6.44
  9
$DIMCEN
 40
1.0
  9
$DIMTSZ
 40
0.0
  9
$DIMTOL
 70
     0
  9
$DIMLIM
 70
     0
  9
$DIMTIH
 70
     0
  9
$DIMTOH
 70
     0
  9
$DIMSE1
 70
     0
  9
$DIMSE2
 70
     0
  9
$DIMTAD
 70
     3
  9
$DIMZIN
 70
     0
  9
$DIMBLK
  1

  9
$DIMASO
 70
     1
  9
$DIMSHO
 70
     0
  9
$DIMPOST
  1

  9
$DIMAPOST
  1

  9
$DIMALT
 70
     0
  9
$DIMALTD
 70
     2
  9
$DIMALTF
 40
25.4
  9
$DIMLFAC
 40
1.0
  9
$DIMTOFL
 70
     1
  9
$DIMTVP
 40
0.0
  9
$DIMTIX
 70
     1
  9
$DIMSOXD
 70
     0
  9
$DIMSAH
 70
     0
  9
$DIMBLK1
  1

  9
$DIMBLK2
  1

  9
$DIMSTYLE
  2
UPLNE
  9
$DIMCLRD
 70
   256
  9
$DIMCLRE
 70
   256
  9
$DIMCLRT
 70
     5
  9
$DIMTFAC
 40
1.0
  9
$DIMGAP
 40
2.0
  9
$DIMJUST
 70
     0
  9
$DIMSD1
 70
     0
  9
$DIMSD2
 70
     0
  9
$DIMTOLJ
 70
     1
  9
$DIMTZIN
 70
     0
  9
$DIMALTZ
 70
     0
  9
$DIMALTTZ
 70
     0
  9
$DIMFIT
 70
     5
  9
$DIMUPT
 70
     0
  9
$DIMUNIT
 70
     2
  9
$DIMDEC
 70
     0
  9
$DIMTDEC
 70
     0
  9
$DIMALTU
 70
     2
  9
$DIMALTTD
 70
     2
  9
$DIMTXSTY
  7
STANDARD
  9
$DIMAUNIT
 70
     0
  9
$LUNITS
 70
     2
  9
$LUPREC
 70
     2
  9
$SKETCHINC
 40
0.1
  9
$FILLETRAD
 40
5.0
  9
$AUNITS
 70
     0
  9
$AUPREC
 70
     2
  9
$MENU
  1
acad
  9
$ELEVATION
 40
0.0
  9
$PELEVATION
 40
0.0
  9
$THICKNESS
 40
0.0
  9
$LIMCHECK
 70
     0
  9
$BLIPMODE
 70
     1
  9
$CHAMFERA
 40
0.0
  9
$CHAMFERB
 40
0.0
  9
$CHAMFERC
 40
0.0
  9
$CHAMFERD
 40
0.0
  9
$SKPOLY
 70
     0
  9
$TDCREATE
 40
2448722.252204629
  9
$TDUPDATE
 40
2452465.885988194
  9
$TDINDWG
 40
2.5235643519
  9
$TDUSRTIMER
 40
2.5235643519
  9
$USRTIMER
 70
     1
  9
$ANGBASE
 50
0.0
  9
$ANGDIR
 70
     0
  9
$PDMODE
 70
     0
  9
$PDSIZE
 40
0.0
  9
$PLINEWID
 40
0.0
  9
$COORDS
 70
     2
  9
$SPLFRAME
 70
     0
  9
$SPLINETYPE
 70
     6
  9
$SPLINESEGS
 70
     8
  9
$ATTDIA
 70
     0
  9
$ATTREQ
 70
     1
  9
$HANDLING
 70
     1
  9
$HANDSEED
  5
CF
  9
$SURFTAB1
 70
     6
  9
$SURFTAB2
 70
     6
  9
$SURFTYPE
 70
     6
  9
$SURFU
 70
     6
  9
$SURFV
 70
     6
  9
$UCSNAME
  2

  9
$UCSORG
 10
0.0
 20
0.0
 30
0.0
  9
$UCSXDIR
 10
1.0
 20
0.0
 30
0.0
  9
$UCSYDIR
 10
0.0
 20
1.0
 30
0.0
  9
$PUCSNAME
  2

  9
$PUCSORG
 10
0.0
 20
0.0
 30
0.0
  9
$PUCSXDIR
 10
1.0
 20
0.0
 30
0.0
  9
$PUCSYDIR
 10
0.0
 20
1.0
 30
0.0
  9
$USERI1
 70
     1
  9
$USERI2
 70
     0
  9
$USERI3
 70
     0
  9
$USERI4
 70
     0
  9
$USERI5
 70
     0
  9
$USERR1
 40
0.0
  9
$USERR2
 40
0.0
  9
$USERR3
 40
0.0
  9
$USERR4
 40
0.0
  9
$USERR5
 40
0.0
  9
$WORLDVIEW
 70
     1
  9
$SHADEDGE
 70
     3
  9
$SHADEDIF
 70
    70
  9
$TILEMODE
 70
     1
  9
$MAXACTVP
 70
    16
  9
$PINSBASE
 10
0.0
 20
0.0
 30
0.0
  9
$PLIMCHECK
 70
     0
  9
$PEXTMIN
 10
1.000000E+20
 20
1.000000E+20
 30
1.000000E+20
  9
$PEXTMAX
 10
-1.000000E+20
 20
-1.000000E+20
 30
-1.000000E+20
  9
$PLIMMIN
 10
0.0
 20
0.0
  9
$PLIMMAX
 10
12.0
 20
9.0
  9
$UNITMODE
 70
     0
  9
$VISRETAIN
 70
     0
  9
$PLINEGEN
 70
     0
  9
$PSLTSCALE
 70
     0
  9
$TREEDEPTH
 70
  3020
  9
$PICKSTYLE
 70
     0
  9
$CMLSTYLE
  2
STANDARD
  9
$CMLJUST
 70
     0
  9
$CMLSCALE
 40
1.0
  9
$PROXYGRAPHICS
 70
     1
  9
$MEASUREMENT
 70
     0
  0
ENDSEC
  0
SECTION
  2
CLASSES
  0
CLASS
  1
LWPOLYLINE
  2
AcDbPolyline
  3
"AutoCAD"
 90
        0
280
     0
281
     1
  0
CLASS
  1
DICTIONARYVAR
  2
AcDbDictionaryVar
  3
"AutoCAD"
 90
        0
280
     0
281
     0
  0
ENDSEC
  0
SECTION
  2
TABLES
  0
TABLE
  2
VPORT
  5
12
100
AcDbSymbolTable
 70
     2
  0
VPORT
  5
CE
100
AcDbSymbolTableRecord
100
AcDbViewportTableRecord
  2
*ACTIVE
 70
     0
 10
0.0
 20
0.0
 11
1.0
 21
1.0
 12
698.861516
 22
-193.937749
 13
0.0
 23
0.0
 14
1.0
 24
1.0
 15
600.0
 25
600.0
 16
0.0
 26
0.0
 36
1.0
 17
0.0
 27
0.0
 37
0.0
 40
699.911865
 41
2.224444
 42
50.0
 43
0.0
 44
0.0
 50
0.0
 51
0.0
 71
     0
 72
   100
 73
     1
 74
     0
 75
     0
 76
     0
 77
     0
 78
     0
  0
ENDTAB
  0
TABLE
  2
LTYPE
  5
D
100
AcDbSymbolTable
 70
     1
  0
LTYPE
  5
E
100
AcDbSymbolTableRecord
100
AcDbLinetypeTableRecord
  2
BYBLOCK
 70
     0
  3

 72
    65
 73
     0
 40
0.0
  0
LTYPE
  5
F
100
AcDbSymbolTableRecord
100
AcDbLinetypeTableRecord
  2
BYLAYER
 70
     0
  3

 72
    65
 73
     0
 40
0.0
  0
LTYPE
  5
5
100
AcDbSymbolTableRecord
100
AcDbLinetypeTableRecord
  2
CONTINUOUS
 70
     0
  3
Solid line
 72
    65
 73
     0
 40
0.0
  0
ENDTAB
  0
TABLE
  2
LAYER
  5
A
100
AcDbSymbolTable
 70
     7
  0
LAYER
  5
4
100
AcDbSymbolTableRecord
100
AcDbLayerTableRecord
  2
0
 70
     0
 62
     7
  6
CONTINUOUS
  0
LAYER
  5
1B
100
AcDbSymbolTableRecord
100
AcDbLayerTableRecord
  2
KOTY-UPLNE
 70
     0
 62
     7
  6
CONTINUOUS
  0
LAYER
  5
33
100
AcDbSymbolTableRecord
100
AcDbLayerTableRecord
  2
RAMEC
 70
     0
 62
     5
  6
CONTINUOUS
  0
LAYER
  5
C6
100
AcDbSymbolTableRecord
100
AcDbLayerTableRecord
  2
POZICE
 70
     0
 62
     1
  6
CONTINUOUS
  0
LAYER
  5
C9
100
AcDbSymbolTableRecord
100
AcDbLayerTableRecord
  2
POPIS
 70
     0
 62
     1
  6
CONTINUOUS
  0
LAYER
  5
2B
100
AcDbSymbolTableRecord
100
AcDbLayerTableRecord
  2
DEFPOINTS
 70
     0
 62
     7
  6
CONTINUOUS
  0
LAYER
  5
31
100
AcDbSymbolTableRecord
100
AcDbLayerTableRecord
  2
TRAPEZ-VELKY
 70
     0
 62
     7
  6
CONTINUOUS
  0
ENDTAB
  0
TABLE
  2
STYLE
  5
B
100
AcDbSymbolTable
 70
     2
  0
STYLE
  5
C
100
AcDbSymbolTableRecord
100
AcDbTextStyleTableRecord
  2
STANDARD
 70
     0
 40
0.0
 41
0.9
 50
0.0
 71
     0
 42
50.0
  3
simplex.shx
  4

  0
STYLE
  5
C7
100
AcDbSymbolTableRecord
100
AcDbTextStyleTableRecord
  2
STYLE1
 70
     0
 40
0.0
 41
0.9
 50
0.0
 71
     0
 42
50.0
  3
simplex.shx
  4

  0
ENDTAB
  0
TABLE
  2
VIEW
  5
10
100
AcDbSymbolTable
 70
     0
  0
ENDTAB
  0
TABLE
  2
UCS
  5
11
100
AcDbSymbolTable
 70
     0
  0
ENDTAB
  0
TABLE
  2
APPID
  5
14
100
AcDbSymbolTable
 70
     1
  0
APPID
  5
15
100
AcDbSymbolTableRecord
100
AcDbRegAppTableRecord
  2
ACAD
 70
     0
  0
ENDTAB
  0
TABLE
  2
DIMSTYLE
  5
16
100
AcDbSymbolTable
 70
     1
  0
DIMSTYLE
105
1D
102
{ACAD_REACTORS
330
22
330
34
330
41
330
50
330
5F
330
6E
330
7E
330
8D
330
9C
330
AB
330
B8
102
}
100
AcDbSymbolTableRecord
100
AcDbDimStyleTableRecord
  2
UPLNE
 70
     0
  3

  4

  5

  6

  7

 40
5.0
 41
5.0
 42
1.0
 43
0.0
 44
2.0
 45
1.0
 46
1.0
 47
0.0
 48
0.0
140
6.44
141
1.0
142
0.0
143
25.4
144
1.0
145
0.0
146
1.0
147
1.0
 71
     0
 72
     0
 73
     0
 74
     0
 75
     0
 76
     0
 77
     3
 78
     0
170
     0
171
     2
172
     1
173
     0
174
     1
175
     0
176
   256
177
   256
178
     5
270
     2
271
     0
272
     0
273
     2
274
     2
340
C
275
     0
280
     0
281
     0
282
     0
283
     1
284
     0
285
     0
286
     0
287
     5
288
     0
  0
ENDTAB
  0
TABLE
  2
BLOCK_RECORD
  5
1
100
AcDbSymbolTable
 70
    11
  0
BLOCK_RECORD
  5
2
100
AcDbSymbolTableRecord
100
AcDbBlockTableRecord
  2
*MODEL_SPACE
  0
BLOCK_RECORD
  5
7
100
AcDbSymbolTableRecord
100
AcDbBlockTableRecord
  2
*PAPER_SPACE
  0
BLOCK_RECORD
  5
35
100
AcDbSymbolTableRecord
100
AcDbBlockTableRecord
  2
*D0
  0
BLOCK_RECORD
  5
23
100
AcDbSymbolTableRecord
100
AcDbBlockTableRecord
  2
*D1
  0
BLOCK_RECORD
  5
51
100
AcDbSymbolTableRecord
100
AcDbBlockTableRecord
  2
*D2
  0
BLOCK_RECORD
  5
42
100
AcDbSymbolTableRecord
100
AcDbBlockTableRecord
  2
*D3
  0
BLOCK_RECORD
  5
9D
100
AcDbSymbolTableRecord
100
AcDbBlockTableRecord
  2
*D4
  0
BLOCK_RECORD
  5
AC
100
AcDbSymbolTableRecord
100
AcDbBlockTableRecord
  2
*D5
  0
BLOCK_RECORD
  5
8E
100
AcDbSymbolTableRecord
100
AcDbBlockTableRecord
  2
*D6
  0
BLOCK_RECORD
  5
7F
100
AcDbSymbolTableRecord
100
AcDbBlockTableRecord
  2
*D7
  0
BLOCK_RECORD
  5
6F
100
AcDbSymbolTableRecord
100
AcDbBlockTableRecord
  2
*D8
  0
BLOCK_RECORD
  5
60
100
AcDbSymbolTableRecord
100
AcDbBlockTableRecord
  2
*D9
  0
BLOCK_RECORD
  5
B9
100
AcDbSymbolTableRecord
100
AcDbBlockTableRecord
  2
*D10
  0
ENDTAB
  0
ENDSEC
  0
SECTION
  2
BLOCKS
  0
BLOCK
  5
3
100
AcDbEntity
  8
0
100
AcDbBlockBegin
  2
*MODEL_SPACE
 70
     0
 10
0.0
 20
0.0
 30
0.0
  3
*MODEL_SPACE
  1

  0
ENDBLK
  5
6
100
AcDbEntity
  8
0
100
AcDbBlockEnd
  0
BLOCK
  5
8
100
AcDbEntity
 67
     1
  8
0
100
AcDbBlockBegin
  2
*PAPER_SPACE
 70
     0
 10
0.0
 20
0.0
 30
0.0
  3
*PAPER_SPACE
  1

  0
ENDBLK
  5
9
100
AcDbEntity
 67
     1
  8
0
100
AcDbBlockEnd
  0
BLOCK
  5
3F
100
AcDbEntity
  8
0
100
AcDbBlockBegin
  2
*D0
 70
     1
 10
0.0
 20
0.0
 30
0.0
  3
*D0
  1

  0
LINE
  5
36
100
AcDbEntity
  8
0
  6
BYBLOCK
100
AcDbLine
 10
-403.817313
 20
-1905.543507
 30
0.0
 11
-403.817313
 21
-2008.542274
 31
0.0
  0
LINE
  5
37
100
AcDbEntity
  8
0
  6
BYBLOCK
100
AcDbLine
 10
-141.317313
 20
-1905.543507
 30
0.0
 11
-141.317313
 21
-2008.542274
 31
0.0
  0
LINE
  5
38
100
AcDbEntity
  8
0
  6
BYBLOCK
100
AcDbLine
 10
-388.817313
 20
-2002.542274
 30
0.0
 11
-156.317313
 21
-2002.542274
 31
0.0
  0
SOLID
  5
39
100
AcDbEntity
  8
0
  6
BYBLOCK
100
AcDbTrace
 10
-388.817313
 20
-2000.042274
 30
0.0
 11
-388.817313
 21
-2005.042274
 31
0.0
 12
-403.817313
 22
-2002.542274
 32
0.0
 13
-403.817313
 23
-2002.542274
 33
0.0
  0
SOLID
  5
3A
100
AcDbEntity
  8
0
  6
BYBLOCK
100
AcDbTrace
 10
-156.317313
 20
-2000.042274
 30
0.0
 11
-156.317313
 21
-2005.042274
 31
0.0
 12
-141.317313
 22
-2002.542274
 32
0.0
 13
-141.317313
 23
-2002.542274
 33
0.0
  0
MTEXT
  5
3B
100
AcDbEntity
  8
0
  6
BYBLOCK
 62
     5
100
AcDbMText
 10
-272.567313
 20
-1985.042274
 30
0.0
 40
19.32
 41
0.0
 71
     5
 72
     1
  1
\A1;262,5
  0
POINT
  5
3C
100
AcDbEntity
  8
DEFPOINTS
  6
BYBLOCK
 62
     0
100
AcDbPoint
 10
-403.817313
 20
-1902.543507
 30
0.0
  0
POINT
  5
3D
100
AcDbEntity
  8
DEFPOINTS
  6
BYBLOCK
 62
     0
100
AcDbPoint
 10
-141.317313
 20
-1902.543507
 30
0.0
  0
POINT
  5
3E
100
AcDbEntity
  8
DEFPOINTS
  6
BYBLOCK
 62
     0
100
AcDbPoint
 10
-141.317313
 20
-2002.542274
 30
0.0
  0
ENDBLK
  5
40
100
AcDbEntity
  8
0
100
AcDbBlockEnd
  0
BLOCK
  5
2E
100
AcDbEntity
  8
0
100
AcDbBlockBegin
  2
*D1
 70
     1
 10
0.0
 20
0.0
 30
0.0
  3
*D1
  1

  0
LINE
  5
24
100
AcDbEntity
  8
0
  6
BYBLOCK
100
AcDbLine
 10
-403.817313
 20
-1905.543507
 30
0.0
 11
-403.817313
 21
-2068.542274
 31
0.0
  0
LINE
  5
25
100
AcDbEntity
  8
0
  6
BYBLOCK
100
AcDbLine
 10
646.182687
 20
-1905.543507
 30
0.0
 11
646.182687
 21
-2068.542274
 31
0.0
  0
LINE
  5
26
100
AcDbEntity
  8
0
  6
BYBLOCK
100
AcDbLine
 10
-388.817313
 20
-2062.542274
 30
0.0
 11
631.182687
 21
-2062.542274
 31
0.0
  0
SOLID
  5
27
100
AcDbEntity
  8
0
  6
BYBLOCK
100
AcDbTrace
 10
-388.817313
 20
-2060.042274
 30
0.0
 11
-388.817313
 21
-2065.042274
 31
0.0
 12
-403.817313
 22
-2062.542274
 32
0.0
 13
-403.817313
 23
-2062.542274
 33
0.0
  0
SOLID
  5
28
100
AcDbEntity
  8
0
  6
BYBLOCK
100
AcDbTrace
 10
631.182687
 20
-2060.042274
 30
0.0
 11
631.182687
 21
-2065.042274
 31
0.0
 12
646.182687
 22
-2062.542274
 32
0.0
 13
646.182687
 23
-2062.542274
 33
0.0
  0
MTEXT
  5
29
100
AcDbEntity
  8
0
  6
BYBLOCK
 62
     5
100
AcDbMText
 10
121.182687
 20
-2046.882274
 30
0.0
 40
19.32
 41
0.0
 71
     5
 72
     1
  1
\A1;1050
  0
POINT
  5
2A
100
AcDbEntity
  8
DEFPOINTS
  6
BYBLOCK
 62
     0
100
AcDbPoint
 10
-403.817313
 20
-1902.543507
 30
0.0
  0
POINT
  5
2C
100
AcDbEntity
  8
DEFPOINTS
  6
BYBLOCK
 62
     0
100
AcDbPoint
 10
646.182687
 20
-1902.543507
 30
0.0
  0
POINT
  5
2D
100
AcDbEntity
  8
DEFPOINTS
  6
BYBLOCK
 62
     0
100
AcDbPoint
 10
646.182687
 20
-2062.542274
 30
0.0
  0
ENDBLK
  5
2F
100
AcDbEntity
  8
0
100
AcDbBlockEnd
  0
BLOCK
  5
5D
100
AcDbEntity
  8
0
100
AcDbBlockBegin
  2
*D2
 70
     1
 10
0.0
 20
0.0
 30
0.0
  3
*D2
  1

  0
LINE
  5
52
100
AcDbEntity
  8
0
  6
BYBLOCK
100
AcDbLine
 10
649.182687
 20
-1902.543507
 30
0.0
 11
773.337576
 21
-1902.543507
 31
0.0
  0
LINE
  5
53
100
AcDbEntity
  8
0
  6
BYBLOCK
100
AcDbLine
 10
718.182687
 20
-1932.543507
 30
0.0
 11
773.337576
 21
-1932.543507
 31
0.0
  0
LINE
  5
54
100
AcDbEntity
  8
0
  6
BYBLOCK
100
AcDbLine
 10
767.337576
 20
-1887.543507
 30
0.0
 11
767.337576
 21
-1872.543507
 31
0.0
  0
LINE
  5
55
100
AcDbEntity
  8
0
  6
BYBLOCK
100
AcDbLine
 10
767.337576
 20
-1947.543507
 30
0.0
 11
767.337576
 21
-1962.543507
 31
0.0
  0
LINE
  5
56
100
AcDbEntity
  8
0
  6
BYBLOCK
100
AcDbLine
 10
767.337576
 20
-1902.543507
 30
0.0
 11
767.337576
 21
-1932.543507
 31
0.0
  0
SOLID
  5
57
100
AcDbEntity
  8
0
  6
BYBLOCK
100
AcDbTrace
 10
764.837576
 20
-1887.543507
 30
0.0
 11
769.837576
 21
-1887.543507
 31
0.0
 12
767.337576
 22
-1902.543507
 32
0.0
 13
767.337576
 23
-1902.543507
 33
0.0
  0
SOLID
  5
58
100
AcDbEntity
  8
0
  6
BYBLOCK
100
AcDbTrace
 10
764.837576
 20
-1947.543507
 30
0.0
 11
769.837576
 21
-1947.543507
 31
0.0
 12
767.337576
 22
-1932.543507
 32
0.0
 13
767.337576
 23
-1932.543507
 33
0.0
  0
MTEXT
  5
59
100
AcDbEntity
  8
0
  6
BYBLOCK
 62
     5
100
AcDbMText
 10
751.677576
 20
-1917.543507
 30
0.0
 40
19.32
 41
0.0
 71
     5
 72
     1
  1
\A1;30
 11
0.0
 21
1.0
 31
0.0
  0
POINT
  5
5A
100
AcDbEntity
  8
DEFPOINTS
  6
BYBLOCK
 62
     0
100
AcDbPoint
 10
646.182687
 20
-1902.543507
 30
0.0
  0
POINT
  5
5B
100
AcDbEntity
  8
DEFPOINTS
  6
BYBLOCK
 62
     0
100
AcDbPoint
 10
715.182687
 20
-1932.543507
 30
0.0
  0
POINT
  5
5C
100
AcDbEntity
  8
DEFPOINTS
  6
BYBLOCK
 62
     0
100
AcDbPoint
 10
767.337576
 20
-1932.543507
 30
0.0
  0
ENDBLK
  5
5E
100
AcDbEntity
  8
0
100
AcDbBlockEnd
  0
BLOCK
  5
4E
100
AcDbEntity
  8
0
100
AcDbBlockBegin
  2
*D3
 70
     1
 10
0.0
 20
0.0
 30
0.0
  3
*D3
  1

  0
LINE
  5
43
100
AcDbEntity
  8
0
  6
BYBLOCK
100
AcDbLine
 10
-161.317313
 20
-1899.543507
 30
0.0
 11
-161.317313
 21
-1857.731824
 31
0.0
  0
LINE
  5
44
100
AcDbEntity
  8
0
  6
BYBLOCK
100
AcDbLine
 10
-121.317313
 20
-1899.543507
 30
0.0
 11
-121.317313
 21
-1857.731824
 31
0.0
  0
LINE
  5
45
100
AcDbEntity
  8
0
  6
BYBLOCK
100
AcDbLine
 10
-176.317313
 20
-1863.731824
 30
0.0
 11
-191.317313
 21
-1863.731824
 31
0.0
  0
LINE
  5
46
100
AcDbEntity
  8
0
  6
BYBLOCK
100
AcDbLine
 10
-106.317313
 20
-1863.731824
 30
0.0
 11
-91.317313
 21
-1863.731824
 31
0.0
  0
LINE
  5
47
100
AcDbEntity
  8
0
  6
BYBLOCK
100
AcDbLine
 10
-161.317313
 20
-1863.731824
 30
0.0
 11
-121.317313
 21
-1863.731824
 31
0.0
  0
SOLID
  5
48
100
AcDbEntity
  8
0
  6
BYBLOCK
100
AcDbTrace
 10
-176.317313
 20
-1861.231824
 30
0.0
 11
-176.317313
 21
-1866.231824
 31
0.0
 12
-161.317313
 22
-1863.731824
 32
0.0
 13
-161.317313
 23
-1863.731824
 33
0.0
  0
SOLID
  5
49
100
AcDbEntity
  8
0
  6
BYBLOCK
100
AcDbTrace
 10
-106.317313
 20
-1861.231824
 30
0.0
 11
-106.317313
 21
-1866.231824
 31
0.0
 12
-121.317313
 22
-1863.731824
 32
0.0
 13
-121.317313
 23
-1863.731824
 33
0.0
  0
MTEXT
  5
4A
100
AcDbEntity
  8
0
  6
BYBLOCK
 62
     5
100
AcDbMText
 10
-141.317313
 20
-1848.071824
 30
0.0
 40
19.32
 41
0.0
 71
     5
 72
     1
  1
\A1;40
  0
POINT
  5
4B
100
AcDbEntity
  8
DEFPOINTS
  6
BYBLOCK
 62
     0
100
AcDbPoint
 10
-161.317313
 20
-1902.543507
 30
0.0
  0
POINT
  5
4C
100
AcDbEntity
  8
DEFPOINTS
  6
BYBLOCK
 62
     0
100
AcDbPoint
 10
-121.317313
 20
-1902.543507
 30
0.0
  0
POINT
  5
4D
100
AcDbEntity
  8
DEFPOINTS
  6
BYBLOCK
 62
     0
100
AcDbPoint
 10
-121.317313
 20
-1863.731824
 30
0.0
  0
ENDBLK
  5
4F
100
AcDbEntity
  8
0
100
AcDbBlockEnd
  0
BLOCK
  5
A9
100
AcDbEntity
  8
0
100
AcDbBlockBegin
  2
*D4
 70
     1
 10
0.0
 20
0.0
 30
0.0
  3
*D4
  1

  0
LINE
  5
9E
100
AcDbEntity
  8
0
  6
BYBLOCK
100
AcDbLine
 10
170.182687
 20
-1935.543507
 30
0.0
 11
170.182687
 21
-2008.542274
 31
0.0
  0
LINE
  5
9F
100
AcDbEntity
  8
0
  6
BYBLOCK
100
AcDbLine
 10
229.682687
 20
-1935.543507
 30
0.0
 11
229.682687
 21
-2008.542274
 31
0.0
  0
LINE
  5
A0
100
AcDbEntity
  8
0
  6
BYBLOCK
100
AcDbLine
 10
155.182687
 20
-2002.542274
 30
0.0
 11
140.182687
 21
-2002.542274
 31
0.0
  0
LINE
  5
A1
100
AcDbEntity
  8
0
  6
BYBLOCK
100
AcDbLine
 10
244.682687
 20
-2002.542274
 30
0.0
 11
259.682687
 21
-2002.542274
 31
0.0
  0
LINE
  5
A2
100
AcDbEntity
  8
0
  6
BYBLOCK
100
AcDbLine
 10
170.182687
 20
-2002.542274
 30
0.0
 11
229.682687
 21
-2002.542274
 31
0.0
  0
SOLID
  5
A3
100
AcDbEntity
  8
0
  6
BYBLOCK
100
AcDbTrace
 10
155.182687
 20
-2000.042274
 30
0.0
 11
155.182687
 21
-2005.042274
 31
0.0
 12
170.182687
 22
-2002.542274
 32
0.0
 13
170.182687
 23
-2002.542274
 33
0.0
  0
SOLID
  5
A4
100
AcDbEntity
  8
0
  6
BYBLOCK
100
AcDbTrace
 10
244.682687
 20
-2000.042274
 30
0.0
 11
244.682687
 21
-2005.042274
 31
0.0
 12
229.682687
 22
-2002.542274
 32
0.0
 13
229.682687
 23
-2002.542274
 33
0.0
  0
MTEXT
  5
A5
100
AcDbEntity
  8
0
  6
BYBLOCK
 62
     5
100
AcDbMText
 10
199.932687
 20
-1985.042274
 30
0.0
 40
19.32
 41
0.0
 71
     5
 72
     1
  1
\A1;59,5
  0
POINT
  5
A6
100
AcDbEntity
  8
DEFPOINTS
  6
BYBLOCK
 62
     0
100
AcDbPoint
 10
170.182687
 20
-1932.543507
 30
0.0
  0
POINT
  5
A7
100
AcDbEntity
  8
DEFPOINTS
  6
BYBLOCK
 62
     0
100
AcDbPoint
 10
229.682687
 20
-1932.543507
 30
0.0
  0
POINT
  5
A8
100
AcDbEntity
  8
DEFPOINTS
  6
BYBLOCK
 62
     0
100
AcDbPoint
 10
229.682687
 20
-2002.542274
 30
0.0
  0
ENDBLK
  5
AA
100
AcDbEntity
  8
0
100
AcDbBlockEnd
  0
BLOCK
  5
B6
100
AcDbEntity
  8
0
100
AcDbBlockBegin
  2
*D5
 70
     1
 10
0.0
 20
0.0
 30
0.0
  3
*D5
  1

  0
LINE
  5
AD
100
AcDbEntity
  8
0
  6
BYBLOCK
100
AcDbLine
 10
229.682687
 20
-1935.543507
 30
0.0
 11
229.682687
 21
-2008.542274
 31
0.0
  0
LINE
  5
AE
100
AcDbEntity
  8
0
  6
BYBLOCK
100
AcDbLine
 10
275.182687
 20
-1935.543507
 30
0.0
 11
275.182687
 21
-2008.542274
 31
0.0
  0
LINE
  5
AF
100
AcDbEntity
  8
0
  6
BYBLOCK
100
AcDbLine
 10
244.682687
 20
-2002.542274
 30
0.0
 11
260.182687
 21
-2002.542274
 31
0.0
  0
MTEXT
  5
B0
100
AcDbEntity
  8
0
  6
BYBLOCK
 62
     5
100
AcDbMText
 10
252.432687
 20
-2026.532148
 30
0.0
 40
19.32
 41
0.0
 71
     5
 72
     1
  1
\A1;45,5
  0
SOLID
  5
B1
100
AcDbEntity
  8
0
  6
BYBLOCK
100
AcDbTrace
 10
244.682687
 20
-2000.042274
 30
0.0
 11
244.682687
 21
-2005.042274
 31
0.0
 12
229.682687
 22
-2002.542274
 32
0.0
 13
229.682687
 23
-2002.542274
 33
0.0
  0
SOLID
  5
B2
100
AcDbEntity
  8
0
  6
BYBLOCK
100
AcDbTrace
 10
260.182687
 20
-2000.042274
 30
0.0
 11
260.182687
 21
-2005.042274
 31
0.0
 12
275.182687
 22
-2002.542274
 32
0.0
 13
275.182687
 23
-2002.542274
 33
0.0
  0
POINT
  5
B3
100
AcDbEntity
  8
DEFPOINTS
  6
BYBLOCK
 62
     0
100
AcDbPoint
 10
229.682687
 20
-1932.543507
 30
0.0
  0
POINT
  5
B4
100
AcDbEntity
  8
DEFPOINTS
  6
BYBLOCK
 62
     0
100
AcDbPoint
 10
275.182687
 20
-1932.543507
 30
0.0
  0
POINT
  5
B5
100
AcDbEntity
  8
DEFPOINTS
  6
BYBLOCK
 62
     0
100
AcDbPoint
 10
275.182687
 20
-2002.542274
 30
0.0
  0
ENDBLK
  5
B7
100
AcDbEntity
  8
0
100
AcDbBlockEnd
  0
BLOCK
  5
9A
100
AcDbEntity
  8
0
100
AcDbBlockBegin
  2
*D6
 70
     1
 10
0.0
 20
0.0
 30
0.0
  3
*D6
  1

  0
LINE
  5
8F
100
AcDbEntity
  8
0
  6
BYBLOCK
100
AcDbLine
 10
275.182687
 20
-1935.543507
 30
0.0
 11
275.182687
 21
-2008.542274
 31
0.0
  0
LINE
  5
90
100
AcDbEntity
  8
0
  6
BYBLOCK
100
AcDbLine
 10
334.682687
 20
-1935.543507
 30
0.0
 11
334.682687
 21
-2008.542274
 31
0.0
  0
LINE
  5
91
100
AcDbEntity
  8
0
  6
BYBLOCK
100
AcDbLine
 10
260.182687
 20
-2002.542274
 30
0.0
 11
245.182687
 21
-2002.542274
 31
0.0
  0
LINE
  5
92
100
AcDbEntity
  8
0
  6
BYBLOCK
100
AcDbLine
 10
349.682687
 20
-2002.542274
 30
0.0
 11
364.682687
 21
-2002.542274
 31
0.0
  0
LINE
  5
93
100
AcDbEntity
  8
0
  6
BYBLOCK
100
AcDbLine
 10
275.182687
 20
-2002.542274
 30
0.0
 11
334.682687
 21
-2002.542274
 31
0.0
  0
SOLID
  5
94
100
AcDbEntity
  8
0
  6
BYBLOCK
100
AcDbTrace
 10
260.182687
 20
-2000.042274
 30
0.0
 11
260.182687
 21
-2005.042274
 31
0.0
 12
275.182687
 22
-2002.542274
 32
0.0
 13
275.182687
 23
-2002.542274
 33
0.0
  0
SOLID
  5
95
100
AcDbEntity
  8
0
  6
BYBLOCK
100
AcDbTrace
 10
349.682687
 20
-2000.042274
 30
0.0
 11
349.682687
 21
-2005.042274
 31
0.0
 12
334.682687
 22
-2002.542274
 32
0.0
 13
334.682687
 23
-2002.542274
 33
0.0
  0
MTEXT
  5
96
100
AcDbEntity
  8
0
  6
BYBLOCK
 62
     5
100
AcDbMText
 10
304.932687
 20
-1985.042274
 30
0.0
 40
19.32
 41
0.0
 71
     5
 72
     1
  1
\A1;59,5
  0
POINT
  5
97
100
AcDbEntity
  8
DEFPOINTS
  6
BYBLOCK
 62
     0
100
AcDbPoint
 10
275.182687
 20
-1932.543507
 30
0.0
  0
POINT
  5
98
100
AcDbEntity
  8
DEFPOINTS
  6
BYBLOCK
 62
     0
100
AcDbPoint
 10
334.682687
 20
-1932.543507
 30
0.0
  0
POINT
  5
99
100
AcDbEntity
  8
DEFPOINTS
  6
BYBLOCK
 62
     0
100
AcDbPoint
 10
334.682687
 20
-2002.542274
 30
0.0
  0
ENDBLK
  5
9B
100
AcDbEntity
  8
0
100
AcDbBlockEnd
  0
BLOCK
  5
8B
100
AcDbEntity
  8
0
100
AcDbBlockBegin
  2
*D7
 70
     1
 10
0.0
 20
0.0
 30
0.0
  3
*D7
  1

  0
LINE
  5
80
100
AcDbEntity
  8
0
  6
BYBLOCK
100
AcDbLine
 10
231.932687
 20
-1927.543507
 30
0.0
 11
231.932687
 21
-1857.731824
 31
0.0
  0
LINE
  5
81
100
AcDbEntity
  8
0
  6
BYBLOCK
100
AcDbLine
 10
272.932687
 20
-1927.543507
 30
0.0
 11
272.932687
 21
-1857.731824
 31
0.0
  0
LINE
  5
82
100
AcDbEntity
  8
0
  6
BYBLOCK
100
AcDbLine
 10
216.932687
 20
-1863.731824
 30
0.0
 11
201.932687
 21
-1863.731824
 31
0.0
  0
LINE
  5
83
100
AcDbEntity
  8
0
  6
BYBLOCK
100
AcDbLine
 10
287.932687
 20
-1863.731824
 30
0.0
 11
302.932687
 21
-1863.731824
 31
0.0
  0
LINE
  5
84
100
AcDbEntity
  8
0
  6
BYBLOCK
100
AcDbLine
 10
231.932687
 20
-1863.731824
 30
0.0
 11
272.932687
 21
-1863.731824
 31
0.0
  0
SOLID
  5
85
100
AcDbEntity
  8
0
  6
BYBLOCK
100
AcDbTrace
 10
216.932687
 20
-1861.231824
 30
0.0
 11
216.932687
 21
-1866.231824
 31
0.0
 12
231.932687
 22
-1863.731824
 32
0.0
 13
231.932687
 23
-1863.731824
 33
0.0
  0
SOLID
  5
86
100
AcDbEntity
  8
0
  6
BYBLOCK
100
AcDbTrace
 10
287.932687
 20
-1861.231824
 30
0.0
 11
287.932687
 21
-1866.231824
 31
0.0
 12
272.932687
 22
-1863.731824
 32
0.0
 13
272.932687
 23
-1863.731824
 33
0.0
  0
MTEXT
  5
87
100
AcDbEntity
  8
0
  6
BYBLOCK
 62
     5
100
AcDbMText
 10
252.432687
 20
-1848.071824
 30
0.0
 40
19.32
 41
0.0
 71
     5
 72
     1
  1
\A1;41
  0
POINT
  5
88
100
AcDbEntity
  8
DEFPOINTS
  6
BYBLOCK
 62
     0
100
AcDbPoint
 10
231.932687
 20
-1930.543507
 30
0.0
  0
POINT
  5
89
100
AcDbEntity
  8
DEFPOINTS
  6
BYBLOCK
 62
     0
100
AcDbPoint
 10
272.932687
 20
-1930.543507
 30
0.0
  0
POINT
  5
8A
100
AcDbEntity
  8
DEFPOINTS
  6
BYBLOCK
 62
     0
100
AcDbPoint
 10
272.932687
 20
-1863.731824
 30
0.0
  0
ENDBLK
  5
8C
100
AcDbEntity
  8
0
100
AcDbBlockEnd
  0
BLOCK
  5
7C
100
AcDbEntity
  8
0
100
AcDbBlockBegin
  2
*D8
 70
     1
 10
0.0
 20
0.0
 30
0.0
  3
*D8
  1

  0
LINE
  5
70
100
AcDbEntity
  8
0
  6
BYBLOCK
100
AcDbLine
 10
517.932687
 20
-1930.543507
 30
0.0
 11
579.437586
 21
-1930.543507
 31
0.0
  0
LINE
  5
71
100
AcDbEntity
  8
0
  6
BYBLOCK
100
AcDbLine
 10
540.682687
 20
-1932.543507
 30
0.0
 11
579.437586
 21
-1932.543507
 31
0.0
  0
LINE
  5
72
100
AcDbEntity
  8
0
  6
BYBLOCK
100
AcDbLine
 10
573.437586
 20
-1915.543507
 30
0.0
 11
573.437586
 21
-1900.543507
 31
0.0
  0
LINE
  5
73
100
AcDbEntity
  8
0
  6
BYBLOCK
100
AcDbLine
 10
573.437586
 20
-1947.543507
 30
0.0
 11
573.437586
 21
-1962.543507
 31
0.0
  0
MTEXT
  5
74
100
AcDbEntity
  8
0
  6
BYBLOCK
 62
     5
100
AcDbMText
 10
557.687586
 20
-1950.437016
 30
0.0
 40
19.32
 41
0.0
 71
     5
 72
     1
  1
\A1;2
 11
0.0
 21
1.0
 31
0.0
  0
LINE
  5
75
100
AcDbEntity
  8
0
  6
BYBLOCK
100
AcDbLine
 10
573.437586
 20
-1930.543507
 30
0.0
 11
573.437586
 21
-1932.543507
 31
0.0
  0
LINE
  5
76
100
AcDbEntity
  8
0
  6
BYBLOCK
100
AcDbLine
 10
573.437586
 20
-1930.543507
 30
0.0
 11
573.437586
 21
-1932.543507
 31
0.0
  0
SOLID
  5
77
100
AcDbEntity
  8
0
  6
BYBLOCK
100
AcDbTrace
 10
570.937586
 20
-1915.543507
 30
0.0
 11
575.937586
 21
-1915.543507
 31
0.0
 12
573.437586
 22
-1930.543507
 32
0.0
 13
573.437586
 23
-1930.543507
 33
0.0
  0
SOLID
  5
78
100
AcDbEntity
  8
0
  6
BYBLOCK
100
AcDbTrace
 10
570.937586
 20
-1947.543507
 30
0.0
 11
575.937586
 21
-1947.543507
 31
0.0
 12
573.437586
 22
-1932.543507
 32
0.0
 13
573.437586
 23
-1932.543507
 33
0.0
  0
POINT
  5
79
100
AcDbEntity
  8
DEFPOINTS
  6
BYBLOCK
 62
     0
100
AcDbPoint
 10
514.932687
 20
-1930.543507
 30
0.0
  0
POINT
  5
7A
100
AcDbEntity
  8
DEFPOINTS
  6
BYBLOCK
 62
     0
100
AcDbPoint
 10
537.682687
 20
-1932.543507
 30
0.0
  0
POINT
  5
7B
100
AcDbEntity
  8
DEFPOINTS
  6
BYBLOCK
 62
     0
100
AcDbPoint
 10
573.437586
 20
-1932.543507
 30
0.0
  0
ENDBLK
  5
7D
100
AcDbEntity
  8
0
100
AcDbBlockEnd
  0
BLOCK
  5
6C
100
AcDbEntity
  8
0
100
AcDbBlockBegin
  2
*D9
 70
     1
 10
0.0
 20
0.0
 30
0.0
  3
*D9
  1

  0
LINE
  5
61
100
AcDbEntity
  8
0
  6
BYBLOCK
100
AcDbLine
 10
432.682687
 20
-1929.543507
 30
0.0
 11
432.682687
 21
-1857.731824
 31
0.0
  0
LINE
  5
62
100
AcDbEntity
  8
0
  6
BYBLOCK
100
AcDbLine
 10
403.682687
 20
-1899.543507
 30
0.0
 11
403.682687
 21
-1857.731824
 31
0.0
  0
LINE
  5
63
100
AcDbEntity
  8
0
  6
BYBLOCK
100
AcDbLine
 10
447.682687
 20
-1863.731824
 30
0.0
 11
462.682687
 21
-1863.731824
 31
0.0
  0
LINE
  5
64
100
AcDbEntity
  8
0
  6
BYBLOCK
100
AcDbLine
 10
388.682687
 20
-1863.731824
 30
0.0
 11
373.682687
 21
-1863.731824
 31
0.0
  0
LINE
  5
65
100
AcDbEntity
  8
0
  6
BYBLOCK
100
AcDbLine
 10
432.682687
 20
-1863.731824
 30
0.0
 11
403.682687
 21
-1863.731824
 31
0.0
  0
SOLID
  5
66
100
AcDbEntity
  8
0
  6
BYBLOCK
100
AcDbTrace
 10
447.682687
 20
-1861.231824
 30
0.0
 11
447.682687
 21
-1866.231824
 31
0.0
 12
432.682687
 22
-1863.731824
 32
0.0
 13
432.682687
 23
-1863.731824
 33
0.0
  0
SOLID
  5
67
100
AcDbEntity
  8
0
  6
BYBLOCK
100
AcDbTrace
 10
388.682687
 20
-1861.231824
 30
0.0
 11
388.682687
 21
-1866.231824
 31
0.0
 12
403.682687
 22
-1863.731824
 32
0.0
 13
403.682687
 23
-1863.731824
 33
0.0
  0
MTEXT
  5
68
100
AcDbEntity
  8
0
  6
BYBLOCK
 62
     5
100
AcDbMText
 10
418.182687
 20
-1848.071824
 30
0.0
 40
19.32
 41
0.0
 71
     5
 72
     1
  1
\A1;29
  0
POINT
  5
69
100
AcDbEntity
  8
DEFPOINTS
  6
BYBLOCK
 62
     0
100
AcDbPoint
 10
432.682687
 20
-1932.543507
 30
0.0
  0
POINT
  5
6A
100
AcDbEntity
  8
DEFPOINTS
  6
BYBLOCK
 62
     0
100
AcDbPoint
 10
403.682687
 20
-1902.543507
 30
0.0
  0
POINT
  5
6B
100
AcDbEntity
  8
DEFPOINTS
  6
BYBLOCK
 62
     0
100
AcDbPoint
 10
403.682687
 20
-1863.731824
 30
0.0
  0
ENDBLK
  5
6D
100
AcDbEntity
  8
0
100
AcDbBlockEnd
  0
BLOCK
  5
C3
100
AcDbEntity
  8
0
100
AcDbBlockBegin
  2
*D10
 70
     1
 10
0.0
 20
0.0
 30
0.0
  3
*D10
  1

  0
LINE
  5
BA
100
AcDbEntity
  8
0
  6
BYBLOCK
100
AcDbLine
 10
334.682687
 20
-1935.543507
 30
0.0
 11
334.682687
 21
-2008.542274
 31
0.0
  0
LINE
  5
BB
100
AcDbEntity
  8
0
  6
BYBLOCK
100
AcDbLine
 10
432.682687
 20
-1935.543507
 30
0.0
 11
432.682687
 21
-2008.542274
 31
0.0
  0
LINE
  5
BC
100
AcDbEntity
  8
0
  6
BYBLOCK
100
AcDbLine
 10
349.682687
 20
-2002.542274
 30
0.0
 11
417.682687
 21
-2002.542274
 31
0.0
  0
SOLID
  5
BD
100
AcDbEntity
  8
0
  6
BYBLOCK
100
AcDbTrace
 10
349.682687
 20
-2000.042274
 30
0.0
 11
349.682687
 21
-2005.042274
 31
0.0
 12
334.682687
 22
-2002.542274
 32
0.0
 13
334.682687
 23
-2002.542274
 33
0.0
  0
SOLID
  5
BE
100
AcDbEntity
  8
0
  6
BYBLOCK
100
AcDbTrace
 10
417.682687
 20
-2000.042274
 30
0.0
 11
417.682687
 21
-2005.042274
 31
0.0
 12
432.682687
 22
-2002.542274
 32
0.0
 13
432.682687
 23
-2002.542274
 33
0.0
  0
MTEXT
  5
BF
100
AcDbEntity
  8
0
  6
BYBLOCK
 62
     5
100
AcDbMText
 10
383.682687
 20
-1986.882274
 30
0.0
 40
19.32
 41
0.0
 71
     5
 72
     1
  1
\A1;98
  0
POINT
  5
C0
100
AcDbEntity
  8
DEFPOINTS
  6
BYBLOCK
 62
     0
100
AcDbPoint
 10
334.682687
 20
-1932.543507
 30
0.0
  0
POINT
  5
C1
100
AcDbEntity
  8
DEFPOINTS
  6
BYBLOCK
 62
     0
100
AcDbPoint
 10
432.682687
 20
-1932.543507
 30
0.0
  0
POINT
  5
C2
100
AcDbEntity
  8
DEFPOINTS
  6
BYBLOCK
 62
     0
100
AcDbPoint
 10
432.682687
 20
-2002.542274
 30
0.0
  0
ENDBLK
  5
C4
100
AcDbEntity
  8
0
100
AcDbBlockEnd
  0
ENDSEC
  0
SECTION
  2
ENTITIES
  0
MTEXT
  5
1E
102
{ACAD_REACTORS
330
1F
102
}
100
AcDbEntity
  8
KOTY-UPLNE
 62
     5
100
AcDbMText
 10
454.686159
 20
-199.358339
 30
0.0
 40
16.5
 41
0.0
 71
     4
 72
     1
  1
\A1;R=4
  0
LEADER
  5
1F
100
AcDbEntity
  8
KOTY-UPLNE
100
AcDbLeader
  3
UPLNE
 73
     0
 74
     0
 75
     1
 40
16.5
 41
43.842857
 76
     3
 10
435.355297
 20
-139.886161
 30
0.0
 10
433.686159
 20
-213.608339
 30
0.0
 10
448.686159
 20
-213.608339
 30
0.0
 77
   256
340
1E
1001
ACAD
1000
DSTYLE
1002
{
1070
    40
1040
3.0
1070
   147
1040
2.0
1002
}
  0
MTEXT
  5
20
102
{ACAD_REACTORS
330
21
102
}
100
AcDbEntity
  8
KOTY-UPLNE
 62
     5
100
AcDbMText
 10
521.367848
 20
-115.721981
 30
0.0
 40
16.5
 41
0.0
 71
     4
 72
     1
  1
\A1;R=4
  0
LEADER
  5
21
100
AcDbEntity
  8
KOTY-UPLNE
100
AcDbLeader
  3
UPLNE
 73
     0
 74
     0
 75
     1
 40
16.5
 41
43.842857
 76
     3
 10
464.355297
 20
-169.886161
 30
0.0
 10
500.367848
 20
-129.971981
 30
0.0
 10
515.367848
 20
-129.971981
 30
0.0
 77
   256
340
20
1001
ACAD
1000
DSTYLE
1002
{
1070
    40
1040
3.0
1070
   147
1040
2.0
1002
}
  0
DIMENSION
  5
22
100
AcDbEntity
  8
KOTY-UPLNE
100
AcDbDimension
  2
*D1
 10
1202.855297
 20
-299.884928
 30
0.0
 11
677.855297
 21
-284.224928
 31
0.0
 12
556.67261
 22
1762.657346
 32
0.0
  3
UPLNE
100
AcDbAlignedDimension
 13
152.855297
 23
-139.886161
 33
0.0
 14
1202.855297
 24
-139.886161
 34
0.0
100
AcDbRotatedDimension
1001
ACAD
1000
DSTYLE
1002
{
1070
    40
1040
3.0
1070
   147
1040
2.0
1002
}
  0
LWPOLYLINE
  5
30
100
AcDbEntity
  8
TRAPEZ-VELKY
100
AcDbPolyline
 90
       81
 70
     0
 43
5.0
 10
1271.855297
 20
-169.884928
 10
1253.552003
 20
-169.884928
 42
-0.203321
 10
1250.676049
 20
-168.665017
 10
1224.034545
 20
-141.10484
 42
0.203321
 10
1221.158592
 20
-139.884928
 10
1202.855297
 20
-139.884928
 10
1184.552003
 20
-139.884928
 42
0.203321
 10
1181.676049
 20
-141.10484
 10
1155.034545
 20
-168.665017
 42
-0.203321
 10
1152.158592
 20
-169.884928
 10
1095.115696
 20
-169.884928
 42
-0.183686
 10
1093.786968
 20
-169.379747
 10
1092.673626
 20
-168.390109
 42
0.183686
 10
1091.344899
 20
-167.884928
 10
1071.605297
 20
-167.884928
 10
1051.865696
 20
-167.884928
 42
0.183686
 10
1050.536968
 20
-168.390109
 10
1048.855297
 20
-169.884928
 10
991.052003
 20
-169.884928
 42
-0.203321
 10
988.176049
 20
-168.665017
 10
961.534545
 20
-141.10484
 42
0.203321
 10
958.658592
 20
-139.884928
 10
940.355297
 20
-139.884928
 10
922.052003
 20
-139.884928
 42
0.203321
 10
919.176049
 20
-141.10484
 10
892.534545
 20
-168.665017
 42
-0.203321
 10
889.658592
 20
-169.884928
 10
861.137144
 20
-169.884928
 10
832.615696
 20
-169.884928
 42
-0.183686
 10
831.286968
 20
-169.379747
 10
830.173626
 20
-168.390109
 42
0.183686
 10
828.844899
 20
-167.884928
 10
809.105297
 20
-167.884928
 10
789.365696
 20
-167.884928
 42
0.183686
 10
788.036968
 20
-168.390109
 10
786.923626
 20
-169.379747
 42
-0.183686
 10
785.594899
 20
-169.884928
 10
728.552003
 20
-169.884928
 42
-0.203321
 10
725.676049
 20
-168.665017
 10
699.034545
 20
-141.10484
 42
0.203321
 10
696.158592
 20
-139.884928
 10
677.855297
 20
-139.884928
 10
659.552003
 20
-139.884928
 42
0.203321
 10
656.676049
 20
-141.10484
 10
630.034545
 20
-168.665017
 42
-0.203321
 10
627.158592
 20
-169.884928
 10
570.115696
 20
-169.884928
 42
-0.183686
 10
568.786968
 20
-169.379747
 10
567.673626
 20
-168.390109
 42
0.183686
 10
566.344899
 20
-167.884928
 10
546.605297
 20
-167.884928
 10
526.865696
 20
-167.884928
 42
0.183686
 10
525.536968
 20
-168.390109
 10
523.855297
 20
-169.884928
 10
466.052003
 20
-169.884928
 42
-0.203321
 10
463.176049
 20
-168.665017
 10
436.534545
 20
-141.10484
 42
0.203321
 10
433.658592
 20
-139.884928
 10
415.355297
 20
-139.884928
 10
397.052003
 20
-139.884928
 42
0.203321
 10
394.176049
 20
-141.10484
 10
367.534545
 20
-168.665017
 42
-0.203321
 10
364.658592
 20
-169.884928
 10
336.137144
 20
-169.884928
 10
307.615696
 20
-169.884928
 42
-0.183686
 10
306.286968
 20
-169.379747
 10
305.173626
 20
-168.390109
 42
0.183686
 10
303.844899
 20
-167.884928
 10
284.105297
 20
-167.884928
 10
264.365696
 20
-167.884928
 42
0.183686
 10
263.036968
 20
-168.390109
 10
261.923626
 20
-169.379747
 42
-0.183686
 10
260.594899
 20
-169.884928
 10
203.552003
 20
-169.884928
 42
-0.203321
 10
200.676049
 20
-168.665017
 10
174.034545
 20
-141.10484
 42
0.203321
 10
171.158592
 20
-139.884928
 10
152.855297
 20
-139.884928
 10
134.552003
 20
-139.884928
 42
0.203321
 10
131.676049
 20
-141.10484
 10
123.407689
 20
-149.658315
  0
LWPOLYLINE
  5
32
100
AcDbEntity
  8
RAMEC
100
AcDbPolyline
 90
        4
 70
     1
 43
0.0
 10
0.0
 20
0.0
 10
0.0
 20
-349.001233
 10
1349.672502
 20
-349.001233
 10
1349.672502
 20
0.0
  0
DIMENSION
  5
34
100
AcDbEntity
  8
KOTY-UPLNE
100
AcDbDimension
  2
*D0
 10
415.355297
 20
-239.884928
 30
0.0
 11
284.105297
 21
-222.384928
 31
0.0
 12
556.67261
 22
1762.657346
 32
0.0
  1
262,5
  3
UPLNE
100
AcDbAlignedDimension
 13
152.855297
 23
-139.886161
 33
0.0
 14
415.355297
 24
-139.886161
 34
0.0
100
AcDbRotatedDimension
1001
ACAD
1000
DSTYLE
1002
{
1070
    40
1040
3.0
1070
   147
1040
2.0
1002
}
  0
DIMENSION
  5
41
100
AcDbEntity
  8
KOTY-UPLNE
100
AcDbDimension
  2
*D3
 10
435.355297
 20
-101.074478
 30
0.0
 11
415.355297
 21
-85.414478
 31
0.0
 12
556.67261
 22
1762.657346
 32
0.0
  3
UPLNE
100
AcDbAlignedDimension
 13
395.355297
 23
-139.886161
 33
0.0
 14
435.355297
 24
-139.886161
 34
0.0
100
AcDbRotatedDimension
1001
ACAD
1000
DSTYLE
1002
{
1070
    40
1040
3.0
1070
   147
1040
2.0
1002
}
  0
DIMENSION
  5
50
100
AcDbEntity
  8
KOTY-UPLNE
100
AcDbDimension
  2
*D2
 10
1324.010186
 20
-169.886161
 30
0.0
 11
1308.350186
 21
-154.886161
 31
0.0
 12
556.67261
 22
1762.657346
 32
0.0
  3
UPLNE
100
AcDbAlignedDimension
 13
1202.855297
 23
-139.886161
 33
0.0
 14
1271.855297
 24
-169.886161
 34
0.0
 50
90.0
100
AcDbRotatedDimension
1001
ACAD
1000
DSTYLE
1002
{
1070
    40
1040
3.0
1070
   147
1040
2.0
1002
}
  0
DIMENSION
  5
5F
100
AcDbEntity
  8
KOTY-UPLNE
100
AcDbDimension
  2
*D9
 10
960.355297
 20
-101.074478
 30
0.0
 11
974.855297
 21
-85.414478
 31
0.0
 12
556.67261
 22
1762.657346
 32
0.0
  3
UPLNE
100
AcDbAlignedDimension
 13
989.355297
 23
-169.886161
 33
0.0
 14
960.355297
 24
-139.886161
 34
0.0
100
AcDbRotatedDimension
1001
ACAD
1000
DSTYLE
1002
{
1070
    40
1040
3.0
1070
   147
1040
2.0
1002
}
  0
DIMENSION
  5
6E
100
AcDbEntity
  8
KOTY-UPLNE
100
AcDbDimension
  2
*D8
 10
1130.110196
 20
-169.886161
 30
0.0
 11
1114.360196
 21
-187.77967
 31
0.0
 12
556.67261
 22
1762.657346
 32
0.0
 70
   128
  3
UPLNE
100
AcDbAlignedDimension
 13
1071.605297
 23
-167.886161
 33
0.0
 14
1094.355297
 24
-169.886161
 34
0.0
 50
90.0
100
AcDbRotatedDimension
1001
ACAD
1000
DSTYLE
1002
{
1070
    40
1040
3.0
1070
   147
1040
2.0
1002
}
  0
DIMENSION
  5
7E
100
AcDbEntity
  8
KOTY-UPLNE
100
AcDbDimension
  2
*D7
 10
829.605297
 20
-101.074478
 30
0.0
 11
809.105297
 21
-85.414478
 31
0.0
 12
556.67261
 22
1762.657346
 32
0.0
  3
UPLNE
100
AcDbAlignedDimension
 13
788.605297
 23
-167.886161
 33
0.0
 14
829.605297
 24
-167.886161
 34
0.0
100
AcDbRotatedDimension
1001
ACAD
1000
DSTYLE
1002
{
1070
    40
1040
3.0
1070
   147
1040
2.0
1002
}
  0
DIMENSION
  5
8D
100
AcDbEntity
  8
KOTY-UPLNE
100
AcDbDimension
  2
*D6
 10
891.355297
 20
-239.884928
 30
0.0
 11
861.605297
 21
-222.384928
 31
0.0
 12
556.67261
 22
1762.657346
 32
0.0
  1
59,5
  3
UPLNE
100
AcDbAlignedDimension
 13
831.855297
 23
-169.886161
 33
0.0
 14
891.355297
 24
-169.886161
 34
0.0
100
AcDbRotatedDimension
1001
ACAD
1000
DSTYLE
1002
{
1070
    40
1040
3.0
1070
   147
1040
2.0
1002
}
  0
DIMENSION
  5
9C
100
AcDbEntity
  8
KOTY-UPLNE
100
AcDbDimension
  2
*D4
 10
786.355297
 20
-239.884928
 30
0.0
 11
756.605297
 21
-222.384928
 31
0.0
 12
556.67261
 22
1762.657346
 32
0.0
  1
59,5
  3
UPLNE
100
AcDbAlignedDimension
 13
726.855297
 23
-169.886161
 33
0.0
 14
786.355297
 24
-169.886161
 34
0.0
100
AcDbRotatedDimension
1001
ACAD
1000
DSTYLE
1002
{
1070
    40
1040
3.0
1070
   147
1040
2.0
1002
}
  0
DIMENSION
  5
AB
100
AcDbEntity
  8
KOTY-UPLNE
100
AcDbDimension
  2
*D5
 10
831.855297
 20
-239.884928
 30
0.0
 11
809.105297
 21
-263.874802
 31
0.0
 12
556.67261
 22
1762.657346
 32
0.0
 70
   128
  1
45,5
  3
UPLNE
100
AcDbAlignedDimension
 13
786.355297
 23
-169.886161
 33
0.0
 14
831.855297
 24
-169.886161
 34
0.0
100
AcDbRotatedDimension
1001
ACAD
1000
DSTYLE
1002
{
1070
    40
1040
3.0
1070
   147
1040
2.0
1002
}
  0
DIMENSION
  5
B8
100
AcDbEntity
  8
KOTY-UPLNE
100
AcDbDimension
  2
*D10
 10
989.355297
 20
-239.884928
 30
0.0
 11
940.355297
 21
-224.224928
 31
0.0
 12
556.67261
 22
1762.657346
 32
0.0
  3
UPLNE
100
AcDbAlignedDimension
 13
891.355297
 23
-169.886161
 33
0.0
 14
989.355297
 24
-169.886161
 34
0.0
100
AcDbRotatedDimension
1001
ACAD
1000
DSTYLE
1002
{
1070
    40
1040
3.0
1070
   147
1040
2.0
1002
}
  0
MTEXT
  5
C5
100
AcDbEntity
  8
POZICE
100
AcDbMText
 10
1069.770426
 20
-228.010378
 30
0.0
 40
41.73
 41
1.0
 71
     5
 72
     1
  1
B
  7
STYLE1
  0
MTEXT
  5
C8
100
AcDbEntity
  8
POPIS
100
AcDbMText
 10
661.730741
 20
-42.124031
 30
0.0
 40
40.0
 41
1.0
 71
     5
 72
     1
  1
TR 30/262,5
  7
STYLE1
  0
MTEXT
  5
CA
100
AcDbEntity
  8
POZICE
100
AcDbMText
 10
1069.770426
 20
-124.24031
 30
0.0
 40
41.73
 41
1.0
 71
     5
 72
     1
  1
A
  7
STYLE1
  0
ENDSEC
  0
SECTION
  2
OBJECTS
  0
DICTIONARY
  5
1A
100
AcDbDictionary
  3
ACAD_GROUP
350
18
  3
ACAD_MLINESTYLE
350
19
  0
DICTIONARY
  5
18
102
{ACAD_REACTORS
330
1A
102
}
100
AcDbDictionary
  0
DICTIONARY
  5
19
102
{ACAD_REACTORS
330
1A
102
}
100
AcDbDictionary
  3
STANDARD
350
1C
  0
MLINESTYLE
  5
1C
102
{ACAD_REACTORS
330
19
102
}
100
AcDbMlineStyle
  2
STANDARD
 70
     0
  3

 62
   256
 51
90.0
 52
90.0
 71
     2
 49
0.5
 62
   256
  6
BYLAYER
 49
-0.5
 62
   256
  6
BYLAYER
  0
ENDSEC
  0
EOF
