  0
SECTION
  2
HEADER
  9
$ACADVER
  1
AC1014
  9
$ACADMAINTVER
 70
     0
  9
$DWGCODEPAGE
  3
ANSI_1250
  9
$INSBASE
 10
0.0
 20
0.0
 30
0.0
  9
$EXTMIN
 10
0.0
 20
0.0
 30
0.0
  9
$EXTMAX
 10
1349.672502
 20
337.001233
 30
0.0
  9
$LIMMIN
 10
-1000.0
 20
-1000.0
  9
$LIMMAX
 10
1000.0
 20
1000.0
  9
$ORTHOMODE
 70
     1
  9
$REGENMODE
 70
     1
  9
$FILLMODE
 70
     1
  9
$QTEXTMODE
 70
     0
  9
$MIRRTEXT
 70
     0
  9
$DRAGMODE
 70
     2
  9
$LTSCALE
 40
3.0
  9
$OSMODE
 70
    43
  9
$ATTMODE
 70
     1
  9
$TEXTSIZE
 40
50.0
  9
$TRACEWID
 40
0.05
  9
$TEXTSTYLE
  7
STANDARD
  9
$CLAYER
  8
0
  9
$CELTYPE
  6
BYLAYER
  9
$CECOLOR
 62
   256
  9
$CELTSCALE
 40
1.0
  9
$DELOBJ
 70
     1
  9
$DISPSILH
 70
     0
  9
$DIMSCALE
 40
3.0
  9
$DIMASZ
 40
5.0
  9
$DIMEXO
 40
1.0
  9
$DIMDLI
 40
0.0
  9
$DIMRND
 40
0.01
  9
$DIMDLE
 40
1.0
  9
$DIMEXE
 40
2.0
  9
$DIMTP
 40
0.0
  9
$DIMTM
 40
0.0
  9
$DIMTXT
 40
6.44
  9
$DIMCEN
 40
1.0
  9
$DIMTSZ
 40
0.0
  9
$DIMTOL
 70
     0
  9
$DIMLIM
 70
     0
  9
$DIMTIH
 70
     0
  9
$DIMTOH
 70
     0
  9
$DIMSE1
 70
     0
  9
$DIMSE2
 70
     0
  9
$DIMTAD
 70
     3
  9
$DIMZIN
 70
     0
  9
$DIMBLK
  1

  9
$DIMASO
 70
     1
  9
$DIMSHO
 70
     0
  9
$DIMPOST
  1

  9
$DIMAPOST
  1

  9
$DIMALT
 70
     0
  9
$DIMALTD
 70
     2
  9
$DIMALTF
 40
25.4
  9
$DIMLFAC
 40
1.0
  9
$DIMTOFL
 70
     1
  9
$DIMTVP
 40
0.0
  9
$DIMTIX
 70
     1
  9
$DIMSOXD
 70
     0
  9
$DIMSAH
 70
     0
  9
$DIMBLK1
  1

  9
$DIMBLK2
  1

  9
$DIMSTYLE
  2
UPLNE
  9
$DIMCLRD
 70
   256
  9
$DIMCLRE
 70
   256
  9
$DIMCLRT
 70
     5
  9
$DIMTFAC
 40
1.0
  9
$DIMGAP
 40
1.0
  9
$DIMJUST
 70
     0
  9
$DIMSD1
 70
     0
  9
$DIMSD2
 70
     0
  9
$DIMTOLJ
 70
     1
  9
$DIMTZIN
 70
     0
  9
$DIMALTZ
 70
     0
  9
$DIMALTTZ
 70
     0
  9
$DIMFIT
 70
     5
  9
$DIMUPT
 70
     0
  9
$DIMUNIT
 70
     2
  9
$DIMDEC
 70
     0
  9
$DIMTDEC
 70
     2
  9
$DIMALTU
 70
     2
  9
$DIMALTTD
 70
     2
  9
$DIMTXSTY
  7
STANDARD
  9
$DIMAUNIT
 70
     0
  9
$LUNITS
 70
     2
  9
$LUPREC
 70
     2
  9
$SKETCHINC
 40
0.1
  9
$FILLETRAD
 40
3.0
  9
$AUNITS
 70
     0
  9
$AUPREC
 70
     2
  9
$MENU
  1
acad
  9
$ELEVATION
 40
0.0
  9
$PELEVATION
 40
0.0
  9
$THICKNESS
 40
0.0
  9
$LIMCHECK
 70
     0
  9
$BLIPMODE
 70
     1
  9
$CHAMFERA
 40
0.0
  9
$CHAMFERB
 40
0.0
  9
$CHAMFERC
 40
0.0
  9
$CHAMFERD
 40
0.0
  9
$SKPOLY
 70
     0
  9
$TDCREATE
 40
2448722.252204629
  9
$TDUPDATE
 40
2452922.502143518
  9
$TDINDWG
 40
2.8075603009
  9
$TDUSRTIMER
 40
2.8075603009
  9
$USRTIMER
 70
     1
  9
$ANGBASE
 50
0.0
  9
$ANGDIR
 70
     0
  9
$PDMODE
 70
     0
  9
$PDSIZE
 40
0.0
  9
$PLINEWID
 40
0.0
  9
$COORDS
 70
     2
  9
$SPLFRAME
 70
     0
  9
$SPLINETYPE
 70
     6
  9
$SPLINESEGS
 70
     8
  9
$ATTDIA
 70
     0
  9
$ATTREQ
 70
     1
  9
$HANDLING
 70
     1
  9
$HANDSEED
  5
B2
  9
$SURFTAB1
 70
     6
  9
$SURFTAB2
 70
     6
  9
$SURFTYPE
 70
     6
  9
$SURFU
 70
     6
  9
$SURFV
 70
     6
  9
$UCSNAME
  2

  9
$UCSORG
 10
0.0
 20
0.0
 30
0.0
  9
$UCSXDIR
 10
1.0
 20
0.0
 30
0.0
  9
$UCSYDIR
 10
0.0
 20
1.0
 30
0.0
  9
$PUCSNAME
  2

  9
$PUCSORG
 10
0.0
 20
0.0
 30
0.0
  9
$PUCSXDIR
 10
1.0
 20
0.0
 30
0.0
  9
$PUCSYDIR
 10
0.0
 20
1.0
 30
0.0
  9
$USERI1
 70
     1
  9
$USERI2
 70
     0
  9
$USERI3
 70
     0
  9
$USERI4
 70
     0
  9
$USERI5
 70
     0
  9
$USERR1
 40
0.0
  9
$USERR2
 40
0.0
  9
$USERR3
 40
0.0
  9
$USERR4
 40
0.0
  9
$USERR5
 40
0.0
  9
$WORLDVIEW
 70
     1
  9
$SHADEDGE
 70
     3
  9
$SHADEDIF
 70
    70
  9
$TILEMODE
 70
     1
  9
$MAXACTVP
 70
    16
  9
$PINSBASE
 10
0.0
 20
0.0
 30
0.0
  9
$PLIMCHECK
 70
     0
  9
$PEXTMIN
 10
1.000000E+20
 20
1.000000E+20
 30
1.000000E+20
  9
$PEXTMAX
 10
-1.000000E+20
 20
-1.000000E+20
 30
-1.000000E+20
  9
$PLIMMIN
 10
0.0
 20
0.0
  9
$PLIMMAX
 10
12.0
 20
9.0
  9
$UNITMODE
 70
     0
  9
$VISRETAIN
 70
     1
  9
$PLINEGEN
 70
     0
  9
$PSLTSCALE
 70
     0
  9
$TREEDEPTH
 70
  3020
  9
$PICKSTYLE
 70
     0
  9
$CMLSTYLE
  2
STANDARD
  9
$CMLJUST
 70
     0
  9
$CMLSCALE
 40
1.0
  9
$PROXYGRAPHICS
 70
     1
  9
$MEASUREMENT
 70
     0
  0
ENDSEC
  0
SECTION
  2
CLASSES
  0
CLASS
  1
LWPOLYLINE
  2
AcDbPolyline
  3
"AutoCAD"
 90
        0
280
     0
281
     1
  0
CLASS
  1
DICTIONARYVAR
  2
AcDbDictionaryVar
  3
"AutoCAD"
 90
        0
280
     0
281
     0
  0
CLASS
  1
XRECORD
  2
AcDbXrecord
  3
"<Built In>"
 90
        0
280
     0
281
     0
  0
ENDSEC
  0
SECTION
  2
TABLES
  0
TABLE
  2
VPORT
  5
12
100
AcDbSymbolTable
 70
     2
  0
VPORT
  5
B1
100
AcDbSymbolTableRecord
100
AcDbViewportTableRecord
  2
*ACTIVE
 70
     0
 10
0.0
 20
0.0
 11
1.0
 21
1.0
 12
689.311819
 22
151.497536
 13
0.0
 23
0.0
 14
1.0
 24
1.0
 15
600.0
 25
600.0
 16
0.0
 26
0.0
 36
1.0
 17
0.0
 27
0.0
 37
0.0
 40
843.165076
 41
2.059548
 42
50.0
 43
0.0
 44
0.0
 50
0.0
 51
0.0
 71
     0
 72
   100
 73
     1
 74
     0
 75
     0
 76
     0
 77
     0
 78
     0
  0
ENDTAB
  0
TABLE
  2
LTYPE
  5
D
100
AcDbSymbolTable
 70
     1
  0
LTYPE
  5
E
100
AcDbSymbolTableRecord
100
AcDbLinetypeTableRecord
  2
BYBLOCK
 70
     0
  3

 72
    65
 73
     0
 40
0.0
  0
LTYPE
  5
F
100
AcDbSymbolTableRecord
100
AcDbLinetypeTableRecord
  2
BYLAYER
 70
     0
  3

 72
    65
 73
     0
 40
0.0
  0
LTYPE
  5
5
100
AcDbSymbolTableRecord
100
AcDbLinetypeTableRecord
  2
CONTINUOUS
 70
     0
  3
Solid line
 72
    65
 73
     0
 40
0.0
  0
ENDTAB
  0
TABLE
  2
LAYER
  5
A
100
AcDbSymbolTable
 70
     7
  0
LAYER
  5
4
100
AcDbSymbolTableRecord
100
AcDbLayerTableRecord
  2
0
 70
     0
 62
     7
  6
CONTINUOUS
  0
LAYER
  5
22
100
AcDbSymbolTableRecord
100
AcDbLayerTableRecord
  2
KOTY-UPLNE
 70
     0
 62
     7
  6
CONTINUOUS
  0
LAYER
  5
1E
100
AcDbSymbolTableRecord
100
AcDbLayerTableRecord
  2
TRAPEZ-VELKY
 70
     0
 62
     7
  6
CONTINUOUS
  0
LAYER
  5
31
100
AcDbSymbolTableRecord
100
AcDbLayerTableRecord
  2
RAMEC
 70
     0
 62
     5
  6
CONTINUOUS
  0
LAYER
  5
8D
100
AcDbSymbolTableRecord
100
AcDbLayerTableRecord
  2
POZICE
 70
     0
 62
     1
  6
CONTINUOUS
  0
LAYER
  5
42
100
AcDbSymbolTableRecord
100
AcDbLayerTableRecord
  2
POPIS
 70
     0
 62
     1
  6
CONTINUOUS
  0
LAYER
  5
2B
100
AcDbSymbolTableRecord
100
AcDbLayerTableRecord
  2
DEFPOINTS
 70
     0
 62
     7
  6
CONTINUOUS
  0
ENDTAB
  0
TABLE
  2
STYLE
  5
B
100
AcDbSymbolTable
 70
     2
  0
STYLE
  5
C
100
AcDbSymbolTableRecord
100
AcDbTextStyleTableRecord
  2
STANDARD
 70
     0
 40
0.0
 41
0.9
 50
0.0
 71
     0
 42
50.0
  3
simplex.shx
  4

  0
STYLE
  5
43
100
AcDbSymbolTableRecord
100
AcDbTextStyleTableRecord
  2
STYLE1
 70
     0
 40
0.0
 41
0.9
 50
0.0
 71
     0
 42
50.0
  3
simplex.shx
  4

  0
ENDTAB
  0
TABLE
  2
VIEW
  5
10
100
AcDbSymbolTable
 70
     0
  0
ENDTAB
  0
TABLE
  2
UCS
  5
11
100
AcDbSymbolTable
 70
     0
  0
ENDTAB
  0
TABLE
  2
APPID
  5
14
100
AcDbSymbolTable
 70
     1
  0
APPID
  5
15
100
AcDbSymbolTableRecord
100
AcDbRegAppTableRecord
  2
ACAD
 70
     0
  0
ENDTAB
  0
TABLE
  2
DIMSTYLE
  5
16
100
AcDbSymbolTable
 70
     1
  0
DIMSTYLE
105
1C
102
{ACAD_REACTORS
330
21
330
8F
330
9F
330
53
330
7F
330
70
330
32
330
44
330
63
102
}
100
AcDbSymbolTableRecord
100
AcDbDimStyleTableRecord
  2
UPLNE
 70
     0
  3

  4

  5

  6

  7

 40
5.0
 41
5.0
 42
1.0
 43
0.0
 44
2.0
 45
0.01
 46
1.0
 47
0.0
 48
0.0
140
6.44
141
1.0
142
0.0
143
25.4
144
1.0
145
0.0
146
1.0
147
1.0
 71
     0
 72
     0
 73
     0
 74
     0
 75
     0
 76
     0
 77
     3
 78
     0
170
     0
171
     2
172
     1
173
     0
174
     1
175
     0
176
   256
177
   256
178
     5
270
     2
271
     2
272
     2
273
     2
274
     2
340
C
275
     0
280
     0
281
     0
282
     0
283
     1
284
     0
285
     0
286
     0
287
     5
288
     0
  0
ENDTAB
  0
TABLE
  2
BLOCK_RECORD
  5
1
100
AcDbSymbolTable
 70
     9
  0
BLOCK_RECORD
  5
2
100
AcDbSymbolTableRecord
100
AcDbBlockTableRecord
  2
*MODEL_SPACE
  0
BLOCK_RECORD
  5
7
100
AcDbSymbolTableRecord
100
AcDbBlockTableRecord
  2
*PAPER_SPACE
  0
BLOCK_RECORD
  5
23
100
AcDbSymbolTableRecord
100
AcDbBlockTableRecord
  2
*D0
  0
BLOCK_RECORD
  5
90
100
AcDbSymbolTableRecord
100
AcDbBlockTableRecord
  2
*D1
  0
BLOCK_RECORD
  5
64
100
AcDbSymbolTableRecord
100
AcDbBlockTableRecord
  2
*D2
  0
BLOCK_RECORD
  5
A0
100
AcDbSymbolTableRecord
100
AcDbBlockTableRecord
  2
*D3
  0
BLOCK_RECORD
  5
54
100
AcDbSymbolTableRecord
100
AcDbBlockTableRecord
  2
*D4
  0
BLOCK_RECORD
  5
80
100
AcDbSymbolTableRecord
100
AcDbBlockTableRecord
  2
*D5
  0
BLOCK_RECORD
  5
71
100
AcDbSymbolTableRecord
100
AcDbBlockTableRecord
  2
*D6
  0
BLOCK_RECORD
  5
45
100
AcDbSymbolTableRecord
100
AcDbBlockTableRecord
  2
*D7
  0
BLOCK_RECORD
  5
33
100
AcDbSymbolTableRecord
100
AcDbBlockTableRecord
  2
*D8
  0
ENDTAB
  0
ENDSEC
  0
SECTION
  2
BLOCKS
  0
BLOCK
  5
3
100
AcDbEntity
  8
0
100
AcDbBlockBegin
  2
*MODEL_SPACE
 70
     0
 10
0.0
 20
0.0
 30
0.0
  3
*MODEL_SPACE
  1

  0
ENDBLK
  5
6
100
AcDbEntity
  8
0
100
AcDbBlockEnd
  0
BLOCK
  5
8
100
AcDbEntity
 67
     1
  8
0
100
AcDbBlockBegin
  2
*PAPER_SPACE
 70
     0
 10
0.0
 20
0.0
 30
0.0
  3
*PAPER_SPACE
  1

  0
ENDBLK
  5
9
100
AcDbEntity
 67
     1
  8
0
100
AcDbBlockEnd
  0
BLOCK
  5
2E
100
AcDbEntity
  8
0
100
AcDbBlockBegin
  2
*D0
 70
     1
 10
0.0
 20
0.0
 30
0.0
  3
*D0
  1

  0
LINE
  5
24
100
AcDbEntity
  8
0
  6
BYBLOCK
100
AcDbLine
 10
692.682687
 20
461.457726
 30
0.0
 11
692.682687
 21
338.457726
 31
0.0
  0
LINE
  5
25
100
AcDbEntity
  8
0
  6
BYBLOCK
100
AcDbLine
 10
-403.817313
 20
456.457726
 30
0.0
 11
-403.817313
 21
338.457726
 31
0.0
  0
LINE
  5
26
100
AcDbEntity
  8
0
  6
BYBLOCK
100
AcDbLine
 10
677.682687
 20
344.457726
 30
0.0
 11
-388.817313
 21
344.457726
 31
0.0
  0
SOLID
  5
27
100
AcDbEntity
  8
0
  6
BYBLOCK
100
AcDbTrace
 10
677.682687
 20
346.957726
 30
0.0
 11
677.682687
 21
341.957726
 31
0.0
 12
692.682687
 22
344.457726
 32
0.0
 13
692.682687
 23
344.457726
 33
0.0
  0
SOLID
  5
28
100
AcDbEntity
  8
0
  6
BYBLOCK
100
AcDbTrace
 10
-388.817313
 20
346.957726
 30
0.0
 11
-388.817313
 21
341.957726
 31
0.0
 12
-403.817313
 22
344.457726
 32
0.0
 13
-403.817313
 23
344.457726
 33
0.0
  0
MTEXT
  5
29
100
AcDbEntity
  8
0
  6
BYBLOCK
 62
     5
100
AcDbMText
 10
144.432687
 20
357.117726
 30
0.0
 40
19.32
 41
0.0
 71
     5
 72
     1
  1
\A1;1090
  0
POINT
  5
2A
100
AcDbEntity
  8
DEFPOINTS
  6
BYBLOCK
 62
     0
100
AcDbPoint
 10
692.682687
 20
464.457726
 30
0.0
  0
POINT
  5
2C
100
AcDbEntity
  8
DEFPOINTS
  6
BYBLOCK
 62
     0
100
AcDbPoint
 10
-403.817313
 20
459.457726
 30
0.0
  0
POINT
  5
2D
100
AcDbEntity
  8
DEFPOINTS
  6
BYBLOCK
 62
     0
100
AcDbPoint
 10
-403.817313
 20
344.457726
 30
0.0
  0
ENDBLK
  5
2F
100
AcDbEntity
  8
0
100
AcDbBlockEnd
  0
BLOCK
  5
9D
100
AcDbEntity
  8
0
100
AcDbBlockBegin
  2
*D1
 70
     1
 10
0.0
 20
0.0
 30
0.0
  3
*D1
  1

  0
LINE
  5
91
100
AcDbEntity
  8
0
  6
BYBLOCK
100
AcDbLine
 10
664.475437
 20
487.457726
 30
0.0
 11
773.337576
 21
487.457726
 31
0.0
  0
LINE
  5
92
100
AcDbEntity
  8
0
  6
BYBLOCK
100
AcDbLine
 10
710.682687
 20
469.457726
 30
0.0
 11
773.337576
 21
469.457726
 31
0.0
  0
LINE
  5
93
100
AcDbEntity
  8
0
  6
BYBLOCK
100
AcDbLine
 10
767.337576
 20
502.457726
 30
0.0
 11
767.337576
 21
517.457726
 31
0.0
  0
LINE
  5
94
100
AcDbEntity
  8
0
  6
BYBLOCK
100
AcDbLine
 10
767.337576
 20
454.457726
 30
0.0
 11
767.337576
 21
439.457726
 31
0.0
  0
MTEXT
  5
95
100
AcDbEntity
  8
0
  6
BYBLOCK
 62
     5
100
AcDbMText
 10
748.087576
 20
437.806736
 30
0.0
 40
19.32
 41
0.0
 71
     5
 72
     1
  1
\A1;18
 11
0.0
 21
1.0
 31
0.0
  0
LINE
  5
96
100
AcDbEntity
  8
0
  6
BYBLOCK
100
AcDbLine
 10
767.337576
 20
487.457726
 30
0.0
 11
767.337576
 21
469.457726
 31
0.0
  0
LINE
  5
97
100
AcDbEntity
  8
0
  6
BYBLOCK
100
AcDbLine
 10
767.337576
 20
487.457726
 30
0.0
 11
767.337576
 21
469.457726
 31
0.0
  0
SOLID
  5
98
100
AcDbEntity
  8
0
  6
BYBLOCK
100
AcDbTrace
 10
764.837576
 20
502.457726
 30
0.0
 11
769.837576
 21
502.457726
 31
0.0
 12
767.337576
 22
487.457726
 32
0.0
 13
767.337576
 23
487.457726
 33
0.0
  0
SOLID
  5
99
100
AcDbEntity
  8
0
  6
BYBLOCK
100
AcDbTrace
 10
764.837576
 20
454.457726
 30
0.0
 11
769.837576
 21
454.457726
 31
0.0
 12
767.337576
 22
469.457726
 32
0.0
 13
767.337576
 23
469.457726
 33
0.0
  0
POINT
  5
9A
100
AcDbEntity
  8
DEFPOINTS
  6
BYBLOCK
 62
     0
100
AcDbPoint
 10
661.475437
 20
487.457726
 30
0.0
  0
POINT
  5
9B
100
AcDbEntity
  8
DEFPOINTS
  6
BYBLOCK
 62
     0
100
AcDbPoint
 10
707.682687
 20
469.457726
 30
0.0
  0
POINT
  5
9C
100
AcDbEntity
  8
DEFPOINTS
  6
BYBLOCK
 62
     0
100
AcDbPoint
 10
767.337576
 20
469.457726
 30
0.0
  0
ENDBLK
  5
9E
100
AcDbEntity
  8
0
100
AcDbBlockEnd
  0
BLOCK
  5
6E
100
AcDbEntity
  8
0
100
AcDbBlockBegin
  2
*D2
 70
     1
 10
0.0
 20
0.0
 30
0.0
  3
*D2
  1

  0
LINE
  5
65
100
AcDbEntity
  8
0
  6
BYBLOCK
100
AcDbLine
 10
-335.692313
 20
484.457726
 30
0.0
 11
-335.692313
 21
412.242029
 31
0.0
  0
LINE
  5
66
100
AcDbEntity
  8
0
  6
BYBLOCK
100
AcDbLine
 10
-199.442313
 20
484.457726
 30
0.0
 11
-199.442313
 21
412.242029
 31
0.0
  0
LINE
  5
67
100
AcDbEntity
  8
0
  6
BYBLOCK
100
AcDbLine
 10
-320.692313
 20
418.242029
 30
0.0
 11
-214.442313
 21
418.242029
 31
0.0
  0
SOLID
  5
68
100
AcDbEntity
  8
0
  6
BYBLOCK
100
AcDbTrace
 10
-320.692313
 20
420.742029
 30
0.0
 11
-320.692313
 21
415.742029
 31
0.0
 12
-335.692313
 22
418.242029
 32
0.0
 13
-335.692313
 23
418.242029
 33
0.0
  0
SOLID
  5
69
100
AcDbEntity
  8
0
  6
BYBLOCK
100
AcDbTrace
 10
-214.442313
 20
420.742029
 30
0.0
 11
-214.442313
 21
415.742029
 31
0.0
 12
-199.442313
 22
418.242029
 32
0.0
 13
-199.442313
 23
418.242029
 33
0.0
  0
MTEXT
  5
6A
100
AcDbEntity
  8
0
  6
BYBLOCK
 62
     5
100
AcDbMText
 10
-267.567313
 20
430.902029
 30
0.0
 40
19.32
 41
0.0
 71
     5
 72
     1
  1
\A1;136.25
  0
POINT
  5
6B
100
AcDbEntity
  8
DEFPOINTS
  6
BYBLOCK
 62
     0
100
AcDbPoint
 10
-335.692313
 20
487.457726
 30
0.0
  0
POINT
  5
6C
100
AcDbEntity
  8
DEFPOINTS
  6
BYBLOCK
 62
     0
100
AcDbPoint
 10
-199.442313
 20
487.457726
 30
0.0
  0
POINT
  5
6D
100
AcDbEntity
  8
DEFPOINTS
  6
BYBLOCK
 62
     0
100
AcDbPoint
 10
-199.442313
 20
418.242029
 30
0.0
  0
ENDBLK
  5
6F
100
AcDbEntity
  8
0
100
AcDbBlockEnd
  0
BLOCK
  5
AA
100
AcDbEntity
  8
0
100
AcDbBlockBegin
  2
*D3
 70
     1
 10
0.0
 20
0.0
 30
0.0
  3
*D3
  1

  0
LINE
  5
A1
100
AcDbEntity
  8
0
  6
BYBLOCK
100
AcDbLine
 10
655.560437
 20
490.457726
 30
0.0
 11
655.560437
 21
532.265145
 31
0.0
  0
LINE
  5
A2
100
AcDbEntity
  8
0
  6
BYBLOCK
100
AcDbLine
 10
582.054937
 20
490.457726
 30
0.0
 11
582.054937
 21
532.265145
 31
0.0
  0
LINE
  5
A3
100
AcDbEntity
  8
0
  6
BYBLOCK
100
AcDbLine
 10
640.560437
 20
526.265145
 30
0.0
 11
597.054937
 21
526.265145
 31
0.0
  0
SOLID
  5
A4
100
AcDbEntity
  8
0
  6
BYBLOCK
100
AcDbTrace
 10
640.560437
 20
528.765145
 30
0.0
 11
640.560437
 21
523.765145
 31
0.0
 12
655.560437
 22
526.265145
 32
0.0
 13
655.560437
 23
526.265145
 33
0.0
  0
SOLID
  5
A5
100
AcDbEntity
  8
0
  6
BYBLOCK
100
AcDbTrace
 10
597.054937
 20
528.765145
 30
0.0
 11
597.054937
 21
523.765145
 31
0.0
 12
582.054937
 22
526.265145
 32
0.0
 13
582.054937
 23
526.265145
 33
0.0
  0
MTEXT
  5
A6
100
AcDbEntity
  8
0
  6
BYBLOCK
 62
     5
100
AcDbMText
 10
618.807687
 20
538.925145
 30
0.0
 40
19.32
 41
0.0
 71
     5
 72
     1
  1
\A1;73.5
  0
POINT
  5
A7
100
AcDbEntity
  8
DEFPOINTS
  6
BYBLOCK
 62
     0
100
AcDbPoint
 10
655.560437
 20
487.457726
 30
0.0
  0
POINT
  5
A8
100
AcDbEntity
  8
DEFPOINTS
  6
BYBLOCK
 62
     0
100
AcDbPoint
 10
582.054937
 20
487.457726
 30
0.0
  0
POINT
  5
A9
100
AcDbEntity
  8
DEFPOINTS
  6
BYBLOCK
 62
     0
100
AcDbPoint
 10
582.054937
 20
526.265145
 30
0.0
  0
ENDBLK
  5
AB
100
AcDbEntity
  8
0
100
AcDbBlockEnd
  0
BLOCK
  5
61
100
AcDbEntity
  8
0
100
AcDbBlockBegin
  2
*D4
 70
     1
 10
0.0
 20
0.0
 30
0.0
  3
*D4
  1

  0
LINE
  5
55
100
AcDbEntity
  8
0
  6
BYBLOCK
100
AcDbLine
 10
-116.317313
 20
472.457726
 30
0.0
 11
-116.317313
 21
532.265145
 31
0.0
  0
LINE
  5
56
100
AcDbEntity
  8
0
  6
BYBLOCK
100
AcDbLine
 10
-99.195063
 20
490.457726
 30
0.0
 11
-99.195063
 21
532.265145
 31
0.0
  0
LINE
  5
57
100
AcDbEntity
  8
0
  6
BYBLOCK
100
AcDbLine
 10
-131.317313
 20
526.265145
 30
0.0
 11
-146.317313
 21
526.265145
 31
0.0
  0
LINE
  5
58
100
AcDbEntity
  8
0
  6
BYBLOCK
100
AcDbLine
 10
-84.195063
 20
526.265145
 30
0.0
 11
-69.195063
 21
526.265145
 31
0.0
  0
MTEXT
  5
59
100
AcDbEntity
  8
0
  6
BYBLOCK
 62
     5
100
AcDbMText
 10
-146.692343
 20
538.925145
 30
0.0
 40
19.32
 41
0.0
 71
     5
 72
     1
  1
\A1;17.1
  0
LINE
  5
5A
100
AcDbEntity
  8
0
  6
BYBLOCK
100
AcDbLine
 10
-116.317313
 20
526.265145
 30
0.0
 11
-99.195063
 21
526.265145
 31
0.0
  0
LINE
  5
5B
100
AcDbEntity
  8
0
  6
BYBLOCK
100
AcDbLine
 10
-116.317313
 20
526.265145
 30
0.0
 11
-99.195063
 21
526.265145
 31
0.0
  0
SOLID
  5
5C
100
AcDbEntity
  8
0
  6
BYBLOCK
100
AcDbTrace
 10
-131.317313
 20
528.765145
 30
0.0
 11
-131.317313
 21
523.765145
 31
0.0
 12
-116.317313
 22
526.265145
 32
0.0
 13
-116.317313
 23
526.265145
 33
0.0
  0
SOLID
  5
5D
100
AcDbEntity
  8
0
  6
BYBLOCK
100
AcDbTrace
 10
-84.195063
 20
528.765145
 30
0.0
 11
-84.195063
 21
523.765145
 31
0.0
 12
-99.195063
 22
526.265145
 32
0.0
 13
-99.195063
 23
526.265145
 33
0.0
  0
POINT
  5
5E
100
AcDbEntity
  8
DEFPOINTS
  6
BYBLOCK
 62
     0
100
AcDbPoint
 10
-116.317313
 20
469.457726
 30
0.0
  0
POINT
  5
5F
100
AcDbEntity
  8
DEFPOINTS
  6
BYBLOCK
 62
     0
100
AcDbPoint
 10
-99.195063
 20
487.457726
 30
0.0
  0
POINT
  5
60
100
AcDbEntity
  8
DEFPOINTS
  6
BYBLOCK
 62
     0
100
AcDbPoint
 10
-99.195063
 20
526.265145
 30
0.0
  0
ENDBLK
  5
62
100
AcDbEntity
  8
0
100
AcDbBlockEnd
  0
BLOCK
  5
8A
100
AcDbEntity
  8
0
100
AcDbBlockBegin
  2
*D5
 70
     1
 10
0.0
 20
0.0
 30
0.0
  3
*D5
  1

  0
LINE
  5
81
100
AcDbEntity
  8
0
  6
BYBLOCK
100
AcDbLine
 10
-99.195063
 20
490.457726
 30
0.0
 11
-99.195063
 21
532.265145
 31
0.0
  0
LINE
  5
82
100
AcDbEntity
  8
0
  6
BYBLOCK
100
AcDbLine
 10
-27.189563
 20
490.457726
 30
0.0
 11
-27.189563
 21
532.265145
 31
0.0
  0
LINE
  5
83
100
AcDbEntity
  8
0
  6
BYBLOCK
100
AcDbLine
 10
-84.195063
 20
526.265145
 30
0.0
 11
-42.189563
 21
526.265145
 31
0.0
  0
SOLID
  5
84
100
AcDbEntity
  8
0
  6
BYBLOCK
100
AcDbTrace
 10
-84.195063
 20
528.765145
 30
0.0
 11
-84.195063
 21
523.765145
 31
0.0
 12
-99.195063
 22
526.265145
 32
0.0
 13
-99.195063
 23
526.265145
 33
0.0
  0
SOLID
  5
85
100
AcDbEntity
  8
0
  6
BYBLOCK
100
AcDbTrace
 10
-42.189563
 20
528.765145
 30
0.0
 11
-42.189563
 21
523.765145
 31
0.0
 12
-27.189563
 22
526.265145
 32
0.0
 13
-27.189563
 23
526.265145
 33
0.0
  0
MTEXT
  5
86
100
AcDbEntity
  8
0
  6
BYBLOCK
 62
     5
100
AcDbMText
 10
-63.192313
 20
538.925145
 30
0.0
 40
19.32
 41
0.0
 71
     5
 72
     1
  1
\A1;72
  0
POINT
  5
87
100
AcDbEntity
  8
DEFPOINTS
  6
BYBLOCK
 62
     0
100
AcDbPoint
 10
-99.195063
 20
487.457726
 30
0.0
  0
POINT
  5
88
100
AcDbEntity
  8
DEFPOINTS
  6
BYBLOCK
 62
     0
100
AcDbPoint
 10
-27.189563
 20
487.457726
 30
0.0
  0
POINT
  5
89
100
AcDbEntity
  8
DEFPOINTS
  6
BYBLOCK
 62
     0
100
AcDbPoint
 10
-27.189563
 20
526.265145
 30
0.0
  0
ENDBLK
  5
8B
100
AcDbEntity
  8
0
100
AcDbBlockEnd
  0
BLOCK
  5
7D
100
AcDbEntity
  8
0
100
AcDbBlockBegin
  2
*D6
 70
     1
 10
0.0
 20
0.0
 30
0.0
  3
*D6
  1

  0
LINE
  5
72
100
AcDbEntity
  8
0
  6
BYBLOCK
100
AcDbLine
 10
-10.067313
 20
472.457726
 30
0.0
 11
-10.067313
 21
532.265145
 31
0.0
  0
LINE
  5
73
100
AcDbEntity
  8
0
  6
BYBLOCK
100
AcDbLine
 10
-42.189563
 20
526.265145
 30
0.0
 11
-57.189563
 21
526.265145
 31
0.0
  0
LINE
  5
74
100
AcDbEntity
  8
0
  6
BYBLOCK
100
AcDbLine
 10
4.932687
 20
526.265145
 30
0.0
 11
19.932687
 21
526.265145
 31
0.0
  0
MTEXT
  5
75
100
AcDbEntity
  8
0
  6
BYBLOCK
 62
     5
100
AcDbMText
 10
13.979253
 20
538.925145
 30
0.0
 40
19.32
 41
0.0
 71
     5
 72
     1
  1
\A1;17.1
  0
LINE
  5
76
100
AcDbEntity
  8
0
  6
BYBLOCK
100
AcDbLine
 10
-27.189563
 20
526.265145
 30
0.0
 11
-10.067313
 21
526.265145
 31
0.0
  0
LINE
  5
77
100
AcDbEntity
  8
0
  6
BYBLOCK
100
AcDbLine
 10
-27.189563
 20
526.265145
 30
0.0
 11
-10.067313
 21
526.265145
 31
0.0
  0
SOLID
  5
78
100
AcDbEntity
  8
0
  6
BYBLOCK
100
AcDbTrace
 10
-42.189563
 20
528.765145
 30
0.0
 11
-42.189563
 21
523.765145
 31
0.0
 12
-27.189563
 22
526.265145
 32
0.0
 13
-27.189563
 23
526.265145
 33
0.0
  0
SOLID
  5
79
100
AcDbEntity
  8
0
  6
BYBLOCK
100
AcDbTrace
 10
4.932687
 20
528.765145
 30
0.0
 11
4.932687
 21
523.765145
 31
0.0
 12
-10.067313
 22
526.265145
 32
0.0
 13
-10.067313
 23
526.265145
 33
0.0
  0
POINT
  5
7A
100
AcDbEntity
  8
DEFPOINTS
  6
BYBLOCK
 62
     0
100
AcDbPoint
 10
-27.189563
 20
487.457726
 30
0.0
  0
POINT
  5
7B
100
AcDbEntity
  8
DEFPOINTS
  6
BYBLOCK
 62
     0
100
AcDbPoint
 10
-10.067313
 20
469.457726
 30
0.0
  0
POINT
  5
7C
100
AcDbEntity
  8
DEFPOINTS
  6
BYBLOCK
 62
     0
100
AcDbPoint
 10
-10.067313
 20
526.265145
 30
0.0
  0
ENDBLK
  5
7E
100
AcDbEntity
  8
0
100
AcDbBlockEnd
  0
BLOCK
  5
51
100
AcDbEntity
  8
0
100
AcDbBlockBegin
  2
*D7
 70
     1
 10
0.0
 20
0.0
 30
0.0
  3
*D7
  1

  0
LINE
  5
46
100
AcDbEntity
  8
0
  6
BYBLOCK
100
AcDbLine
 10
-146.317313
 20
466.457726
 30
0.0
 11
-146.317313
 21
412.242029
 31
0.0
  0
LINE
  5
47
100
AcDbEntity
  8
0
  6
BYBLOCK
100
AcDbLine
 10
-116.317313
 20
466.457726
 30
0.0
 11
-116.317313
 21
412.242029
 31
0.0
  0
LINE
  5
48
100
AcDbEntity
  8
0
  6
BYBLOCK
100
AcDbLine
 10
-161.317313
 20
418.242029
 30
0.0
 11
-176.317313
 21
418.242029
 31
0.0
  0
LINE
  5
49
100
AcDbEntity
  8
0
  6
BYBLOCK
100
AcDbLine
 10
-101.317313
 20
418.242029
 30
0.0
 11
-86.317313
 21
418.242029
 31
0.0
  0
LINE
  5
4A
100
AcDbEntity
  8
0
  6
BYBLOCK
100
AcDbLine
 10
-146.317313
 20
418.242029
 30
0.0
 11
-116.317313
 21
418.242029
 31
0.0
  0
SOLID
  5
4B
100
AcDbEntity
  8
0
  6
BYBLOCK
100
AcDbTrace
 10
-161.317313
 20
420.742029
 30
0.0
 11
-161.317313
 21
415.742029
 31
0.0
 12
-146.317313
 22
418.242029
 32
0.0
 13
-146.317313
 23
418.242029
 33
0.0
  0
SOLID
  5
4C
100
AcDbEntity
  8
0
  6
BYBLOCK
100
AcDbTrace
 10
-101.317313
 20
420.742029
 30
0.0
 11
-101.317313
 21
415.742029
 31
0.0
 12
-116.317313
 22
418.242029
 32
0.0
 13
-116.317313
 23
418.242029
 33
0.0
  0
MTEXT
  5
4D
100
AcDbEntity
  8
0
  6
BYBLOCK
 62
     5
100
AcDbMText
 10
-131.317313
 20
430.902029
 30
0.0
 40
19.32
 41
0.0
 71
     5
 72
     1
  1
\A1;30
  0
POINT
  5
4E
100
AcDbEntity
  8
DEFPOINTS
  6
BYBLOCK
 62
     0
100
AcDbPoint
 10
-146.317313
 20
469.457726
 30
0.0
  0
POINT
  5
4F
100
AcDbEntity
  8
DEFPOINTS
  6
BYBLOCK
 62
     0
100
AcDbPoint
 10
-116.317313
 20
469.457726
 30
0.0
  0
POINT
  5
50
100
AcDbEntity
  8
DEFPOINTS
  6
BYBLOCK
 62
     0
100
AcDbPoint
 10
-116.317313
 20
418.242029
 30
0.0
  0
ENDBLK
  5
52
100
AcDbEntity
  8
0
100
AcDbBlockEnd
  0
BLOCK
  5
3F
100
AcDbEntity
  8
0
100
AcDbBlockBegin
  2
*D8
 70
     1
 10
0.0
 20
0.0
 30
0.0
  3
*D8
  1

  0
LINE
  5
34
100
AcDbEntity
  8
0
  6
BYBLOCK
100
AcDbLine
 10
-460.024563
 20
490.457726
 30
0.0
 11
-460.024563
 21
532.265145
 31
0.0
  0
LINE
  5
35
100
AcDbEntity
  8
0
  6
BYBLOCK
100
AcDbLine
 10
-435.024563
 20
490.457726
 30
0.0
 11
-435.024563
 21
532.265145
 31
0.0
  0
LINE
  5
36
100
AcDbEntity
  8
0
  6
BYBLOCK
100
AcDbLine
 10
-475.024563
 20
526.265145
 30
0.0
 11
-490.024563
 21
526.265145
 31
0.0
  0
LINE
  5
37
100
AcDbEntity
  8
0
  6
BYBLOCK
100
AcDbLine
 10
-420.024563
 20
526.265145
 30
0.0
 11
-405.024563
 21
526.265145
 31
0.0
  0
LINE
  5
38
100
AcDbEntity
  8
0
  6
BYBLOCK
100
AcDbLine
 10
-460.024563
 20
526.265145
 30
0.0
 11
-435.024563
 21
526.265145
 31
0.0
  0
SOLID
  5
39
100
AcDbEntity
  8
0
  6
BYBLOCK
100
AcDbTrace
 10
-475.024563
 20
528.765145
 30
0.0
 11
-475.024563
 21
523.765145
 31
0.0
 12
-460.024563
 22
526.265145
 32
0.0
 13
-460.024563
 23
526.265145
 33
0.0
  0
SOLID
  5
3A
100
AcDbEntity
  8
0
  6
BYBLOCK
100
AcDbTrace
 10
-420.024563
 20
528.765145
 30
0.0
 11
-420.024563
 21
523.765145
 31
0.0
 12
-435.024563
 22
526.265145
 32
0.0
 13
-435.024563
 23
526.265145
 33
0.0
  0
MTEXT
  5
3B
100
AcDbEntity
  8
0
  6
BYBLOCK
 62
     5
100
AcDbMText
 10
-447.524563
 20
538.925145
 30
0.0
 40
19.32
 41
0.0
 71
     5
 72
     1
  1
\A1;25
  0
POINT
  5
3C
100
AcDbEntity
  8
DEFPOINTS
  6
BYBLOCK
 62
     0
100
AcDbPoint
 10
-460.024563
 20
487.457726
 30
0.0
  0
POINT
  5
3D
100
AcDbEntity
  8
DEFPOINTS
  6
BYBLOCK
 62
     0
100
AcDbPoint
 10
-435.024563
 20
487.457726
 30
0.0
  0
POINT
  5
3E
100
AcDbEntity
  8
DEFPOINTS
  6
BYBLOCK
 62
     0
100
AcDbPoint
 10
-435.024563
 20
526.265145
 30
0.0
  0
ENDBLK
  5
40
100
AcDbEntity
  8
0
100
AcDbBlockEnd
  0
ENDSEC
  0
SECTION
  2
ENTITIES
  0
LWPOLYLINE
  5
1D
100
AcDbEntity
  8
TRAPEZ-VELKY
100
AcDbPolyline
 90
       78
 70
     0
 43
5.0
 10
1252.355297
 20
169.116304
 10
1230.642078
 20
169.116304
 42
-0.205414
 10
1228.468422
 20
170.048644
 10
1213.119922
 20
186.183965
 42
0.205414
 10
1210.946266
 20
187.116304
 10
1140.014328
 20
187.116304
 42
0.205414
 10
1137.840672
 20
186.183965
 10
1122.492172
 20
170.048644
 42
-0.205414
 10
1120.318516
 20
169.116304
 10
1106.605297
 20
169.116304
 10
1092.892078
 20
169.116304
 42
-0.205414
 10
1090.718422
 20
170.048644
 10
1075.369922
 20
186.183965
 42
0.205414
 10
1073.196266
 20
187.116304
 10
1003.764328
 20
187.116304
 42
0.205414
 10
1001.590672
 20
186.183965
 10
986.242172
 20
170.048644
 42
-0.205414
 10
984.068516
 20
169.116304
 10
970.355297
 20
169.116304
 10
956.642078
 20
169.116304
 42
-0.205414
 10
954.468422
 20
170.048644
 10
939.119922
 20
186.183965
 42
0.205414
 10
936.946266
 20
187.116304
 10
867.514328
 20
187.116304
 42
0.205414
 10
865.340672
 20
186.183965
 10
849.992172
 20
170.048644
 42
-0.205414
 10
847.818516
 20
169.116304
 10
834.105297
 20
169.116304
 10
820.392078
 20
169.116304
 42
-0.205414
 10
818.218422
 20
170.048644
 10
802.869922
 20
186.183965
 42
0.205414
 10
800.696266
 20
187.116304
 10
731.264328
 20
187.116304
 42
0.205414
 10
729.090672
 20
186.183965
 10
713.742172
 20
170.048644
 42
-0.205414
 10
711.568516
 20
169.116304
 10
697.855297
 20
169.116304
 10
684.142078
 20
169.116304
 42
-0.205414
 10
681.968422
 20
170.048644
 10
666.619922
 20
186.183965
 42
0.205414
 10
664.446266
 20
187.116304
 10
595.014328
 20
187.116304
 42
0.205414
 10
592.840672
 20
186.183965
 10
577.492172
 20
170.048644
 42
-0.205414
 10
575.318516
 20
169.116304
 10
561.605297
 20
169.116304
 10
547.892078
 20
169.116304
 42
-0.205414
 10
545.718422
 20
170.048644
 10
530.369922
 20
186.183965
 42
0.205414
 10
528.196266
 20
187.116304
 10
458.764328
 20
187.116304
 42
0.205414
 10
456.590672
 20
186.183965
 10
441.242172
 20
170.048644
 42
-0.205414
 10
439.068516
 20
169.116304
 10
425.355297
 20
169.116304
 10
411.642078
 20
169.116304
 42
-0.205414
 10
409.468422
 20
170.048644
 10
394.119922
 20
186.183965
 42
0.205414
 10
391.946266
 20
187.116304
 10
322.514328
 20
187.116304
 42
0.205414
 10
320.340672
 20
186.183965
 10
304.992172
 20
170.048644
 42
-0.205414
 10
302.818516
 20
169.116304
 10
289.105297
 20
169.116304
 10
275.392078
 20
169.116304
 42
-0.205414
 10
273.218422
 20
170.048644
 10
257.869922
 20
186.183965
 42
0.205414
 10
255.696266
 20
187.116304
 10
186.264328
 20
187.116304
 42
0.205414
 10
184.090672
 20
186.183965
 10
168.742172
 20
170.048644
 42
-0.205414
 10
166.568516
 20
169.116304
 10
152.855297
 20
169.116304
 10
139.190984
 20
169.116304
 42
-0.212557
 10
136.961549
 20
170.108914
 10
122.541796
 20
186.123695
 42
0.212557
 10
120.31236
 20
187.116304
 10
96.648047
 20
187.116304
  0
DIMENSION
  5
21
100
AcDbEntity
  8
KOTY-UPLNE
100
AcDbDimension
  2
*D0
 10
152.855297
 20
44.116304
 30
0.0
 11
701.105297
 21
56.776304
 31
0.0
 12
556.67261
 22
-300.341421
 32
0.0
  1
1090
  3
UPLNE
100
AcDbAlignedDimension
 13
1249.355297
 23
164.116304
 33
0.0
 14
152.855297
 24
159.116304
 34
0.0
100
AcDbRotatedDimension
1001
ACAD
1000
DSTYLE
1002
{
1070
    40
1040
3.0
1070
   271
1070
     0
1002
}
  0
LWPOLYLINE
  5
30
100
AcDbEntity
  8
RAMEC
100
AcDbPolyline
 90
        4
 70
     1
 43
0.0
 10
0.0
 20
337.001233
 10
0.0
 20
0.0
 10
1349.672502
 20
0.0
 10
1349.672502
 20
337.001233
  0
DIMENSION
  5
32
100
AcDbEntity
  8
0
100
AcDbDimension
  2
*D8
 10
121.648047
 20
225.923724
 30
0.0
 11
109.148047
 21
238.583724
 31
0.0
 12
556.67261
 22
-300.341421
 32
0.0
  3
UPLNE
100
AcDbAlignedDimension
 13
96.648047
 23
187.116304
 33
0.0
 14
121.648047
 24
187.116304
 34
0.0
100
AcDbRotatedDimension
1001
ACAD
1000
DSTYLE
1002
{
1070
    40
1040
3.0
1070
   271
1070
     0
1002
}
  0
MTEXT
  5
41
100
AcDbEntity
  8
POPIS
100
AcDbMText
 10
659.980741
 20
294.877201
 30
0.0
 40
40.0
 41
1.0
 71
     5
 72
     1
  1
TR 20/136
  7
STYLE1
  0
DIMENSION
  5
44
100
AcDbEntity
  8
0
100
AcDbDimension
  2
*D7
 10
440.355297
 20
117.900608
 30
0.0
 11
425.355297
 21
130.560608
 31
0.0
 12
556.67261
 22
-300.341421
 32
0.0
  3
UPLNE
100
AcDbAlignedDimension
 13
410.355297
 23
169.116304
 33
0.0
 14
440.355297
 24
169.116304
 34
0.0
100
AcDbRotatedDimension
1001
ACAD
1000
DSTYLE
1002
{
1070
    40
1040
3.0
1070
   271
1070
     0
1002
}
  0
DIMENSION
  5
53
100
AcDbEntity
  8
0
100
AcDbDimension
  2
*D4
 10
457.477547
 20
225.923724
 30
0.0
 11
409.980267
 21
238.583724
 31
0.0
 12
556.67261
 22
-300.341421
 32
0.0
 70
   128
  3
UPLNE
100
AcDbAlignedDimension
 13
440.355297
 23
169.116304
 33
0.0
 14
457.477547
 24
187.116304
 34
0.0
100
AcDbRotatedDimension
1001
ACAD
1000
DSTYLE
1002
{
1070
    40
1040
3.0
1070
   271
1070
     1
1002
}
  0
DIMENSION
  5
63
100
AcDbEntity
  8
0
100
AcDbDimension
  2
*D2
 10
357.230297
 20
117.900608
 30
0.0
 11
289.105297
 21
130.560608
 31
0.0
 12
556.67261
 22
-300.341421
 32
0.0
  3
UPLNE
100
AcDbAlignedDimension
 13
220.980297
 23
187.116304
 33
0.0
 14
357.230297
 24
187.116304
 34
0.0
100
AcDbRotatedDimension
1001
ACAD
1000
DSTYLE
1002
{
1070
    40
1040
3.0
1002
}
  0
DIMENSION
  5
70
100
AcDbEntity
  8
0
100
AcDbDimension
  2
*D6
 10
546.605297
 20
225.923724
 30
0.0
 11
570.651863
 21
238.583724
 31
0.0
 12
556.67261
 22
-300.341421
 32
0.0
 70
   128
  3
UPLNE
100
AcDbAlignedDimension
 13
529.483047
 23
187.116304
 33
0.0
 14
546.605297
 24
169.116304
 34
0.0
100
AcDbRotatedDimension
1001
ACAD
1000
DSTYLE
1002
{
1070
    75
1070
     1
1070
    40
1040
3.0
1070
   271
1070
     1
1002
}
  0
DIMENSION
  5
7F
100
AcDbEntity
  8
0
100
AcDbDimension
  2
*D5
 10
529.483047
 20
225.923724
 30
0.0
 11
493.480297
 21
238.583724
 31
0.0
 12
556.67261
 22
-300.341421
 32
0.0
  3
UPLNE
100
AcDbAlignedDimension
 13
457.477547
 23
187.116304
 33
0.0
 14
529.483047
 24
187.116304
 34
0.0
100
AcDbRotatedDimension
1001
ACAD
1000
DSTYLE
1002
{
1070
    40
1040
3.0
1070
   271
1070
     0
1002
}
  0
MTEXT
  5
8C
100
AcDbEntity
  8
POZICE
100
AcDbMText
 10
1047.398253
 20
232.090851
 30
0.0
 40
41.73
 41
1.0
 71
     5
 72
     1
  1
A
  7
STYLE1
  0
MTEXT
  5
8E
100
AcDbEntity
  8
POZICE
100
AcDbMText
 10
1047.398253
 20
123.080855
 30
0.0
 40
41.73
 41
1.0
 71
     5
 72
     1
  1
B
  7
STYLE1
  0
DIMENSION
  5
8F
100
AcDbEntity
  8
KOTY-UPLNE
100
AcDbDimension
  2
*D1
 10
1324.010186
 20
169.116304
 30
0.0
 11
1304.760186
 21
137.465315
 31
0.0
 12
556.67261
 22
-300.341421
 32
0.0
 70
   128
  3
UPLNE
100
AcDbAlignedDimension
 13
1218.148047
 23
187.116304
 33
0.0
 14
1264.355297
 24
169.116304
 34
0.0
 50
90.0
100
AcDbRotatedDimension
1001
ACAD
1000
DSTYLE
1002
{
1070
    40
1040
3.0
1070
   271
1070
     0
1002
}
  0
DIMENSION
  5
9F
100
AcDbEntity
  8
0
100
AcDbDimension
  2
*D3
 10
1138.727547
 20
225.923724
 30
0.0
 11
1175.480297
 21
238.583724
 31
0.0
 12
556.67261
 22
-300.341421
 32
0.0
  3
UPLNE
100
AcDbAlignedDimension
 13
1212.233047
 23
187.116304
 33
0.0
 14
1138.727547
 24
187.116304
 34
0.0
100
AcDbRotatedDimension
1001
ACAD
1000
DSTYLE
1002
{
1070
    40
1040
3.0
1070
   271
1070
     1
1002
}
  0
ENDSEC
  0
SECTION
  2
OBJECTS
  0
DICTIONARY
  5
1A
100
AcDbDictionary
  3
ACAD_GROUP
350
18
  3
ACAD_MLINESTYLE
350
19
  0
DICTIONARY
  5
18
102
{ACAD_REACTORS
330
1A
102
}
100
AcDbDictionary
  0
DICTIONARY
  5
19
102
{ACAD_REACTORS
330
1A
102
}
100
AcDbDictionary
  3
STANDARD
350
1B
  0
MLINESTYLE
  5
1B
102
{ACAD_REACTORS
330
19
102
}
100
AcDbMlineStyle
  2
STANDARD
 70
     0
  3

 62
   256
 51
90.0
 52
90.0
 71
     2
 49
0.5
 62
   256
  6
BYLAYER
 49
-0.5
 62
   256
  6
BYLAYER
  0
ENDSEC
  0
EOF
