  0
SECTION
  2
HEADER
  9
$ACADVER
  1
AC1014
  9
$ACADMAINTVER
 70
     0
  9
$DWGCODEPAGE
  3
ANSI_1250
  9
$INSBASE
 10
0.0
 20
0.0
 30
0.0
  9
$EXTMIN
 10
0.0
 20
-524.001233
 30
0.0
  9
$EXTMAX
 10
1349.672502
 20
0.0
 30
0.0
  9
$LIMMIN
 10
-1000.0
 20
-1000.0
  9
$LIMMAX
 10
1000.0
 20
1000.0
  9
$ORTHOMODE
 70
     0
  9
$REGENMODE
 70
     1
  9
$FILLMODE
 70
     1
  9
$QTEXTMODE
 70
     0
  9
$MIRRTEXT
 70
     0
  9
$DRAGMODE
 70
     2
  9
$LTSCALE
 40
3.0
  9
$OSMODE
 70
    32
  9
$ATTMODE
 70
     1
  9
$TEXTSIZE
 40
50.0
  9
$TRACEWID
 40
0.05
  9
$TEXTSTYLE
  7
STANDARD
  9
$CLAYER
  8
KOTY-UPLNE
  9
$CELTYPE
  6
BYLAYER
  9
$CECOLOR
 62
   256
  9
$CELTSCALE
 40
1.0
  9
$DELOBJ
 70
     1
  9
$DISPSILH
 70
     0
  9
$DIMSCALE
 40
3.0
  9
$DIMASZ
 40
5.0
  9
$DIMEXO
 40
1.0
  9
$DIMDLI
 40
0.0
  9
$DIMRND
 40
1.0
  9
$DIMDLE
 40
1.0
  9
$DIMEXE
 40
2.0
  9
$DIMTP
 40
0.0
  9
$DIMTM
 40
0.0
  9
$DIMTXT
 40
6.44
  9
$DIMCEN
 40
1.0
  9
$DIMTSZ
 40
0.0
  9
$DIMTOL
 70
     0
  9
$DIMLIM
 70
     0
  9
$DIMTIH
 70
     0
  9
$DIMTOH
 70
     0
  9
$DIMSE1
 70
     0
  9
$DIMSE2
 70
     0
  9
$DIMTAD
 70
     3
  9
$DIMZIN
 70
     0
  9
$DIMBLK
  1

  9
$DIMASO
 70
     1
  9
$DIMSHO
 70
     0
  9
$DIMPOST
  1

  9
$DIMAPOST
  1

  9
$DIMALT
 70
     0
  9
$DIMALTD
 70
     2
  9
$DIMALTF
 40
25.4
  9
$DIMLFAC
 40
1.0
  9
$DIMTOFL
 70
     1
  9
$DIMTVP
 40
0.0
  9
$DIMTIX
 70
     1
  9
$DIMSOXD
 70
     0
  9
$DIMSAH
 70
     0
  9
$DIMBLK1
  1

  9
$DIMBLK2
  1

  9
$DIMSTYLE
  2
UPLNE
  9
$DIMCLRD
 70
   256
  9
$DIMCLRE
 70
   256
  9
$DIMCLRT
 70
     5
  9
$DIMTFAC
 40
1.0
  9
$DIMGAP
 40
2.0
  9
$DIMJUST
 70
     0
  9
$DIMSD1
 70
     0
  9
$DIMSD2
 70
     0
  9
$DIMTOLJ
 70
     1
  9
$DIMTZIN
 70
     0
  9
$DIMALTZ
 70
     0
  9
$DIMALTTZ
 70
     0
  9
$DIMFIT
 70
     5
  9
$DIMUPT
 70
     0
  9
$DIMUNIT
 70
     2
  9
$DIMDEC
 70
     0
  9
$DIMTDEC
 70
     0
  9
$DIMALTU
 70
     2
  9
$DIMALTTD
 70
     2
  9
$DIMTXSTY
  7
STANDARD
  9
$DIMAUNIT
 70
     0
  9
$LUNITS
 70
     2
  9
$LUPREC
 70
     2
  9
$SKETCHINC
 40
0.1
  9
$FILLETRAD
 40
5.0
  9
$AUNITS
 70
     0
  9
$AUPREC
 70
     2
  9
$MENU
  1
acad
  9
$ELEVATION
 40
0.0
  9
$PELEVATION
 40
0.0
  9
$THICKNESS
 40
0.0
  9
$LIMCHECK
 70
     0
  9
$BLIPMODE
 70
     1
  9
$CHAMFERA
 40
0.0
  9
$CHAMFERB
 40
0.0
  9
$CHAMFERC
 40
0.0
  9
$CHAMFERD
 40
0.0
  9
$SKPOLY
 70
     0
  9
$TDCREATE
 40
2448722.252204629
  9
$TDUPDATE
 40
2452465.901243403
  9
$TDINDWG
 40
2.5464226852
  9
$TDUSRTIMER
 40
2.5464226852
  9
$USRTIMER
 70
     1
  9
$ANGBASE
 50
0.0
  9
$ANGDIR
 70
     0
  9
$PDMODE
 70
     0
  9
$PDSIZE
 40
0.0
  9
$PLINEWID
 40
0.0
  9
$COORDS
 70
     2
  9
$SPLFRAME
 70
     0
  9
$SPLINETYPE
 70
     6
  9
$SPLINESEGS
 70
     8
  9
$ATTDIA
 70
     0
  9
$ATTREQ
 70
     1
  9
$HANDLING
 70
     1
  9
$HANDSEED
  5
193
  9
$SURFTAB1
 70
     6
  9
$SURFTAB2
 70
     6
  9
$SURFTYPE
 70
     6
  9
$SURFU
 70
     6
  9
$SURFV
 70
     6
  9
$UCSNAME
  2

  9
$UCSORG
 10
0.0
 20
0.0
 30
0.0
  9
$UCSXDIR
 10
1.0
 20
0.0
 30
0.0
  9
$UCSYDIR
 10
0.0
 20
1.0
 30
0.0
  9
$PUCSNAME
  2

  9
$PUCSORG
 10
0.0
 20
0.0
 30
0.0
  9
$PUCSXDIR
 10
1.0
 20
0.0
 30
0.0
  9
$PUCSYDIR
 10
0.0
 20
1.0
 30
0.0
  9
$USERI1
 70
     1
  9
$USERI2
 70
     0
  9
$USERI3
 70
     0
  9
$USERI4
 70
     0
  9
$USERI5
 70
     0
  9
$USERR1
 40
0.0
  9
$USERR2
 40
0.0
  9
$USERR3
 40
0.0
  9
$USERR4
 40
0.0
  9
$USERR5
 40
0.0
  9
$WORLDVIEW
 70
     1
  9
$SHADEDGE
 70
     3
  9
$SHADEDIF
 70
    70
  9
$TILEMODE
 70
     1
  9
$MAXACTVP
 70
    16
  9
$PINSBASE
 10
0.0
 20
0.0
 30
0.0
  9
$PLIMCHECK
 70
     0
  9
$PEXTMIN
 10
1.000000E+20
 20
1.000000E+20
 30
1.000000E+20
  9
$PEXTMAX
 10
-1.000000E+20
 20
-1.000000E+20
 30
-1.000000E+20
  9
$PLIMMIN
 10
0.0
 20
0.0
  9
$PLIMMAX
 10
12.0
 20
9.0
  9
$UNITMODE
 70
     0
  9
$VISRETAIN
 70
     0
  9
$PLINEGEN
 70
     0
  9
$PSLTSCALE
 70
     0
  9
$TREEDEPTH
 70
  3020
  9
$PICKSTYLE
 70
     0
  9
$CMLSTYLE
  2
STANDARD
  9
$CMLJUST
 70
     0
  9
$CMLSCALE
 40
1.0
  9
$PROXYGRAPHICS
 70
     1
  9
$MEASUREMENT
 70
     0
  0
ENDSEC
  0
SECTION
  2
CLASSES
  0
CLASS
  1
LWPOLYLINE
  2
AcDbPolyline
  3
"AutoCAD"
 90
        0
280
     0
281
     1
  0
CLASS
  1
DICTIONARYVAR
  2
AcDbDictionaryVar
  3
"AutoCAD"
 90
        0
280
     0
281
     0
  0
ENDSEC
  0
SECTION
  2
TABLES
  0
TABLE
  2
VPORT
  5
12
100
AcDbSymbolTable
 70
     2
  0
VPORT
  5
192
100
AcDbSymbolTableRecord
100
AcDbViewportTableRecord
  2
*ACTIVE
 70
     0
 10
0.0
 20
0.0
 11
1.0
 21
1.0
 12
815.79712
 22
-214.244025
 13
0.0
 23
0.0
 14
1.0
 24
1.0
 15
600.0
 25
600.0
 16
0.0
 26
0.0
 36
1.0
 17
0.0
 27
0.0
 37
0.0
 40
846.465795
 41
2.224444
 42
50.0
 43
0.0
 44
0.0
 50
0.0
 51
0.0
 71
     0
 72
   100
 73
     1
 74
     0
 75
     0
 76
     0
 77
     0
 78
     0
  0
ENDTAB
  0
TABLE
  2
LTYPE
  5
D
100
AcDbSymbolTable
 70
     1
  0
LTYPE
  5
E
100
AcDbSymbolTableRecord
100
AcDbLinetypeTableRecord
  2
BYBLOCK
 70
     0
  3

 72
    65
 73
     0
 40
0.0
  0
LTYPE
  5
F
100
AcDbSymbolTableRecord
100
AcDbLinetypeTableRecord
  2
BYLAYER
 70
     0
  3

 72
    65
 73
     0
 40
0.0
  0
LTYPE
  5
5
100
AcDbSymbolTableRecord
100
AcDbLinetypeTableRecord
  2
CONTINUOUS
 70
     0
  3
Solid line
 72
    65
 73
     0
 40
0.0
  0
ENDTAB
  0
TABLE
  2
LAYER
  5
A
100
AcDbSymbolTable
 70
     7
  0
LAYER
  5
4
100
AcDbSymbolTableRecord
100
AcDbLayerTableRecord
  2
0
 70
     0
 62
     7
  6
CONTINUOUS
  0
LAYER
  5
1B
100
AcDbSymbolTableRecord
100
AcDbLayerTableRecord
  2
KOTY-UPLNE
 70
     0
 62
     7
  6
CONTINUOUS
  0
LAYER
  5
78
100
AcDbSymbolTableRecord
100
AcDbLayerTableRecord
  2
RAMEC
 70
     0
 62
     5
  6
CONTINUOUS
  0
LAYER
  5
14E
100
AcDbSymbolTableRecord
100
AcDbLayerTableRecord
  2
POZICE
 70
     0
 62
     1
  6
CONTINUOUS
  0
LAYER
  5
D3
100
AcDbSymbolTableRecord
100
AcDbLayerTableRecord
  2
POPIS
 70
     0
 62
     1
  6
CONTINUOUS
  0
LAYER
  5
27
100
AcDbSymbolTableRecord
100
AcDbLayerTableRecord
  2
DEFPOINTS
 70
     0
 62
     7
  6
CONTINUOUS
  0
LAYER
  5
B3
100
AcDbSymbolTableRecord
100
AcDbLayerTableRecord
  2
TRAPEZ-VELKY
 70
     0
 62
     7
  6
CONTINUOUS
  0
ENDTAB
  0
TABLE
  2
STYLE
  5
B
100
AcDbSymbolTable
 70
     2
  0
STYLE
  5
C
100
AcDbSymbolTableRecord
100
AcDbTextStyleTableRecord
  2
STANDARD
 70
     0
 40
0.0
 41
0.9
 50
0.0
 71
     0
 42
50.0
  3
simplex.shx
  4

  0
STYLE
  5
D4
100
AcDbSymbolTableRecord
100
AcDbTextStyleTableRecord
  2
STYLE1
 70
     0
 40
0.0
 41
0.9
 50
0.0
 71
     0
 42
50.0
  3
simplex.shx
  4

  0
ENDTAB
  0
TABLE
  2
VIEW
  5
10
100
AcDbSymbolTable
 70
     0
  0
ENDTAB
  0
TABLE
  2
UCS
  5
11
100
AcDbSymbolTable
 70
     0
  0
ENDTAB
  0
TABLE
  2
APPID
  5
14
100
AcDbSymbolTable
 70
     1
  0
APPID
  5
15
100
AcDbSymbolTableRecord
100
AcDbRegAppTableRecord
  2
ACAD
 70
     0
  0
ENDTAB
  0
TABLE
  2
DIMSTYLE
  5
16
100
AcDbSymbolTable
 70
     1
  0
DIMSTYLE
105
1D
102
{ACAD_REACTORS
330
A2
330
11E
330
111
330
101
330
F1
330
13C
330
93
330
12F
330
E2
330
D5
330
86
330
79
330
68
330
58
330
4B
330
3B
330
2C
330
1E
330
17F
330
14F
330
C3
330
B4
330
161
330
171
102
}
100
AcDbSymbolTableRecord
100
AcDbDimStyleTableRecord
  2
UPLNE
 70
     0
  3

  4

  5

  6

  7

 40
5.0
 41
5.0
 42
1.0
 43
0.0
 44
2.0
 45
1.0
 46
1.0
 47
0.0
 48
0.0
140
6.44
141
1.0
142
0.0
143
25.4
144
1.0
145
0.0
146
1.0
147
1.0
 71
     0
 72
     0
 73
     0
 74
     0
 75
     0
 76
     0
 77
     3
 78
     0
170
     0
171
     2
172
     1
173
     0
174
     1
175
     0
176
   256
177
   256
178
     5
270
     2
271
     0
272
     0
273
     2
274
     2
340
C
275
     0
280
     0
281
     0
282
     0
283
     1
284
     0
285
     0
286
     0
287
     5
288
     0
  0
ENDTAB
  0
TABLE
  2
BLOCK_RECORD
  5
1
100
AcDbSymbolTable
 70
    24
  0
BLOCK_RECORD
  5
2
100
AcDbSymbolTableRecord
100
AcDbBlockTableRecord
  2
*MODEL_SPACE
  0
BLOCK_RECORD
  5
7
100
AcDbSymbolTableRecord
100
AcDbBlockTableRecord
  2
*PAPER_SPACE
  0
BLOCK_RECORD
  5
A3
100
AcDbSymbolTableRecord
100
AcDbBlockTableRecord
  2
*D0
  0
BLOCK_RECORD
  5
11F
100
AcDbSymbolTableRecord
100
AcDbBlockTableRecord
  2
*D1
  0
BLOCK_RECORD
  5
112
100
AcDbSymbolTableRecord
100
AcDbBlockTableRecord
  2
*D2
  0
BLOCK_RECORD
  5
102
100
AcDbSymbolTableRecord
100
AcDbBlockTableRecord
  2
*D3
  0
BLOCK_RECORD
  5
F2
100
AcDbSymbolTableRecord
100
AcDbBlockTableRecord
  2
*D4
  0
BLOCK_RECORD
  5
13D
100
AcDbSymbolTableRecord
100
AcDbBlockTableRecord
  2
*D5
  0
BLOCK_RECORD
  5
94
100
AcDbSymbolTableRecord
100
AcDbBlockTableRecord
  2
*D6
  0
BLOCK_RECORD
  5
130
100
AcDbSymbolTableRecord
100
AcDbBlockTableRecord
  2
*D7
  0
BLOCK_RECORD
  5
E3
100
AcDbSymbolTableRecord
100
AcDbBlockTableRecord
  2
*D8
  0
BLOCK_RECORD
  5
D6
100
AcDbSymbolTableRecord
100
AcDbBlockTableRecord
  2
*D9
  0
BLOCK_RECORD
  5
87
100
AcDbSymbolTableRecord
100
AcDbBlockTableRecord
  2
*D10
  0
BLOCK_RECORD
  5
7A
100
AcDbSymbolTableRecord
100
AcDbBlockTableRecord
  2
*D11
  0
BLOCK_RECORD
  5
69
100
AcDbSymbolTableRecord
100
AcDbBlockTableRecord
  2
*D12
  0
BLOCK_RECORD
  5
59
100
AcDbSymbolTableRecord
100
AcDbBlockTableRecord
  2
*D13
  0
BLOCK_RECORD
  5
4C
100
AcDbSymbolTableRecord
100
AcDbBlockTableRecord
  2
*D14
  0
BLOCK_RECORD
  5
3C
100
AcDbSymbolTableRecord
100
AcDbBlockTableRecord
  2
*D15
  0
BLOCK_RECORD
  5
2D
100
AcDbSymbolTableRecord
100
AcDbBlockTableRecord
  2
*D16
  0
BLOCK_RECORD
  5
1F
100
AcDbSymbolTableRecord
100
AcDbBlockTableRecord
  2
*D17
  0
BLOCK_RECORD
  5
180
100
AcDbSymbolTableRecord
100
AcDbBlockTableRecord
  2
*D18
  0
BLOCK_RECORD
  5
150
100
AcDbSymbolTableRecord
100
AcDbBlockTableRecord
  2
*D19
  0
BLOCK_RECORD
  5
C4
100
AcDbSymbolTableRecord
100
AcDbBlockTableRecord
  2
*D20
  0
BLOCK_RECORD
  5
B5
100
AcDbSymbolTableRecord
100
AcDbBlockTableRecord
  2
*D21
  0
BLOCK_RECORD
  5
162
100
AcDbSymbolTableRecord
100
AcDbBlockTableRecord
  2
*D22
  0
BLOCK_RECORD
  5
172
100
AcDbSymbolTableRecord
100
AcDbBlockTableRecord
  2
*D23
  0
ENDTAB
  0
ENDSEC
  0
SECTION
  2
BLOCKS
  0
BLOCK
  5
3
100
AcDbEntity
  8
0
100
AcDbBlockBegin
  2
*MODEL_SPACE
 70
     0
 10
0.0
 20
0.0
 30
0.0
  3
*MODEL_SPACE
  1

  0
ENDBLK
  5
6
100
AcDbEntity
  8
0
100
AcDbBlockEnd
  0
BLOCK
  5
8
100
AcDbEntity
 67
     1
  8
0
100
AcDbBlockBegin
  2
*PAPER_SPACE
 70
     0
 10
0.0
 20
0.0
 30
0.0
  3
*PAPER_SPACE
  1

  0
ENDBLK
  5
9
100
AcDbEntity
 67
     1
  8
0
100
AcDbBlockEnd
  0
BLOCK
  5
B0
100
AcDbEntity
  8
0
100
AcDbBlockBegin
  2
*D0
 70
     1
 10
0.0
 20
0.0
 30
0.0
  3
*D0
  1

  0
LINE
  5
A4
100
AcDbEntity
  8
0
  6
BYBLOCK
100
AcDbLine
 10
5681.182687
 20
1084.457726
 30
0.0
 11
5681.182687
 21
876.457726
 31
0.0
  0
LINE
  5
A5
100
AcDbEntity
  8
0
  6
BYBLOCK
100
AcDbLine
 10
5701.182687
 20
1084.457726
 30
0.0
 11
5701.182687
 21
876.457726
 31
0.0
  0
LINE
  5
A6
100
AcDbEntity
  8
0
  6
BYBLOCK
100
AcDbLine
 10
5666.182687
 20
882.457726
 30
0.0
 11
5651.182687
 21
882.457726
 31
0.0
  0
LINE
  5
A7
100
AcDbEntity
  8
0
  6
BYBLOCK
100
AcDbLine
 10
5716.182687
 20
882.457726
 30
0.0
 11
5731.182687
 21
882.457726
 31
0.0
  0
MTEXT
  5
A8
100
AcDbEntity
  8
0
  6
BYBLOCK
 62
     5
100
AcDbMText
 10
5664.500692
 20
898.207726
 30
0.0
 40
19.32
 41
0.0
 71
     5
 72
     1
  1
\A1;20
  0
LINE
  5
A9
100
AcDbEntity
  8
0
  6
BYBLOCK
100
AcDbLine
 10
5681.182687
 20
882.457726
 30
0.0
 11
5701.182687
 21
882.457726
 31
0.0
  0
LINE
  5
AA
100
AcDbEntity
  8
0
  6
BYBLOCK
100
AcDbLine
 10
5681.182687
 20
882.457726
 30
0.0
 11
5701.182687
 21
882.457726
 31
0.0
  0
SOLID
  5
AB
100
AcDbEntity
  8
0
  6
BYBLOCK
100
AcDbTrace
 10
5666.182687
 20
884.957726
 30
0.0
 11
5666.182687
 21
879.957726
 31
0.0
 12
5681.182687
 22
882.457726
 32
0.0
 13
5681.182687
 23
882.457726
 33
0.0
  0
SOLID
  5
AC
100
AcDbEntity
  8
0
  6
BYBLOCK
100
AcDbTrace
 10
5716.182687
 20
884.957726
 30
0.0
 11
5716.182687
 21
879.957726
 31
0.0
 12
5701.182687
 22
882.457726
 32
0.0
 13
5701.182687
 23
882.457726
 33
0.0
  0
POINT
  5
AD
100
AcDbEntity
  8
DEFPOINTS
  6
BYBLOCK
 62
     0
100
AcDbPoint
 10
5681.182687
 20
1087.457726
 30
0.0
  0
POINT
  5
AE
100
AcDbEntity
  8
DEFPOINTS
  6
BYBLOCK
 62
     0
100
AcDbPoint
 10
5701.182687
 20
1087.457726
 30
0.0
  0
POINT
  5
AF
100
AcDbEntity
  8
DEFPOINTS
  6
BYBLOCK
 62
     0
100
AcDbPoint
 10
5701.182687
 20
882.457726
 30
0.0
  0
ENDBLK
  5
B1
100
AcDbEntity
  8
0
100
AcDbBlockEnd
  0
BLOCK
  5
12C
100
AcDbEntity
  8
0
100
AcDbBlockBegin
  2
*D1
 70
     1
 10
0.0
 20
0.0
 30
0.0
  3
*D1
  1

  0
LINE
  5
120
100
AcDbEntity
  8
0
  6
BYBLOCK
100
AcDbLine
 10
5701.182687
 20
1084.457726
 30
0.0
 11
5701.182687
 21
876.457726
 31
0.0
  0
LINE
  5
121
100
AcDbEntity
  8
0
  6
BYBLOCK
100
AcDbLine
 10
5726.182687
 20
1084.457726
 30
0.0
 11
5726.182687
 21
876.457726
 31
0.0
  0
LINE
  5
122
100
AcDbEntity
  8
0
  6
BYBLOCK
100
AcDbLine
 10
5686.182687
 20
882.457726
 30
0.0
 11
5671.182687
 21
882.457726
 31
0.0
  0
LINE
  5
123
100
AcDbEntity
  8
0
  6
BYBLOCK
100
AcDbLine
 10
5741.182687
 20
882.457726
 30
0.0
 11
5756.182687
 21
882.457726
 31
0.0
  0
MTEXT
  5
124
100
AcDbEntity
  8
0
  6
BYBLOCK
 62
     5
100
AcDbMText
 10
5713.682687
 20
863.113969
 30
0.0
 40
19.32
 41
0.0
 71
     5
 72
     1
  1
\A1;25
  0
LINE
  5
125
100
AcDbEntity
  8
0
  6
BYBLOCK
100
AcDbLine
 10
5701.182687
 20
882.457726
 30
0.0
 11
5726.182687
 21
882.457726
 31
0.0
  0
LINE
  5
126
100
AcDbEntity
  8
0
  6
BYBLOCK
100
AcDbLine
 10
5701.182687
 20
882.457726
 30
0.0
 11
5726.182687
 21
882.457726
 31
0.0
  0
SOLID
  5
127
100
AcDbEntity
  8
0
  6
BYBLOCK
100
AcDbTrace
 10
5686.182687
 20
884.957726
 30
0.0
 11
5686.182687
 21
879.957726
 31
0.0
 12
5701.182687
 22
882.457726
 32
0.0
 13
5701.182687
 23
882.457726
 33
0.0
  0
SOLID
  5
128
100
AcDbEntity
  8
0
  6
BYBLOCK
100
AcDbTrace
 10
5741.182687
 20
884.957726
 30
0.0
 11
5741.182687
 21
879.957726
 31
0.0
 12
5726.182687
 22
882.457726
 32
0.0
 13
5726.182687
 23
882.457726
 33
0.0
  0
POINT
  5
129
100
AcDbEntity
  8
DEFPOINTS
  6
BYBLOCK
 62
     0
100
AcDbPoint
 10
5701.182687
 20
1087.457726
 30
0.0
  0
POINT
  5
12A
100
AcDbEntity
  8
DEFPOINTS
  6
BYBLOCK
 62
     0
100
AcDbPoint
 10
5726.182687
 20
1087.457726
 30
0.0
  0
POINT
  5
12B
100
AcDbEntity
  8
DEFPOINTS
  6
BYBLOCK
 62
     0
100
AcDbPoint
 10
5726.182687
 20
882.457726
 30
0.0
  0
ENDBLK
  5
12D
100
AcDbEntity
  8
0
100
AcDbBlockEnd
  0
BLOCK
  5
11C
100
AcDbEntity
  8
0
100
AcDbBlockBegin
  2
*D2
 70
     1
 10
0.0
 20
0.0
 30
0.0
  3
*D2
  1

  0
LINE
  5
113
100
AcDbEntity
  8
0
  6
BYBLOCK
100
AcDbLine
 10
5726.182687
 20
1084.457726
 30
0.0
 11
5726.182687
 21
876.457726
 31
0.0
  0
LINE
  5
114
100
AcDbEntity
  8
0
  6
BYBLOCK
100
AcDbLine
 10
5841.182687
 20
1084.457726
 30
0.0
 11
5841.182687
 21
876.457726
 31
0.0
  0
LINE
  5
115
100
AcDbEntity
  8
0
  6
BYBLOCK
100
AcDbLine
 10
5741.182687
 20
882.457726
 30
0.0
 11
5826.182687
 21
882.457726
 31
0.0
  0
SOLID
  5
116
100
AcDbEntity
  8
0
  6
BYBLOCK
100
AcDbTrace
 10
5741.182687
 20
884.957726
 30
0.0
 11
5741.182687
 21
879.957726
 31
0.0
 12
5726.182687
 22
882.457726
 32
0.0
 13
5726.182687
 23
882.457726
 33
0.0
  0
SOLID
  5
117
100
AcDbEntity
  8
0
  6
BYBLOCK
100
AcDbTrace
 10
5826.182687
 20
884.957726
 30
0.0
 11
5826.182687
 21
879.957726
 31
0.0
 12
5841.182687
 22
882.457726
 32
0.0
 13
5841.182687
 23
882.457726
 33
0.0
  0
MTEXT
  5
118
100
AcDbEntity
  8
0
  6
BYBLOCK
 62
     5
100
AcDbMText
 10
5783.682687
 20
898.117726
 30
0.0
 40
19.32
 41
0.0
 71
     5
 72
     1
  1
\A1;115
  0
POINT
  5
119
100
AcDbEntity
  8
DEFPOINTS
  6
BYBLOCK
 62
     0
100
AcDbPoint
 10
5726.182687
 20
1087.457726
 30
0.0
  0
POINT
  5
11A
100
AcDbEntity
  8
DEFPOINTS
  6
BYBLOCK
 62
     0
100
AcDbPoint
 10
5841.182687
 20
1087.457726
 30
0.0
  0
POINT
  5
11B
100
AcDbEntity
  8
DEFPOINTS
  6
BYBLOCK
 62
     0
100
AcDbPoint
 10
5841.182687
 20
882.457726
 30
0.0
  0
ENDBLK
  5
11D
100
AcDbEntity
  8
0
100
AcDbBlockEnd
  0
BLOCK
  5
10F
100
AcDbEntity
  8
0
100
AcDbBlockBegin
  2
*D3
 70
     1
 10
0.0
 20
0.0
 30
0.0
  3
*D3
  1

  0
LINE
  5
103
100
AcDbEntity
  8
0
  6
BYBLOCK
100
AcDbLine
 10
5841.182687
 20
1084.457726
 30
0.0
 11
5841.182687
 21
876.457726
 31
0.0
  0
LINE
  5
104
100
AcDbEntity
  8
0
  6
BYBLOCK
100
AcDbLine
 10
5866.182687
 20
1084.457726
 30
0.0
 11
5866.182687
 21
876.457726
 31
0.0
  0
LINE
  5
105
100
AcDbEntity
  8
0
  6
BYBLOCK
100
AcDbLine
 10
5826.182687
 20
882.457726
 30
0.0
 11
5811.182687
 21
882.457726
 31
0.0
  0
LINE
  5
106
100
AcDbEntity
  8
0
  6
BYBLOCK
100
AcDbLine
 10
5881.182687
 20
882.457726
 30
0.0
 11
5896.182687
 21
882.457726
 31
0.0
  0
MTEXT
  5
107
100
AcDbEntity
  8
0
  6
BYBLOCK
 62
     5
100
AcDbMText
 10
5853.682687
 20
863.782072
 30
0.0
 40
19.32
 41
0.0
 71
     5
 72
     1
  1
\A1;25
  0
LINE
  5
108
100
AcDbEntity
  8
0
  6
BYBLOCK
100
AcDbLine
 10
5841.182687
 20
882.457726
 30
0.0
 11
5866.182687
 21
882.457726
 31
0.0
  0
LINE
  5
109
100
AcDbEntity
  8
0
  6
BYBLOCK
100
AcDbLine
 10
5841.182687
 20
882.457726
 30
0.0
 11
5866.182687
 21
882.457726
 31
0.0
  0
SOLID
  5
10A
100
AcDbEntity
  8
0
  6
BYBLOCK
100
AcDbTrace
 10
5826.182687
 20
884.957726
 30
0.0
 11
5826.182687
 21
879.957726
 31
0.0
 12
5841.182687
 22
882.457726
 32
0.0
 13
5841.182687
 23
882.457726
 33
0.0
  0
SOLID
  5
10B
100
AcDbEntity
  8
0
  6
BYBLOCK
100
AcDbTrace
 10
5881.182687
 20
884.957726
 30
0.0
 11
5881.182687
 21
879.957726
 31
0.0
 12
5866.182687
 22
882.457726
 32
0.0
 13
5866.182687
 23
882.457726
 33
0.0
  0
POINT
  5
10C
100
AcDbEntity
  8
DEFPOINTS
  6
BYBLOCK
 62
     0
100
AcDbPoint
 10
5841.182687
 20
1087.457726
 30
0.0
  0
POINT
  5
10D
100
AcDbEntity
  8
DEFPOINTS
  6
BYBLOCK
 62
     0
100
AcDbPoint
 10
5866.182687
 20
1087.457726
 30
0.0
  0
POINT
  5
10E
100
AcDbEntity
  8
DEFPOINTS
  6
BYBLOCK
 62
     0
100
AcDbPoint
 10
5866.182687
 20
882.457726
 30
0.0
  0
ENDBLK
  5
110
100
AcDbEntity
  8
0
100
AcDbBlockEnd
  0
BLOCK
  5
FF
100
AcDbEntity
  8
0
100
AcDbBlockBegin
  2
*D4
 70
     1
 10
0.0
 20
0.0
 30
0.0
  3
*D4
  1

  0
LINE
  5
F3
100
AcDbEntity
  8
0
  6
BYBLOCK
100
AcDbLine
 10
5866.182687
 20
1084.457726
 30
0.0
 11
5866.182687
 21
876.457726
 31
0.0
  0
LINE
  5
F4
100
AcDbEntity
  8
0
  6
BYBLOCK
100
AcDbLine
 10
5886.182687
 20
1084.457726
 30
0.0
 11
5886.182687
 21
876.457726
 31
0.0
  0
LINE
  5
F5
100
AcDbEntity
  8
0
  6
BYBLOCK
100
AcDbLine
 10
5851.182687
 20
882.457726
 30
0.0
 11
5836.182687
 21
882.457726
 31
0.0
  0
LINE
  5
F6
100
AcDbEntity
  8
0
  6
BYBLOCK
100
AcDbLine
 10
5901.182687
 20
882.457726
 30
0.0
 11
5916.182687
 21
882.457726
 31
0.0
  0
MTEXT
  5
F7
100
AcDbEntity
  8
0
  6
BYBLOCK
 62
     5
100
AcDbMText
 10
5904.082975
 20
898.207726
 30
0.0
 40
19.32
 41
0.0
 71
     5
 72
     1
  1
\A1;20
  0
LINE
  5
F8
100
AcDbEntity
  8
0
  6
BYBLOCK
100
AcDbLine
 10
5866.182687
 20
882.457726
 30
0.0
 11
5886.182687
 21
882.457726
 31
0.0
  0
LINE
  5
F9
100
AcDbEntity
  8
0
  6
BYBLOCK
100
AcDbLine
 10
5866.182687
 20
882.457726
 30
0.0
 11
5886.182687
 21
882.457726
 31
0.0
  0
SOLID
  5
FA
100
AcDbEntity
  8
0
  6
BYBLOCK
100
AcDbTrace
 10
5851.182687
 20
884.957726
 30
0.0
 11
5851.182687
 21
879.957726
 31
0.0
 12
5866.182687
 22
882.457726
 32
0.0
 13
5866.182687
 23
882.457726
 33
0.0
  0
SOLID
  5
FB
100
AcDbEntity
  8
0
  6
BYBLOCK
100
AcDbTrace
 10
5901.182687
 20
884.957726
 30
0.0
 11
5901.182687
 21
879.957726
 31
0.0
 12
5886.182687
 22
882.457726
 32
0.0
 13
5886.182687
 23
882.457726
 33
0.0
  0
POINT
  5
FC
100
AcDbEntity
  8
DEFPOINTS
  6
BYBLOCK
 62
     0
100
AcDbPoint
 10
5866.182687
 20
1087.457726
 30
0.0
  0
POINT
  5
FD
100
AcDbEntity
  8
DEFPOINTS
  6
BYBLOCK
 62
     0
100
AcDbPoint
 10
5886.182687
 20
1087.457726
 30
0.0
  0
POINT
  5
FE
100
AcDbEntity
  8
DEFPOINTS
  6
BYBLOCK
 62
     0
100
AcDbPoint
 10
5886.182687
 20
882.457726
 30
0.0
  0
ENDBLK
  5
100
100
AcDbEntity
  8
0
100
AcDbBlockEnd
  0
BLOCK
  5
14A
100
AcDbEntity
  8
0
100
AcDbBlockBegin
  2
*D5
 70
     1
 10
0.0
 20
0.0
 30
0.0
  3
*D5
  1

  0
LINE
  5
13E
100
AcDbEntity
  8
0
  6
BYBLOCK
100
AcDbLine
 10
5856.682687
 20
1077.457726
 30
0.0
 11
5924.320161
 21
1077.457726
 31
0.0
  0
LINE
  5
13F
100
AcDbEntity
  8
0
  6
BYBLOCK
100
AcDbLine
 10
5889.182687
 20
1087.457726
 30
0.0
 11
5924.320161
 21
1087.457726
 31
0.0
  0
LINE
  5
140
100
AcDbEntity
  8
0
  6
BYBLOCK
100
AcDbLine
 10
5918.320161
 20
1062.457726
 30
0.0
 11
5918.320161
 21
1047.457726
 31
0.0
  0
LINE
  5
141
100
AcDbEntity
  8
0
  6
BYBLOCK
100
AcDbLine
 10
5918.320161
 20
1102.457726
 30
0.0
 11
5918.320161
 21
1117.457726
 31
0.0
  0
MTEXT
  5
142
100
AcDbEntity
  8
0
  6
BYBLOCK
 62
     5
100
AcDbMText
 10
5902.570161
 20
1105.436389
 30
0.0
 40
19.32
 41
0.0
 71
     5
 72
     1
  1
\A1;10
 11
0.0
 21
1.0
 31
0.0
  0
LINE
  5
143
100
AcDbEntity
  8
0
  6
BYBLOCK
100
AcDbLine
 10
5918.320161
 20
1077.457726
 30
0.0
 11
5918.320161
 21
1087.457726
 31
0.0
  0
LINE
  5
144
100
AcDbEntity
  8
0
  6
BYBLOCK
100
AcDbLine
 10
5918.320161
 20
1077.457726
 30
0.0
 11
5918.320161
 21
1087.457726
 31
0.0
  0
SOLID
  5
145
100
AcDbEntity
  8
0
  6
BYBLOCK
100
AcDbTrace
 10
5915.820161
 20
1062.457726
 30
0.0
 11
5920.820161
 21
1062.457726
 31
0.0
 12
5918.320161
 22
1077.457726
 32
0.0
 13
5918.320161
 23
1077.457726
 33
0.0
  0
SOLID
  5
146
100
AcDbEntity
  8
0
  6
BYBLOCK
100
AcDbTrace
 10
5915.820161
 20
1102.457726
 30
0.0
 11
5920.820161
 21
1102.457726
 31
0.0
 12
5918.320161
 22
1087.457726
 32
0.0
 13
5918.320161
 23
1087.457726
 33
0.0
  0
POINT
  5
147
100
AcDbEntity
  8
DEFPOINTS
  6
BYBLOCK
 62
     0
100
AcDbPoint
 10
5853.682687
 20
1077.457726
 30
0.0
  0
POINT
  5
148
100
AcDbEntity
  8
DEFPOINTS
  6
BYBLOCK
 62
     0
100
AcDbPoint
 10
5886.182687
 20
1087.457726
 30
0.0
  0
POINT
  5
149
100
AcDbEntity
  8
DEFPOINTS
  6
BYBLOCK
 62
     0
100
AcDbPoint
 10
5918.320161
 20
1087.457726
 30
0.0
  0
ENDBLK
  5
14B
100
AcDbEntity
  8
0
100
AcDbBlockEnd
  0
BLOCK
  5
A0
100
AcDbEntity
  8
0
100
AcDbBlockBegin
  2
*D6
 70
     1
 10
0.0
 20
0.0
 30
0.0
  3
*D6
  1

  0
LINE
  5
95
100
AcDbEntity
  8
0
  6
BYBLOCK
100
AcDbLine
 10
5633.682687
 20
885.457726
 30
0.0
 11
5633.682687
 21
1135.755491
 31
0.0
  0
LINE
  5
96
100
AcDbEntity
  8
0
  6
BYBLOCK
100
AcDbLine
 10
5681.182687
 20
1090.457726
 30
0.0
 11
5681.182687
 21
1135.755491
 31
0.0
  0
LINE
  5
97
100
AcDbEntity
  8
0
  6
BYBLOCK
100
AcDbLine
 10
5618.682687
 20
1129.755491
 30
0.0
 11
5603.682687
 21
1129.755491
 31
0.0
  0
LINE
  5
98
100
AcDbEntity
  8
0
  6
BYBLOCK
100
AcDbLine
 10
5696.182687
 20
1129.755491
 30
0.0
 11
5711.182687
 21
1129.755491
 31
0.0
  0
LINE
  5
99
100
AcDbEntity
  8
0
  6
BYBLOCK
100
AcDbLine
 10
5633.682687
 20
1129.755491
 30
0.0
 11
5681.182687
 21
1129.755491
 31
0.0
  0
SOLID
  5
9A
100
AcDbEntity
  8
0
  6
BYBLOCK
100
AcDbTrace
 10
5618.682687
 20
1132.255491
 30
0.0
 11
5618.682687
 21
1127.255491
 31
0.0
 12
5633.682687
 22
1129.755491
 32
0.0
 13
5633.682687
 23
1129.755491
 33
0.0
  0
SOLID
  5
9B
100
AcDbEntity
  8
0
  6
BYBLOCK
100
AcDbTrace
 10
5696.182687
 20
1132.255491
 30
0.0
 11
5696.182687
 21
1127.255491
 31
0.0
 12
5681.182687
 22
1129.755491
 32
0.0
 13
5681.182687
 23
1129.755491
 33
0.0
  0
MTEXT
  5
9C
100
AcDbEntity
  8
0
  6
BYBLOCK
 62
     5
100
AcDbMText
 10
5657.432687
 20
1147.255491
 30
0.0
 40
19.32
 41
0.0
 71
     5
 72
     1
  1
\A1;47,5
  0
POINT
  5
9D
100
AcDbEntity
  8
DEFPOINTS
  6
BYBLOCK
 62
     0
100
AcDbPoint
 10
5633.682687
 20
882.457726
 30
0.0
  0
POINT
  5
9E
100
AcDbEntity
  8
DEFPOINTS
  6
BYBLOCK
 62
     0
100
AcDbPoint
 10
5681.182687
 20
1087.457726
 30
0.0
  0
POINT
  5
9F
100
AcDbEntity
  8
DEFPOINTS
  6
BYBLOCK
 62
     0
100
AcDbPoint
 10
5681.182687
 20
1129.755491
 30
0.0
  0
ENDBLK
  5
A1
100
AcDbEntity
  8
0
100
AcDbBlockEnd
  0
BLOCK
  5
13A
100
AcDbEntity
  8
0
100
AcDbBlockBegin
  2
*D7
 70
     1
 10
0.0
 20
0.0
 30
0.0
  3
*D7
  1

  0
LINE
  5
131
100
AcDbEntity
  8
0
  6
BYBLOCK
100
AcDbLine
 10
5681.182687
 20
1090.457726
 30
0.0
 11
5681.182687
 21
1135.755491
 31
0.0
  0
LINE
  5
132
100
AcDbEntity
  8
0
  6
BYBLOCK
100
AcDbLine
 10
5886.182687
 20
1090.457726
 30
0.0
 11
5886.182687
 21
1135.755491
 31
0.0
  0
LINE
  5
133
100
AcDbEntity
  8
0
  6
BYBLOCK
100
AcDbLine
 10
5696.182687
 20
1129.755491
 30
0.0
 11
5871.182687
 21
1129.755491
 31
0.0
  0
SOLID
  5
134
100
AcDbEntity
  8
0
  6
BYBLOCK
100
AcDbTrace
 10
5696.182687
 20
1132.255491
 30
0.0
 11
5696.182687
 21
1127.255491
 31
0.0
 12
5681.182687
 22
1129.755491
 32
0.0
 13
5681.182687
 23
1129.755491
 33
0.0
  0
SOLID
  5
135
100
AcDbEntity
  8
0
  6
BYBLOCK
100
AcDbTrace
 10
5871.182687
 20
1132.255491
 30
0.0
 11
5871.182687
 21
1127.255491
 31
0.0
 12
5886.182687
 22
1129.755491
 32
0.0
 13
5886.182687
 23
1129.755491
 33
0.0
  0
MTEXT
  5
136
100
AcDbEntity
  8
0
  6
BYBLOCK
 62
     5
100
AcDbMText
 10
5783.682687
 20
1145.415491
 30
0.0
 40
19.32
 41
0.0
 71
     5
 72
     1
  1
\A1;205
  0
POINT
  5
137
100
AcDbEntity
  8
DEFPOINTS
  6
BYBLOCK
 62
     0
100
AcDbPoint
 10
5681.182687
 20
1087.457726
 30
0.0
  0
POINT
  5
138
100
AcDbEntity
  8
DEFPOINTS
  6
BYBLOCK
 62
     0
100
AcDbPoint
 10
5886.182687
 20
1087.457726
 30
0.0
  0
POINT
  5
139
100
AcDbEntity
  8
DEFPOINTS
  6
BYBLOCK
 62
     0
100
AcDbPoint
 10
5886.182687
 20
1129.755491
 30
0.0
  0
ENDBLK
  5
13B
100
AcDbEntity
  8
0
100
AcDbBlockEnd
  0
BLOCK
  5
EF
100
AcDbEntity
  8
0
100
AcDbBlockBegin
  2
*D8
 70
     1
 10
0.0
 20
0.0
 30
0.0
  3
*D8
  1

  0
LINE
  5
E4
100
AcDbEntity
  8
0
  6
BYBLOCK
100
AcDbLine
 10
5886.182687
 20
1090.457726
 30
0.0
 11
5886.182687
 21
1135.755491
 31
0.0
  0
LINE
  5
E5
100
AcDbEntity
  8
0
  6
BYBLOCK
100
AcDbLine
 10
5933.682687
 20
885.457726
 30
0.0
 11
5933.682687
 21
1135.755491
 31
0.0
  0
LINE
  5
E6
100
AcDbEntity
  8
0
  6
BYBLOCK
100
AcDbLine
 10
5871.182687
 20
1129.755491
 30
0.0
 11
5856.182687
 21
1129.755491
 31
0.0
  0
LINE
  5
E7
100
AcDbEntity
  8
0
  6
BYBLOCK
100
AcDbLine
 10
5948.682687
 20
1129.755491
 30
0.0
 11
5963.682687
 21
1129.755491
 31
0.0
  0
LINE
  5
E8
100
AcDbEntity
  8
0
  6
BYBLOCK
100
AcDbLine
 10
5886.182687
 20
1129.755491
 30
0.0
 11
5933.682687
 21
1129.755491
 31
0.0
  0
SOLID
  5
E9
100
AcDbEntity
  8
0
  6
BYBLOCK
100
AcDbTrace
 10
5871.182687
 20
1132.255491
 30
0.0
 11
5871.182687
 21
1127.255491
 31
0.0
 12
5886.182687
 22
1129.755491
 32
0.0
 13
5886.182687
 23
1129.755491
 33
0.0
  0
SOLID
  5
EA
100
AcDbEntity
  8
0
  6
BYBLOCK
100
AcDbTrace
 10
5948.682687
 20
1132.255491
 30
0.0
 11
5948.682687
 21
1127.255491
 31
0.0
 12
5933.682687
 22
1129.755491
 32
0.0
 13
5933.682687
 23
1129.755491
 33
0.0
  0
MTEXT
  5
EB
100
AcDbEntity
  8
0
  6
BYBLOCK
 62
     5
100
AcDbMText
 10
5909.932687
 20
1147.255491
 30
0.0
 40
19.32
 41
0.0
 71
     5
 72
     1
  1
\A1;47,5
  0
POINT
  5
EC
100
AcDbEntity
  8
DEFPOINTS
  6
BYBLOCK
 62
     0
100
AcDbPoint
 10
5886.182687
 20
1087.457726
 30
0.0
  0
POINT
  5
ED
100
AcDbEntity
  8
DEFPOINTS
  6
BYBLOCK
 62
     0
100
AcDbPoint
 10
5933.682687
 20
882.457726
 30
0.0
  0
POINT
  5
EE
100
AcDbEntity
  8
DEFPOINTS
  6
BYBLOCK
 62
     0
100
AcDbPoint
 10
5933.682687
 20
1129.755491
 30
0.0
  0
ENDBLK
  5
F0
100
AcDbEntity
  8
0
100
AcDbBlockEnd
  0
BLOCK
  5
E0
100
AcDbEntity
  8
0
100
AcDbBlockBegin
  2
*D9
 70
     1
 10
0.0
 20
0.0
 30
0.0
  3
*D9
  1

  0
LINE
  5
D7
100
AcDbEntity
  8
0
  6
BYBLOCK
100
AcDbLine
 10
5933.682687
 20
885.457726
 30
0.0
 11
5933.682687
 21
1135.755491
 31
0.0
  0
LINE
  5
D8
100
AcDbEntity
  8
0
  6
BYBLOCK
100
AcDbLine
 10
6008.682687
 20
885.457726
 30
0.0
 11
6008.682687
 21
1135.755491
 31
0.0
  0
LINE
  5
D9
100
AcDbEntity
  8
0
  6
BYBLOCK
100
AcDbLine
 10
5948.682687
 20
1129.755491
 30
0.0
 11
5993.682687
 21
1129.755491
 31
0.0
  0
SOLID
  5
DA
100
AcDbEntity
  8
0
  6
BYBLOCK
100
AcDbTrace
 10
5948.682687
 20
1132.255491
 30
0.0
 11
5948.682687
 21
1127.255491
 31
0.0
 12
5933.682687
 22
1129.755491
 32
0.0
 13
5933.682687
 23
1129.755491
 33
0.0
  0
SOLID
  5
DB
100
AcDbEntity
  8
0
  6
BYBLOCK
100
AcDbTrace
 10
5993.682687
 20
1132.255491
 30
0.0
 11
5993.682687
 21
1127.255491
 31
0.0
 12
6008.682687
 22
1129.755491
 32
0.0
 13
6008.682687
 23
1129.755491
 33
0.0
  0
MTEXT
  5
DC
100
AcDbEntity
  8
0
  6
BYBLOCK
 62
     5
100
AcDbMText
 10
5971.182687
 20
1145.415491
 30
0.0
 40
19.32
 41
0.0
 71
     5
 72
     1
  1
\A1;75
  0
POINT
  5
DD
100
AcDbEntity
  8
DEFPOINTS
  6
BYBLOCK
 62
     0
100
AcDbPoint
 10
5933.682687
 20
882.457726
 30
0.0
  0
POINT
  5
DE
100
AcDbEntity
  8
DEFPOINTS
  6
BYBLOCK
 62
     0
100
AcDbPoint
 10
6008.682687
 20
882.457726
 30
0.0
  0
POINT
  5
DF
100
AcDbEntity
  8
DEFPOINTS
  6
BYBLOCK
 62
     0
100
AcDbPoint
 10
6008.682687
 20
1129.755491
 30
0.0
  0
ENDBLK
  5
E1
100
AcDbEntity
  8
0
100
AcDbBlockEnd
  0
BLOCK
  5
91
100
AcDbEntity
  8
0
100
AcDbBlockBegin
  2
*D10
 70
     1
 10
0.0
 20
0.0
 30
0.0
  3
*D10
  1

  0
LINE
  5
88
100
AcDbEntity
  8
0
  6
BYBLOCK
100
AcDbLine
 10
5596.182687
 20
889.457726
 30
0.0
 11
5596.182687
 21
816.457726
 31
0.0
  0
LINE
  5
89
100
AcDbEntity
  8
0
  6
BYBLOCK
100
AcDbLine
 10
5971.182687
 20
889.457726
 30
0.0
 11
5971.182687
 21
816.457726
 31
0.0
  0
LINE
  5
8A
100
AcDbEntity
  8
0
  6
BYBLOCK
100
AcDbLine
 10
5611.182687
 20
822.457726
 30
0.0
 11
5956.182687
 21
822.457726
 31
0.0
  0
SOLID
  5
8B
100
AcDbEntity
  8
0
  6
BYBLOCK
100
AcDbTrace
 10
5611.182687
 20
824.957726
 30
0.0
 11
5611.182687
 21
819.957726
 31
0.0
 12
5596.182687
 22
822.457726
 32
0.0
 13
5596.182687
 23
822.457726
 33
0.0
  0
SOLID
  5
8C
100
AcDbEntity
  8
0
  6
BYBLOCK
100
AcDbTrace
 10
5956.182687
 20
824.957726
 30
0.0
 11
5956.182687
 21
819.957726
 31
0.0
 12
5971.182687
 22
822.457726
 32
0.0
 13
5971.182687
 23
822.457726
 33
0.0
  0
MTEXT
  5
8D
100
AcDbEntity
  8
0
  6
BYBLOCK
 62
     5
100
AcDbMText
 10
5783.682687
 20
838.117726
 30
0.0
 40
19.32
 41
0.0
 71
     5
 72
     1
  1
\A1;375
  0
POINT
  5
8E
100
AcDbEntity
  8
DEFPOINTS
  6
BYBLOCK
 62
     0
100
AcDbPoint
 10
5596.182687
 20
892.457726
 30
0.0
  0
POINT
  5
8F
100
AcDbEntity
  8
DEFPOINTS
  6
BYBLOCK
 62
     0
100
AcDbPoint
 10
5971.182687
 20
892.457726
 30
0.0
  0
POINT
  5
90
100
AcDbEntity
  8
DEFPOINTS
  6
BYBLOCK
 62
     0
100
AcDbPoint
 10
5971.182687
 20
822.457726
 30
0.0
  0
ENDBLK
  5
92
100
AcDbEntity
  8
0
100
AcDbBlockEnd
  0
BLOCK
  5
84
100
AcDbEntity
  8
0
100
AcDbBlockBegin
  2
*D11
 70
     1
 10
0.0
 20
0.0
 30
0.0
  3
*D11
  1

  0
LINE
  5
7B
100
AcDbEntity
  8
0
  6
BYBLOCK
100
AcDbLine
 10
5596.182687
 20
889.457726
 30
0.0
 11
5596.182687
 21
756.457726
 31
0.0
  0
LINE
  5
7C
100
AcDbEntity
  8
0
  6
BYBLOCK
100
AcDbLine
 10
6346.182687
 20
889.457726
 30
0.0
 11
6346.182687
 21
756.457726
 31
0.0
  0
LINE
  5
7D
100
AcDbEntity
  8
0
  6
BYBLOCK
100
AcDbLine
 10
5611.182687
 20
762.457726
 30
0.0
 11
6331.182687
 21
762.457726
 31
0.0
  0
SOLID
  5
7E
100
AcDbEntity
  8
0
  6
BYBLOCK
100
AcDbTrace
 10
5611.182687
 20
764.957726
 30
0.0
 11
5611.182687
 21
759.957726
 31
0.0
 12
5596.182687
 22
762.457726
 32
0.0
 13
5596.182687
 23
762.457726
 33
0.0
  0
SOLID
  5
7F
100
AcDbEntity
  8
0
  6
BYBLOCK
100
AcDbTrace
 10
6331.182687
 20
764.957726
 30
0.0
 11
6331.182687
 21
759.957726
 31
0.0
 12
6346.182687
 22
762.457726
 32
0.0
 13
6346.182687
 23
762.457726
 33
0.0
  0
MTEXT
  5
80
100
AcDbEntity
  8
0
  6
BYBLOCK
 62
     5
100
AcDbMText
 10
5971.182687
 20
778.117726
 30
0.0
 40
19.32
 41
0.0
 71
     5
 72
     1
  1
\A1;750
  0
POINT
  5
81
100
AcDbEntity
  8
DEFPOINTS
  6
BYBLOCK
 62
     0
100
AcDbPoint
 10
5596.182687
 20
892.457726
 30
0.0
  0
POINT
  5
82
100
AcDbEntity
  8
DEFPOINTS
  6
BYBLOCK
 62
     0
100
AcDbPoint
 10
6346.182687
 20
892.457726
 30
0.0
  0
POINT
  5
83
100
AcDbEntity
  8
DEFPOINTS
  6
BYBLOCK
 62
     0
100
AcDbPoint
 10
6346.182687
 20
762.457726
 30
0.0
  0
ENDBLK
  5
85
100
AcDbEntity
  8
0
100
AcDbBlockEnd
  0
BLOCK
  5
75
100
AcDbEntity
  8
0
100
AcDbBlockBegin
  2
*D12
 70
     1
 10
0.0
 20
0.0
 30
0.0
  3
*D12
  1

  0
LINE
  5
6A
100
AcDbEntity
  8
0
  6
BYBLOCK
100
AcDbLine
 10
6264.182687
 20
1087.457726
 30
0.0
 11
6498.784201
 21
1087.457726
 31
0.0
  0
LINE
  5
6B
100
AcDbEntity
  8
0
  6
BYBLOCK
100
AcDbLine
 10
6268.982171
 20
1051.457726
 30
0.0
 11
6498.784201
 21
1051.457726
 31
0.0
  0
LINE
  5
6C
100
AcDbEntity
  8
0
  6
BYBLOCK
100
AcDbLine
 10
6492.784201
 20
1102.457726
 30
0.0
 11
6492.784201
 21
1117.457726
 31
0.0
  0
LINE
  5
6D
100
AcDbEntity
  8
0
  6
BYBLOCK
100
AcDbLine
 10
6492.784201
 20
1036.457726
 30
0.0
 11
6492.784201
 21
1021.457726
 31
0.0
  0
LINE
  5
6E
100
AcDbEntity
  8
0
  6
BYBLOCK
100
AcDbLine
 10
6492.784201
 20
1087.457726
 30
0.0
 11
6492.784201
 21
1051.457726
 31
0.0
  0
SOLID
  5
6F
100
AcDbEntity
  8
0
  6
BYBLOCK
100
AcDbTrace
 10
6490.284201
 20
1102.457726
 30
0.0
 11
6495.284201
 21
1102.457726
 31
0.0
 12
6492.784201
 22
1087.457726
 32
0.0
 13
6492.784201
 23
1087.457726
 33
0.0
  0
SOLID
  5
70
100
AcDbEntity
  8
0
  6
BYBLOCK
100
AcDbTrace
 10
6490.284201
 20
1036.457726
 30
0.0
 11
6495.284201
 21
1036.457726
 31
0.0
 12
6492.784201
 22
1051.457726
 32
0.0
 13
6492.784201
 23
1051.457726
 33
0.0
  0
MTEXT
  5
71
100
AcDbEntity
  8
0
  6
BYBLOCK
 62
     5
100
AcDbMText
 10
6477.124201
 20
1069.457726
 30
0.0
 40
19.32
 41
0.0
 71
     5
 72
     1
  1
\A1;36
 11
0.0
 21
1.0
 31
0.0
  0
POINT
  5
72
100
AcDbEntity
  8
DEFPOINTS
  6
BYBLOCK
 62
     0
100
AcDbPoint
 10
6261.182687
 20
1087.457726
 30
0.0
  0
POINT
  5
73
100
AcDbEntity
  8
DEFPOINTS
  6
BYBLOCK
 62
     0
100
AcDbPoint
 10
6265.982171
 20
1051.457726
 30
0.0
  0
POINT
  5
74
100
AcDbEntity
  8
DEFPOINTS
  6
BYBLOCK
 62
     0
100
AcDbPoint
 10
6492.784201
 20
1051.457726
 30
0.0
  0
ENDBLK
  5
76
100
AcDbEntity
  8
0
100
AcDbBlockEnd
  0
BLOCK
  5
66
100
AcDbEntity
  8
0
100
AcDbBlockBegin
  2
*D13
 70
     1
 10
0.0
 20
0.0
 30
0.0
  3
*D13
  1

  0
LINE
  5
5A
100
AcDbEntity
  8
0
  6
BYBLOCK
100
AcDbLine
 10
6268.982171
 20
1051.457726
 30
0.0
 11
6498.784201
 21
1051.457726
 31
0.0
  0
LINE
  5
5B
100
AcDbEntity
  8
0
  6
BYBLOCK
100
AcDbLine
 10
6281.733355
 20
1031.457726
 30
0.0
 11
6498.784201
 21
1031.457726
 31
0.0
  0
LINE
  5
5C
100
AcDbEntity
  8
0
  6
BYBLOCK
100
AcDbLine
 10
6492.784201
 20
1066.457726
 30
0.0
 11
6492.784201
 21
1081.457726
 31
0.0
  0
LINE
  5
5D
100
AcDbEntity
  8
0
  6
BYBLOCK
100
AcDbLine
 10
6492.784201
 20
1016.457726
 30
0.0
 11
6492.784201
 21
1001.457726
 31
0.0
  0
MTEXT
  5
5E
100
AcDbEntity
  8
0
  6
BYBLOCK
 62
     5
100
AcDbMText
 10
6514.466089
 20
1041.457726
 30
0.0
 40
19.32
 41
0.0
 71
     5
 72
     1
  1
\A1;20
 11
0.0
 21
1.0
 31
0.0
  0
LINE
  5
5F
100
AcDbEntity
  8
0
  6
BYBLOCK
100
AcDbLine
 10
6492.784201
 20
1051.457726
 30
0.0
 11
6492.784201
 21
1031.457726
 31
0.0
  0
LINE
  5
60
100
AcDbEntity
  8
0
  6
BYBLOCK
100
AcDbLine
 10
6492.784201
 20
1051.457726
 30
0.0
 11
6492.784201
 21
1031.457726
 31
0.0
  0
SOLID
  5
61
100
AcDbEntity
  8
0
  6
BYBLOCK
100
AcDbTrace
 10
6490.284201
 20
1066.457726
 30
0.0
 11
6495.284201
 21
1066.457726
 31
0.0
 12
6492.784201
 22
1051.457726
 32
0.0
 13
6492.784201
 23
1051.457726
 33
0.0
  0
SOLID
  5
62
100
AcDbEntity
  8
0
  6
BYBLOCK
100
AcDbTrace
 10
6490.284201
 20
1016.457726
 30
0.0
 11
6495.284201
 21
1016.457726
 31
0.0
 12
6492.784201
 22
1031.457726
 32
0.0
 13
6492.784201
 23
1031.457726
 33
0.0
  0
POINT
  5
63
100
AcDbEntity
  8
DEFPOINTS
  6
BYBLOCK
 62
     0
100
AcDbPoint
 10
6265.982171
 20
1051.457726
 30
0.0
  0
POINT
  5
64
100
AcDbEntity
  8
DEFPOINTS
  6
BYBLOCK
 62
     0
100
AcDbPoint
 10
6278.733355
 20
1031.457726
 30
0.0
  0
POINT
  5
65
100
AcDbEntity
  8
DEFPOINTS
  6
BYBLOCK
 62
     0
100
AcDbPoint
 10
6492.784201
 20
1031.457726
 30
0.0
  0
ENDBLK
  5
67
100
AcDbEntity
  8
0
100
AcDbBlockEnd
  0
BLOCK
  5
56
100
AcDbEntity
  8
0
100
AcDbBlockBegin
  2
*D14
 70
     1
 10
0.0
 20
0.0
 30
0.0
  3
*D14
  1

  0
LINE
  5
4D
100
AcDbEntity
  8
0
  6
BYBLOCK
100
AcDbLine
 10
6281.733355
 20
1031.457726
 30
0.0
 11
6498.784201
 21
1031.457726
 31
0.0
  0
LINE
  5
4E
100
AcDbEntity
  8
0
  6
BYBLOCK
100
AcDbLine
 10
6294.13202
 20
938.457726
 30
0.0
 11
6498.784201
 21
938.457726
 31
0.0
  0
LINE
  5
4F
100
AcDbEntity
  8
0
  6
BYBLOCK
100
AcDbLine
 10
6492.784201
 20
1016.457726
 30
0.0
 11
6492.784201
 21
953.457726
 31
0.0
  0
SOLID
  5
50
100
AcDbEntity
  8
0
  6
BYBLOCK
100
AcDbTrace
 10
6490.284201
 20
1016.457726
 30
0.0
 11
6495.284201
 21
1016.457726
 31
0.0
 12
6492.784201
 22
1031.457726
 32
0.0
 13
6492.784201
 23
1031.457726
 33
0.0
  0
SOLID
  5
51
100
AcDbEntity
  8
0
  6
BYBLOCK
100
AcDbTrace
 10
6490.284201
 20
953.457726
 30
0.0
 11
6495.284201
 21
953.457726
 31
0.0
 12
6492.784201
 22
938.457726
 32
0.0
 13
6492.784201
 23
938.457726
 33
0.0
  0
MTEXT
  5
52
100
AcDbEntity
  8
0
  6
BYBLOCK
 62
     5
100
AcDbMText
 10
6477.124201
 20
984.957726
 30
0.0
 40
19.32
 41
0.0
 71
     5
 72
     1
  1
\A1;93
 11
0.0
 21
1.0
 31
0.0
  0
POINT
  5
53
100
AcDbEntity
  8
DEFPOINTS
  6
BYBLOCK
 62
     0
100
AcDbPoint
 10
6278.733355
 20
1031.457726
 30
0.0
  0
POINT
  5
54
100
AcDbEntity
  8
DEFPOINTS
  6
BYBLOCK
 62
     0
100
AcDbPoint
 10
6291.13202
 20
938.457726
 30
0.0
  0
POINT
  5
55
100
AcDbEntity
  8
DEFPOINTS
  6
BYBLOCK
 62
     0
100
AcDbPoint
 10
6492.784201
 20
938.457726
 30
0.0
  0
ENDBLK
  5
57
100
AcDbEntity
  8
0
100
AcDbBlockEnd
  0
BLOCK
  5
49
100
AcDbEntity
  8
0
100
AcDbBlockBegin
  2
*D15
 70
     1
 10
0.0
 20
0.0
 30
0.0
  3
*D15
  1

  0
LINE
  5
3D
100
AcDbEntity
  8
0
  6
BYBLOCK
100
AcDbLine
 10
6294.13202
 20
938.457726
 30
0.0
 11
6498.784201
 21
938.457726
 31
0.0
  0
LINE
  5
3E
100
AcDbEntity
  8
0
  6
BYBLOCK
100
AcDbLine
 10
6306.883204
 20
918.457726
 30
0.0
 11
6498.784201
 21
918.457726
 31
0.0
  0
LINE
  5
3F
100
AcDbEntity
  8
0
  6
BYBLOCK
100
AcDbLine
 10
6492.784201
 20
953.457726
 30
0.0
 11
6492.784201
 21
968.457726
 31
0.0
  0
LINE
  5
40
100
AcDbEntity
  8
0
  6
BYBLOCK
100
AcDbLine
 10
6492.784201
 20
903.457726
 30
0.0
 11
6492.784201
 21
888.457726
 31
0.0
  0
MTEXT
  5
41
100
AcDbEntity
  8
0
  6
BYBLOCK
 62
     5
100
AcDbMText
 10
6514.466089
 20
928.457726
 30
0.0
 40
19.32
 41
0.0
 71
     5
 72
     1
  1
\A1;20
 11
0.0
 21
1.0
 31
0.0
  0
LINE
  5
42
100
AcDbEntity
  8
0
  6
BYBLOCK
100
AcDbLine
 10
6492.784201
 20
938.457726
 30
0.0
 11
6492.784201
 21
918.457726
 31
0.0
  0
LINE
  5
43
100
AcDbEntity
  8
0
  6
BYBLOCK
100
AcDbLine
 10
6492.784201
 20
938.457726
 30
0.0
 11
6492.784201
 21
918.457726
 31
0.0
  0
SOLID
  5
44
100
AcDbEntity
  8
0
  6
BYBLOCK
100
AcDbTrace
 10
6490.284201
 20
953.457726
 30
0.0
 11
6495.284201
 21
953.457726
 31
0.0
 12
6492.784201
 22
938.457726
 32
0.0
 13
6492.784201
 23
938.457726
 33
0.0
  0
SOLID
  5
45
100
AcDbEntity
  8
0
  6
BYBLOCK
100
AcDbTrace
 10
6490.284201
 20
903.457726
 30
0.0
 11
6495.284201
 21
903.457726
 31
0.0
 12
6492.784201
 22
918.457726
 32
0.0
 13
6492.784201
 23
918.457726
 33
0.0
  0
POINT
  5
46
100
AcDbEntity
  8
DEFPOINTS
  6
BYBLOCK
 62
     0
100
AcDbPoint
 10
6291.13202
 20
938.457726
 30
0.0
  0
POINT
  5
47
100
AcDbEntity
  8
DEFPOINTS
  6
BYBLOCK
 62
     0
100
AcDbPoint
 10
6303.883204
 20
918.457726
 30
0.0
  0
POINT
  5
48
100
AcDbEntity
  8
DEFPOINTS
  6
BYBLOCK
 62
     0
100
AcDbPoint
 10
6492.784201
 20
918.457726
 30
0.0
  0
ENDBLK
  5
4A
100
AcDbEntity
  8
0
100
AcDbBlockEnd
  0
BLOCK
  5
39
100
AcDbEntity
  8
0
100
AcDbBlockBegin
  2
*D16
 70
     1
 10
0.0
 20
0.0
 30
0.0
  3
*D16
  1

  0
LINE
  5
2E
100
AcDbEntity
  8
0
  6
BYBLOCK
100
AcDbLine
 10
6306.883204
 20
918.457726
 30
0.0
 11
6498.784201
 21
918.457726
 31
0.0
  0
LINE
  5
2F
100
AcDbEntity
  8
0
  6
BYBLOCK
100
AcDbLine
 10
6386.682687
 20
882.457726
 30
0.0
 11
6498.784201
 21
882.457726
 31
0.0
  0
LINE
  5
30
100
AcDbEntity
  8
0
  6
BYBLOCK
100
AcDbLine
 10
6492.784201
 20
933.457726
 30
0.0
 11
6492.784201
 21
948.457726
 31
0.0
  0
LINE
  5
31
100
AcDbEntity
  8
0
  6
BYBLOCK
100
AcDbLine
 10
6492.784201
 20
867.457726
 30
0.0
 11
6492.784201
 21
852.457726
 31
0.0
  0
LINE
  5
32
100
AcDbEntity
  8
0
  6
BYBLOCK
100
AcDbLine
 10
6492.784201
 20
918.457726
 30
0.0
 11
6492.784201
 21
882.457726
 31
0.0
  0
SOLID
  5
33
100
AcDbEntity
  8
0
  6
BYBLOCK
100
AcDbTrace
 10
6490.284201
 20
933.457726
 30
0.0
 11
6495.284201
 21
933.457726
 31
0.0
 12
6492.784201
 22
918.457726
 32
0.0
 13
6492.784201
 23
918.457726
 33
0.0
  0
SOLID
  5
34
100
AcDbEntity
  8
0
  6
BYBLOCK
100
AcDbTrace
 10
6490.284201
 20
867.457726
 30
0.0
 11
6495.284201
 21
867.457726
 31
0.0
 12
6492.784201
 22
882.457726
 32
0.0
 13
6492.784201
 23
882.457726
 33
0.0
  0
MTEXT
  5
35
100
AcDbEntity
  8
0
  6
BYBLOCK
 62
     5
100
AcDbMText
 10
6477.124201
 20
900.457726
 30
0.0
 40
19.32
 41
0.0
 71
     5
 72
     1
  1
\A1;36
 11
0.0
 21
1.0
 31
0.0
  0
POINT
  5
36
100
AcDbEntity
  8
DEFPOINTS
  6
BYBLOCK
 62
     0
100
AcDbPoint
 10
6303.883204
 20
918.457726
 30
0.0
  0
POINT
  5
37
100
AcDbEntity
  8
DEFPOINTS
  6
BYBLOCK
 62
     0
100
AcDbPoint
 10
6383.682687
 20
882.457726
 30
0.0
  0
POINT
  5
38
100
AcDbEntity
  8
DEFPOINTS
  6
BYBLOCK
 62
     0
100
AcDbPoint
 10
6492.784201
 20
882.457726
 30
0.0
  0
ENDBLK
  5
3A
100
AcDbEntity
  8
0
100
AcDbBlockEnd
  0
BLOCK
  5
2A
100
AcDbEntity
  8
0
100
AcDbBlockBegin
  2
*D17
 70
     1
 10
0.0
 20
0.0
 30
0.0
  3
*D17
  1

  0
LINE
  5
20
100
AcDbEntity
  8
0
  6
BYBLOCK
100
AcDbLine
 10
6264.182687
 20
1087.457726
 30
0.0
 11
6567.237947
 21
1087.457726
 31
0.0
  0
LINE
  5
21
100
AcDbEntity
  8
0
  6
BYBLOCK
100
AcDbLine
 10
6386.682687
 20
882.457726
 30
0.0
 11
6567.237947
 21
882.457726
 31
0.0
  0
LINE
  5
22
100
AcDbEntity
  8
0
  6
BYBLOCK
100
AcDbLine
 10
6561.237947
 20
1072.457726
 30
0.0
 11
6561.237947
 21
897.457726
 31
0.0
  0
SOLID
  5
23
100
AcDbEntity
  8
0
  6
BYBLOCK
100
AcDbTrace
 10
6558.737947
 20
1072.457726
 30
0.0
 11
6563.737947
 21
1072.457726
 31
0.0
 12
6561.237947
 22
1087.457726
 32
0.0
 13
6561.237947
 23
1087.457726
 33
0.0
  0
SOLID
  5
24
100
AcDbEntity
  8
0
  6
BYBLOCK
100
AcDbTrace
 10
6558.737947
 20
897.457726
 30
0.0
 11
6563.737947
 21
897.457726
 31
0.0
 12
6561.237947
 22
882.457726
 32
0.0
 13
6561.237947
 23
882.457726
 33
0.0
  0
MTEXT
  5
25
100
AcDbEntity
  8
0
  6
BYBLOCK
 62
     5
100
AcDbMText
 10
6545.577947
 20
984.957726
 30
0.0
 40
19.32
 41
0.0
 71
     5
 72
     1
  1
\A1;205
 11
0.0
 21
1.0
 31
0.0
  0
POINT
  5
26
100
AcDbEntity
  8
DEFPOINTS
  6
BYBLOCK
 62
     0
100
AcDbPoint
 10
6261.182687
 20
1087.457726
 30
0.0
  0
POINT
  5
28
100
AcDbEntity
  8
DEFPOINTS
  6
BYBLOCK
 62
     0
100
AcDbPoint
 10
6383.682687
 20
882.457726
 30
0.0
  0
POINT
  5
29
100
AcDbEntity
  8
DEFPOINTS
  6
BYBLOCK
 62
     0
100
AcDbPoint
 10
6561.237947
 20
882.457726
 30
0.0
  0
ENDBLK
  5
2B
100
AcDbEntity
  8
0
100
AcDbBlockEnd
  0
BLOCK
  5
18C
100
AcDbEntity
  8
0
100
AcDbBlockBegin
  2
*D18
 70
     1
 10
0.0
 20
0.0
 30
0.0
  3
*D18
  1

  0
LINE
  5
181
100
AcDbEntity
  8
0
  6
BYBLOCK
100
AcDbLine
 10
6265.585721
 20
1054.431415
 30
0.0
 11
6255.902831
 21
1127.060908
 31
0.0
  0
LINE
  5
182
100
AcDbEntity
  8
0
  6
BYBLOCK
100
AcDbLine
 10
6285.403097
 20
1057.073447
 30
0.0
 11
6275.720207
 21
1129.70294
 31
0.0
  0
LINE
  5
183
100
AcDbEntity
  8
0
  6
BYBLOCK
100
AcDbLine
 10
6241.827283
 20
1119.131283
 30
0.0
 11
6226.958837
 21
1117.149037
 31
0.0
  0
LINE
  5
184
100
AcDbEntity
  8
0
  6
BYBLOCK
100
AcDbLine
 10
6291.381552
 20
1125.737808
 30
0.0
 11
6306.249999
 21
1127.720054
 31
0.0
  0
LINE
  5
185
100
AcDbEntity
  8
0
  6
BYBLOCK
100
AcDbLine
 10
6256.69573
 20
1121.113529
 30
0.0
 11
6276.513106
 21
1123.755562
 31
0.0
  0
SOLID
  5
186
100
AcDbEntity
  8
0
  6
BYBLOCK
100
AcDbTrace
 10
6241.496909
 20
1121.609358
 30
0.0
 11
6242.157658
 21
1116.653209
 31
0.0
 12
6256.69573
 22
1121.113529
 32
0.0
 13
6256.69573
 23
1121.113529
 33
0.0
  0
SOLID
  5
187
100
AcDbEntity
  8
0
  6
BYBLOCK
100
AcDbTrace
 10
6291.051178
 20
1128.215882
 30
0.0
 11
6291.711926
 21
1123.259734
 31
0.0
 12
6276.513106
 22
1123.755562
 32
0.0
 13
6276.513106
 23
1123.755562
 33
0.0
  0
MTEXT
  5
188
100
AcDbEntity
  8
0
  6
BYBLOCK
 62
     5
100
AcDbMText
 10
6264.534953
 20
1137.957204
 30
0.0
 40
19.32
 41
0.0
 71
     5
 72
     1
  1
\A1;2x10
 11
0.99123
 21
0.13215
 31
0.0
  0
POINT
  5
189
100
AcDbEntity
  8
DEFPOINTS
  6
BYBLOCK
 62
     0
100
AcDbPoint
 10
6265.982171
 20
1051.457726
 30
0.0
  0
POINT
  5
18A
100
AcDbEntity
  8
DEFPOINTS
  6
BYBLOCK
 62
     0
100
AcDbPoint
 10
6285.799546
 20
1054.099758
 30
0.0
  0
POINT
  5
18B
100
AcDbEntity
  8
DEFPOINTS
  6
BYBLOCK
 62
     0
100
AcDbPoint
 10
6276.513106
 20
1123.755562
 30
0.0
  0
ENDBLK
  5
18D
100
AcDbEntity
  8
0
100
AcDbBlockEnd
  0
BLOCK
  5
15C
100
AcDbEntity
  8
0
100
AcDbBlockBegin
  2
*D19
 70
     1
 10
0.0
 20
0.0
 30
0.0
  3
*D19
  1

  0
LINE
  5
151
100
AcDbEntity
  8
0
  6
BYBLOCK
100
AcDbLine
 10
6356.182687
 20
885.457726
 30
0.0
 11
6356.182687
 21
973.298572
 31
0.0
  0
LINE
  5
152
100
AcDbEntity
  8
0
  6
BYBLOCK
100
AcDbLine
 10
6336.182687
 20
885.457726
 30
0.0
 11
6336.182687
 21
973.298572
 31
0.0
  0
LINE
  5
153
100
AcDbEntity
  8
0
  6
BYBLOCK
100
AcDbLine
 10
6371.182687
 20
967.298572
 30
0.0
 11
6386.182687
 21
967.298572
 31
0.0
  0
LINE
  5
154
100
AcDbEntity
  8
0
  6
BYBLOCK
100
AcDbLine
 10
6321.182687
 20
967.298572
 30
0.0
 11
6306.182687
 21
967.298572
 31
0.0
  0
LINE
  5
155
100
AcDbEntity
  8
0
  6
BYBLOCK
100
AcDbLine
 10
6356.182687
 20
967.298572
 30
0.0
 11
6336.182687
 21
967.298572
 31
0.0
  0
SOLID
  5
156
100
AcDbEntity
  8
0
  6
BYBLOCK
100
AcDbTrace
 10
6371.182687
 20
969.798572
 30
0.0
 11
6371.182687
 21
964.798572
 31
0.0
 12
6356.182687
 22
967.298572
 32
0.0
 13
6356.182687
 23
967.298572
 33
0.0
  0
SOLID
  5
157
100
AcDbEntity
  8
0
  6
BYBLOCK
100
AcDbTrace
 10
6321.182687
 20
969.798572
 30
0.0
 11
6321.182687
 21
964.798572
 31
0.0
 12
6336.182687
 22
967.298572
 32
0.0
 13
6336.182687
 23
967.298572
 33
0.0
  0
MTEXT
  5
158
100
AcDbEntity
  8
0
  6
BYBLOCK
 62
     5
100
AcDbMText
 10
6346.182687
 20
982.958572
 30
0.0
 40
19.32
 41
0.0
 71
     5
 72
     1
  1
\A1;20
  0
POINT
  5
159
100
AcDbEntity
  8
DEFPOINTS
  6
BYBLOCK
 62
     0
100
AcDbPoint
 10
6356.182687
 20
882.457726
 30
0.0
  0
POINT
  5
15A
100
AcDbEntity
  8
DEFPOINTS
  6
BYBLOCK
 62
     0
100
AcDbPoint
 10
6336.182687
 20
882.457726
 30
0.0
  0
POINT
  5
15B
100
AcDbEntity
  8
DEFPOINTS
  6
BYBLOCK
 62
     0
100
AcDbPoint
 10
6336.182687
 20
967.298572
 30
0.0
  0
ENDBLK
  5
15D
100
AcDbEntity
  8
0
100
AcDbBlockEnd
  0
BLOCK
  5
D0
100
AcDbEntity
  8
0
100
AcDbBlockBegin
  2
*D20
 70
     1
 10
0.0
 20
0.0
 30
0.0
  3
*D20
  1

  0
LINE
  5
C5
100
AcDbEntity
  8
0
  6
BYBLOCK
100
AcDbLine
 10
6065.594358
 20
918.457726
 30
0.0
 11
6143.164573
 21
918.457726
 31
0.0
  0
LINE
  5
C6
100
AcDbEntity
  8
0
  6
BYBLOCK
100
AcDbLine
 10
6027.846133
 20
940.98734
 30
0.0
 11
6083.198501
 21
1027.80652
 31
0.0
  0
ARC
  5
C7
100
AcDbEntity
  8
0
  6
BYBLOCK
100
AcDbCircle
 10
6013.482171
 20
918.457726
 30
0.0
 40
123.682402
100
AcDbArc
 50
6.953004
 51
50.527073
  0
SOLID
  5
C8
100
AcDbEntity
  8
0
  6
BYBLOCK
100
AcDbTrace
 10
6138.750385
 20
933.58172
 30
0.0
 11
6133.759586
 21
933.278524
 31
0.0
 12
6137.164573
 22
918.457726
 32
0.0
 13
6137.164573
 23
918.457726
 33
0.0
  0
SOLID
  5
C9
100
AcDbEntity
  8
0
  6
BYBLOCK
100
AcDbTrace
 10
6090.639412
 20
1011.908637
 30
0.0
 11
6093.578086
 21
1015.953905
 31
0.0
 12
6079.972944
 22
1022.747293
 32
0.0
 13
6079.972944
 23
1022.747293
 33
0.0
  0
MTEXT
  5
CA
100
AcDbEntity
  8
0
  6
BYBLOCK
 62
     5
100
AcDbMText
 10
6137.272364
 20
986.343355
 30
0.0
 40
19.32
 41
0.0
 71
     5
 72
     1
  1
\A1;57,48°
 11
0.480836
 21
-0.87681
 31
0.0
  0
POINT
  5
CB
100
AcDbEntity
  8
DEFPOINTS
  6
BYBLOCK
 62
     0
100
AcDbPoint
 10
6130.313259
 20
959.051242
 30
0.0
  0
POINT
  5
CC
100
AcDbEntity
  8
DEFPOINTS
  6
BYBLOCK
 62
     0
100
AcDbPoint
 10
6013.482171
 20
918.457726
 30
0.0
  0
POINT
  5
CD
100
AcDbEntity
  8
DEFPOINTS
  6
BYBLOCK
 62
     0
100
AcDbPoint
 10
6013.482171
 20
918.457726
 30
0.0
  0
POINT
  5
CE
100
AcDbEntity
  8
DEFPOINTS
  6
BYBLOCK
 62
     0
100
AcDbPoint
 10
6062.594358
 20
918.457726
 30
0.0
  0
POINT
  5
CF
100
AcDbEntity
  8
DEFPOINTS
  6
BYBLOCK
 62
     0
100
AcDbPoint
 10
6026.233355
 20
938.457726
 30
0.0
  0
ENDBLK
  5
D1
100
AcDbEntity
  8
0
100
AcDbBlockEnd
  0
BLOCK
  5
C1
100
AcDbEntity
  8
0
100
AcDbBlockBegin
  2
*D21
 70
     1
 10
0.0
 20
0.0
 30
0.0
  3
*D21
  1

  0
LINE
  5
B6
100
AcDbEntity
  8
0
  6
BYBLOCK
100
AcDbLine
 10
6011.682687
 20
882.457726
 30
0.0
 11
6208.461734
 21
882.457726
 31
0.0
  0
LINE
  5
B7
100
AcDbEntity
  8
0
  6
BYBLOCK
100
AcDbLine
 10
6013.87862
 20
921.431415
 30
0.0
 11
6035.083437
 21
1080.484663
 31
0.0
  0
ARC
  5
B8
100
AcDbEntity
  8
0
  6
BYBLOCK
100
AcDbCircle
 10
6008.682687
 20
882.457726
 30
0.0
 40
193.779047
100
AcDbArc
 50
4.436245
 51
77.969919
  0
SOLID
  5
B9
100
AcDbEntity
  8
0
  6
BYBLOCK
100
AcDbTrace
 10
6204.379303
 20
897.543246
 30
0.0
 11
6199.383049
 21
897.349727
 31
0.0
 12
6202.461734
 22
882.457726
 32
0.0
 13
6202.461734
 23
882.457726
 33
0.0
  0
SOLID
  5
BA
100
AcDbEntity
  8
0
  6
BYBLOCK
100
AcDbTrace
 10
6048.645086
 20
1069.517626
 30
0.0
 11
6049.497162
 21
1074.444488
 31
0.0
 12
6034.290538
 22
1074.537284
 32
0.0
 13
6034.290538
 23
1074.537284
 33
0.0
  0
MTEXT
  5
BB
100
AcDbEntity
  8
0
  6
BYBLOCK
 62
     5
100
AcDbMText
 10
6167.644705
 20
1021.633559
 30
0.0
 40
19.32
 41
0.0
 71
     5
 72
     1
  1
\A1;82,41°
 11
0.65873
 21
-0.752379
 31
0.0
  0
POINT
  5
BC
100
AcDbEntity
  8
DEFPOINTS
  6
BYBLOCK
 62
     0
100
AcDbPoint
 10
6180.615622
 20
971.841085
 30
0.0
  0
POINT
  5
BD
100
AcDbEntity
  8
DEFPOINTS
  6
BYBLOCK
 62
     0
100
AcDbPoint
 10
6008.682687
 20
882.457726
 30
0.0
  0
POINT
  5
BE
100
AcDbEntity
  8
DEFPOINTS
  6
BYBLOCK
 62
     0
100
AcDbPoint
 10
5981.182687
 20
882.457726
 30
0.0
  0
POINT
  5
BF
100
AcDbEntity
  8
DEFPOINTS
  6
BYBLOCK
 62
     0
100
AcDbPoint
 10
6008.682687
 20
882.457726
 30
0.0
  0
POINT
  5
C0
100
AcDbEntity
  8
DEFPOINTS
  6
BYBLOCK
 62
     0
100
AcDbPoint
 10
6013.482171
 20
918.457726
 30
0.0
  0
ENDBLK
  5
C2
100
AcDbEntity
  8
0
100
AcDbBlockEnd
  0
BLOCK
  5
16F
100
AcDbEntity
  8
0
100
AcDbBlockBegin
  2
*D22
 70
     1
 10
0.0
 20
0.0
 30
0.0
  3
*D22
  1

  0
LINE
  5
163
100
AcDbEntity
  8
0
  6
BYBLOCK
100
AcDbLine
 10
6349.182687
 20
892.457726
 30
0.0
 11
6450.539576
 21
892.457726
 31
0.0
  0
LINE
  5
164
100
AcDbEntity
  8
0
  6
BYBLOCK
100
AcDbLine
 10
6386.682687
 20
882.457726
 30
0.0
 11
6450.539576
 21
882.457726
 31
0.0
  0
LINE
  5
165
100
AcDbEntity
  8
0
  6
BYBLOCK
100
AcDbLine
 10
6444.539576
 20
907.457726
 30
0.0
 11
6444.539576
 21
922.457726
 31
0.0
  0
LINE
  5
166
100
AcDbEntity
  8
0
  6
BYBLOCK
100
AcDbLine
 10
6444.539576
 20
867.457726
 30
0.0
 11
6444.539576
 21
852.457726
 31
0.0
  0
MTEXT
  5
167
100
AcDbEntity
  8
0
  6
BYBLOCK
 62
     5
100
AcDbMText
 10
6428.789576
 20
863.220852
 30
0.0
 40
19.32
 41
0.0
 71
     5
 72
     1
  1
\A1;10
 11
0.0
 21
1.0
 31
0.0
  0
LINE
  5
168
100
AcDbEntity
  8
0
  6
BYBLOCK
100
AcDbLine
 10
6444.539576
 20
892.457726
 30
0.0
 11
6444.539576
 21
882.457726
 31
0.0
  0
LINE
  5
169
100
AcDbEntity
  8
0
  6
BYBLOCK
100
AcDbLine
 10
6444.539576
 20
892.457726
 30
0.0
 11
6444.539576
 21
882.457726
 31
0.0
  0
SOLID
  5
16A
100
AcDbEntity
  8
0
  6
BYBLOCK
100
AcDbTrace
 10
6442.039576
 20
907.457726
 30
0.0
 11
6447.039576
 21
907.457726
 31
0.0
 12
6444.539576
 22
892.457726
 32
0.0
 13
6444.539576
 23
892.457726
 33
0.0
  0
SOLID
  5
16B
100
AcDbEntity
  8
0
  6
BYBLOCK
100
AcDbTrace
 10
6442.039576
 20
867.457726
 30
0.0
 11
6447.039576
 21
867.457726
 31
0.0
 12
6444.539576
 22
882.457726
 32
0.0
 13
6444.539576
 23
882.457726
 33
0.0
  0
POINT
  5
16C
100
AcDbEntity
  8
DEFPOINTS
  6
BYBLOCK
 62
     0
100
AcDbPoint
 10
6346.182687
 20
892.457726
 30
0.0
  0
POINT
  5
16D
100
AcDbEntity
  8
DEFPOINTS
  6
BYBLOCK
 62
     0
100
AcDbPoint
 10
6383.682687
 20
882.457726
 30
0.0
  0
POINT
  5
16E
100
AcDbEntity
  8
DEFPOINTS
  6
BYBLOCK
 62
     0
100
AcDbPoint
 10
6444.539576
 20
882.457726
 30
0.0
  0
ENDBLK
  5
170
100
AcDbEntity
  8
0
100
AcDbBlockEnd
  0
BLOCK
  5
17D
100
AcDbEntity
  8
0
100
AcDbBlockBegin
  2
*D23
 70
     1
 10
0.0
 20
0.0
 30
0.0
  3
*D23
  1

  0
LINE
  5
173
100
AcDbEntity
  8
0
  6
BYBLOCK
100
AcDbLine
 10
6260.786238
 20
1090.431415
 30
0.0
 11
6255.902831
 21
1127.060908
 31
0.0
  0
LINE
  5
174
100
AcDbEntity
  8
0
  6
BYBLOCK
100
AcDbLine
 10
6270.694926
 20
1091.752431
 30
0.0
 11
6265.811519
 21
1128.381924
 31
0.0
  0
LINE
  5
175
100
AcDbEntity
  8
0
  6
BYBLOCK
100
AcDbLine
 10
6241.827283
 20
1119.131283
 30
0.0
 11
6226.958837
 21
1117.149037
 31
0.0
  0
LINE
  5
176
100
AcDbEntity
  8
0
  6
BYBLOCK
100
AcDbLine
 10
6281.472864
 20
1124.416792
 30
0.0
 11
6296.341311
 21
1126.399038
 31
0.0
  0
LINE
  5
177
100
AcDbEntity
  8
0
  6
BYBLOCK
100
AcDbLine
 10
6256.69573
 20
1121.113529
 30
0.0
 11
6266.604418
 21
1122.434546
 31
0.0
  0
SOLID
  5
178
100
AcDbEntity
  8
0
  6
BYBLOCK
100
AcDbTrace
 10
6241.496909
 20
1121.609358
 30
0.0
 11
6242.157658
 21
1116.653209
 31
0.0
 12
6256.69573
 22
1121.113529
 32
0.0
 13
6256.69573
 23
1121.113529
 33
0.0
  0
SOLID
  5
179
100
AcDbEntity
  8
0
  6
BYBLOCK
100
AcDbTrace
 10
6281.14249
 20
1126.894866
 30
0.0
 11
6281.803239
 21
1121.938717
 31
0.0
 12
6266.604418
 22
1122.434546
 32
0.0
 13
6266.604418
 23
1122.434546
 33
0.0
  0
POINT
  5
17A
100
AcDbEntity
  8
DEFPOINTS
  6
BYBLOCK
 62
     0
100
AcDbPoint
 10
6261.182687
 20
1087.457726
 30
0.0
  0
POINT
  5
17B
100
AcDbEntity
  8
DEFPOINTS
  6
BYBLOCK
 62
     0
100
AcDbPoint
 10
6271.091375
 20
1088.778742
 30
0.0
  0
POINT
  5
17C
100
AcDbEntity
  8
DEFPOINTS
  6
BYBLOCK
 62
     0
100
AcDbPoint
 10
6266.604418
 20
1122.434546
 30
0.0
  0
ENDBLK
  5
17E
100
AcDbEntity
  8
0
100
AcDbBlockEnd
  0
ENDSEC
  0
SECTION
  2
ENTITIES
  0
DIMENSION
  5
1E
100
AcDbEntity
  8
KOTY-UPLNE
100
AcDbDimension
  2
*D17
 10
1117.910557
 20
-354.884928
 30
0.0
 11
1102.250557
 21
-252.384928
 31
0.0
 12
-5443.32739
 22
-1237.342654
 32
0.0
  3
UPLNE
100
AcDbAlignedDimension
 13
817.855297
 23
-149.884928
 33
0.0
 14
940.355297
 24
-354.884928
 34
0.0
 50
90.0
100
AcDbRotatedDimension
1001
ACAD
1000
DSTYLE
1002
{
1070
    40
1040
3.0
1070
   147
1040
2.0
1002
}
  0
DIMENSION
  5
2C
100
AcDbEntity
  8
KOTY-UPLNE
100
AcDbDimension
  2
*D16
 10
1049.45681
 20
-354.884928
 30
0.0
 11
1033.79681
 21
-336.884928
 31
0.0
 12
-5443.32739
 22
-1237.342654
 32
0.0
  3
UPLNE
100
AcDbAlignedDimension
 13
860.555814
 23
-318.884928
 33
0.0
 14
940.355297
 24
-354.884928
 34
0.0
 50
90.0
100
AcDbRotatedDimension
1001
ACAD
1000
DSTYLE
1002
{
1070
    40
1040
3.0
1070
   147
1040
2.0
1002
}
  0
DIMENSION
  5
3B
100
AcDbEntity
  8
KOTY-UPLNE
100
AcDbDimension
  2
*D15
 10
1049.45681
 20
-318.884928
 30
0.0
 11
1071.138699
 21
-308.884928
 31
0.0
 12
-5443.32739
 22
-1237.342654
 32
0.0
 70
   128
  3
UPLNE
100
AcDbAlignedDimension
 13
847.80463
 23
-298.884928
 33
0.0
 14
860.555814
 24
-318.884928
 34
0.0
 50
90.0
100
AcDbRotatedDimension
1001
ACAD
1000
DSTYLE
1002
{
1070
    40
1040
3.0
1070
   147
1040
2.0
1002
}
  0
DIMENSION
  5
4B
100
AcDbEntity
  8
KOTY-UPLNE
100
AcDbDimension
  2
*D14
 10
1049.45681
 20
-298.884928
 30
0.0
 11
1033.79681
 21
-252.384928
 31
0.0
 12
-5443.32739
 22
-1237.342654
 32
0.0
  3
UPLNE
100
AcDbAlignedDimension
 13
835.405965
 23
-205.884928
 33
0.0
 14
847.80463
 24
-298.884928
 34
0.0
 50
90.0
100
AcDbRotatedDimension
1001
ACAD
1000
DSTYLE
1002
{
1070
    40
1040
3.0
1070
   147
1040
2.0
1002
}
  0
DIMENSION
  5
58
100
AcDbEntity
  8
KOTY-UPLNE
100
AcDbDimension
  2
*D13
 10
1049.45681
 20
-205.884928
 30
0.0
 11
1071.138699
 21
-195.884928
 31
0.0
 12
-5443.32739
 22
-1237.342654
 32
0.0
 70
   128
  3
UPLNE
100
AcDbAlignedDimension
 13
822.65478
 23
-185.884928
 33
0.0
 14
835.405965
 24
-205.884928
 34
0.0
 50
90.0
100
AcDbRotatedDimension
1001
ACAD
1000
DSTYLE
1002
{
1070
    40
1040
3.0
1070
   147
1040
2.0
1002
}
  0
DIMENSION
  5
68
100
AcDbEntity
  8
KOTY-UPLNE
100
AcDbDimension
  2
*D12
 10
1049.45681
 20
-185.884928
 30
0.0
 11
1033.79681
 21
-167.884928
 31
0.0
 12
-5443.32739
 22
-1237.342654
 32
0.0
  3
UPLNE
100
AcDbAlignedDimension
 13
817.855297
 23
-149.884928
 33
0.0
 14
822.65478
 24
-185.884928
 34
0.0
 50
90.0
100
AcDbRotatedDimension
1001
ACAD
1000
DSTYLE
1002
{
1070
    40
1040
3.0
1070
   147
1040
2.0
1002
}
  0
LWPOLYLINE
  5
77
100
AcDbEntity
  8
RAMEC
100
AcDbPolyline
 90
        4
 70
     1
 43
0.0
 10
0.0
 20
0.0
 10
0.0
 20
-524.001233
 10
1349.672502
 20
-524.001233
 10
1349.672502
 20
0.0
  0
DIMENSION
  5
79
100
AcDbEntity
  8
KOTY-UPLNE
100
AcDbDimension
  2
*D11
 10
902.855297
 20
-474.884928
 30
0.0
 11
527.855297
 21
-459.224928
 31
0.0
 12
-5443.32739
 22
-1237.342654
 32
0.0
  3
UPLNE
100
AcDbAlignedDimension
 13
152.855297
 23
-344.884928
 33
0.0
 14
902.855297
 24
-344.884928
 34
0.0
100
AcDbRotatedDimension
1001
ACAD
1000
DSTYLE
1002
{
1070
    40
1040
3.0
1070
   147
1040
2.0
1002
}
  0
DIMENSION
  5
86
100
AcDbEntity
  8
KOTY-UPLNE
100
AcDbDimension
  2
*D10
 10
527.855297
 20
-414.884928
 30
0.0
 11
340.355297
 21
-399.224928
 31
0.0
 12
-5443.32739
 22
-1237.342654
 32
0.0
  3
UPLNE
100
AcDbAlignedDimension
 13
152.855297
 23
-344.884928
 33
0.0
 14
527.855297
 24
-344.884928
 34
0.0
100
AcDbRotatedDimension
1001
ACAD
1000
DSTYLE
1002
{
1070
    40
1040
3.0
1070
   147
1040
2.0
1002
}
  0
DIMENSION
  5
93
100
AcDbEntity
  8
KOTY-UPLNE
100
AcDbDimension
  2
*D6
 10
237.855297
 20
-107.587163
 30
0.0
 11
214.105297
 21
-90.087163
 31
0.0
 12
-5443.32739
 22
-1237.342654
 32
0.0
  1
47,5
  3
UPLNE
100
AcDbAlignedDimension
 13
190.355297
 23
-354.884928
 33
0.0
 14
237.855297
 24
-149.884928
 34
0.0
100
AcDbRotatedDimension
1001
ACAD
1000
DSTYLE
1002
{
1070
    40
1040
3.0
1070
   147
1040
2.0
1002
}
  0
DIMENSION
  5
A2
100
AcDbEntity
  8
KOTY-UPLNE
100
AcDbDimension
  2
*D0
 10
257.855297
 20
-354.884928
 30
0.0
 11
221.173302
 21
-339.134928
 31
0.0
 12
-5443.32739
 22
-1237.342654
 32
0.0
 70
   128
  3
UPLNE
100
AcDbAlignedDimension
 13
237.855297
 23
-149.884928
 33
0.0
 14
257.855297
 24
-149.884928
 34
0.0
100
AcDbRotatedDimension
1001
ACAD
1000
DSTYLE
1002
{
1070
    40
1040
3.0
1070
   147
1040
2.0
1002
}
  0
LWPOLYLINE
  5
B2
100
AcDbEntity
  8
TRAPEZ-VELKY
100
AcDbPolyline
 90
       93
 70
     0
 43
5.0
 10
152.855297
 20
-344.884928
 42
-0.198912
 10
157.097938
 20
-346.642287
 10
161.064222
 20
-352.320698
 42
0.245005
 10
165.983112
 20
-354.884928
 10
185.102124
 20
-354.884928
 42
0.375906
 10
191.049503
 20
-349.677827
 10
194.979536
 20
-320.199406
 42
-0.109191
 10
195.867687
 20
-317.766748
 10
207.193058
 20
-300.003109
 42
0.109191
 10
208.081209
 20
-297.57045
 10
220.129385
 20
-207.199406
 42
-0.109191
 10
221.017536
 20
-204.766748
 10
232.342908
 20
-187.003109
 42
0.109191
 10
233.231059
 20
-184.57045
 10
237.161092
 20
-155.09203
 42
-0.375906
 10
243.10847
 20
-149.884928
 10
255.383433
 20
-149.884928
 42
-0.19792
 10
259.609834
 20
-151.62611
 10
266.128896
 20
-158.09555
 42
0.411977
 10
274.581698
 20
-158.09555
 10
281.10076
 20
-151.62611
 42
-0.19792
 10
285.327161
 20
-149.884928
 10
395.383433
 20
-149.884928
 42
-0.19792
 10
399.609834
 20
-151.62611
 10
406.128896
 20
-158.09555
 42
0.411977
 10
414.581698
 20
-158.09555
 10
421.10076
 20
-151.62611
 42
-0.19792
 10
425.327162
 20
-149.884928
 10
437.602124
 20
-149.884928
 42
-0.375906
 10
443.549503
 20
-155.09203
 10
447.479536
 20
-184.57045
 42
0.109191
 10
448.367687
 20
-187.003109
 10
459.693058
 20
-204.766748
 42
-0.109191
 10
460.581209
 20
-207.199406
 10
472.629385
 20
-297.57045
 42
0.109191
 10
473.517536
 20
-300.003109
 10
484.842908
 20
-317.766748
 42
-0.109191
 10
485.731059
 20
-320.199406
 10
489.661092
 20
-349.677827
 42
0.375906
 10
495.60847
 20
-354.884928
 10
514.727482
 20
-354.884928
 42
0.245005
 10
519.646373
 20
-352.320698
 10
522.936407
 20
-347.610454
 42
-0.521302
 10
532.774188
 20
-347.610454
 10
536.064222
 20
-352.320698
 42
0.245005
 10
540.983112
 20
-354.884928
 10
560.102124
 20
-354.884928
 42
0.375906
 10
566.049503
 20
-349.677827
 10
569.979536
 20
-320.199406
 42
-0.109191
 10
570.867687
 20
-317.766748
 10
582.193058
 20
-300.003109
 42
0.109191
 10
583.081209
 20
-297.57045
 10
595.129385
 20
-207.199406
 42
-0.109191
 10
596.017536
 20
-204.766748
 10
607.342908
 20
-187.003109
 42
0.109191
 10
608.231059
 20
-184.57045
 10
612.161092
 20
-155.09203
 42
-0.375906
 10
618.10847
 20
-149.884928
 10
630.383433
 20
-149.884928
 42
-0.19792
 10
634.609834
 20
-151.62611
 10
641.128896
 20
-158.09555
 42
0.411977
 10
649.581698
 20
-158.09555
 10
656.10076
 20
-151.62611
 42
-0.19792
 10
660.327161
 20
-149.884928
 10
770.383433
 20
-149.884928
 42
-0.19792
 10
774.609834
 20
-151.62611
 10
781.128896
 20
-158.09555
 42
0.411977
 10
789.581698
 20
-158.09555
 10
796.10076
 20
-151.62611
 42
-0.19792
 10
800.327162
 20
-149.884928
 10
812.602124
 20
-149.884928
 42
-0.375906
 10
818.549503
 20
-155.09203
 10
822.479536
 20
-184.57045
 42
0.109191
 10
823.367687
 20
-187.003109
 10
834.693058
 20
-204.766748
 42
-0.109191
 10
835.581209
 20
-207.199406
 10
847.629385
 20
-297.57045
 42
0.109191
 10
848.517536
 20
-300.003109
 10
859.842908
 20
-317.766748
 42
-0.109191
 10
860.731059
 20
-320.199406
 10
864.661092
 20
-349.677827
 42
0.375906
 10
870.60847
 20
-354.884928
 10
889.727482
 20
-354.884928
 42
0.245005
 10
894.646373
 20
-352.320698
 10
897.936407
 20
-347.610454
 42
-0.521302
 10
907.774188
 20
-347.610454
 10
911.064222
 20
-352.320698
 42
0.245005
 10
915.983112
 20
-354.884928
 10
935.102124
 20
-354.884928
 42
0.375906
 10
941.049503
 20
-349.677827
 10
941.653931
 20
-345.144123
 42
-0.108232
 10
942.529887
 20
-342.730673
 10
947.918556
 20
-334.207514
  0
DIMENSION
  5
B4
100
AcDbEntity
  8
KOTY-UPLNE
100
AcDbDimension
  2
*D21
 10
570.15478
 20
-318.884928
 30
0.0
 11
724.317315
 21
-215.709095
 31
0.0
 12
-5443.32739
 22
-1237.342654
 32
0.0
 70
     2
  1
82,41%%d
  3
UPLNE
100
AcDb2LineAngularDimension
 13
537.855297
 23
-354.884928
 33
0.0
 14
565.355297
 24
-354.884928
 34
0.0
 15
565.355297
 25
-354.884928
 35
0.0
 16
737.288232
 26
-265.501569
 36
0.0
1001
ACAD
1000
DSTYLE
1002
{
1070
    40
1040
3.0
1070
   147
1040
2.0
1002
}
  0
DIMENSION
  5
C3
100
AcDbEntity
  8
KOTY-UPLNE
100
AcDbDimension
  2
*D20
 10
582.905965
 20
-298.884928
 30
0.0
 11
693.944974
 21
-250.999299
 31
0.0
 12
-5443.32739
 22
-1237.342654
 32
0.0
 70
     2
  1
57,48%%d
  3
UPLNE
100
AcDb2LineAngularDimension
 13
570.15478
 23
-318.884928
 33
0.0
 14
619.266968
 24
-318.884928
 34
0.0
 15
570.15478
 25
-318.884928
 35
0.0
 16
686.985868
 26
-278.291412
 36
0.0
1001
ACAD
1000
DSTYLE
1002
{
1070
    40
1040
3.0
1070
   147
1040
2.0
1002
}
  0
MTEXT
  5
D2
100
AcDbEntity
  8
POPIS
100
AcDbMText
 10
661.730741
 20
-42.124031
 30
0.0
 40
40.0
 41
1.0
 71
     5
 72
     1
  1
TR 200/375
  7
STYLE1
  0
DIMENSION
  5
D5
100
AcDbEntity
  8
KOTY-UPLNE
100
AcDbDimension
  2
*D9
 10
565.355297
 20
-107.587163
 30
0.0
 11
527.855297
 21
-91.927163
 31
0.0
 12
-5443.32739
 22
-1237.342654
 32
0.0
  3
UPLNE
100
AcDbAlignedDimension
 13
490.355297
 23
-354.884928
 33
0.0
 14
565.355297
 24
-354.884928
 34
0.0
100
AcDbRotatedDimension
1001
ACAD
1000
DSTYLE
1002
{
1070
    40
1040
3.0
1070
   147
1040
2.0
1002
}
  0
DIMENSION
  5
E2
100
AcDbEntity
  8
KOTY-UPLNE
100
AcDbDimension
  2
*D8
 10
490.355297
 20
-107.587163
 30
0.0
 11
466.605297
 21
-90.087163
 31
0.0
 12
-5443.32739
 22
-1237.342654
 32
0.0
  1
47,5
  3
UPLNE
100
AcDbAlignedDimension
 13
442.855297
 23
-149.884928
 33
0.0
 14
490.355297
 24
-354.884928
 34
0.0
100
AcDbRotatedDimension
1001
ACAD
1000
DSTYLE
1002
{
1070
    40
1040
3.0
1070
   147
1040
2.0
1002
}
  0
DIMENSION
  5
F1
100
AcDbEntity
  8
KOTY-UPLNE
100
AcDbDimension
  2
*D4
 10
442.855297
 20
-354.884928
 30
0.0
 11
460.755585
 21
-339.134928
 31
0.0
 12
-5443.32739
 22
-1237.342654
 32
0.0
 70
   128
  3
UPLNE
100
AcDbAlignedDimension
 13
422.855297
 23
-149.884928
 33
0.0
 14
442.855297
 24
-149.884928
 34
0.0
100
AcDbRotatedDimension
1001
ACAD
1000
DSTYLE
1002
{
1070
    40
1040
3.0
1070
   147
1040
2.0
1002
}
  0
DIMENSION
  5
101
100
AcDbEntity
  8
KOTY-UPLNE
100
AcDbDimension
  2
*D3
 10
422.855297
 20
-354.884928
 30
0.0
 11
410.355297
 21
-373.560582
 31
0.0
 12
-5443.32739
 22
-1237.342654
 32
0.0
 70
   128
  3
UPLNE
100
AcDbAlignedDimension
 13
397.855297
 23
-149.884928
 33
0.0
 14
422.855297
 24
-149.884928
 34
0.0
100
AcDbRotatedDimension
1001
ACAD
1000
DSTYLE
1002
{
1070
    40
1040
3.0
1070
   147
1040
2.0
1002
}
  0
DIMENSION
  5
111
100
AcDbEntity
  8
KOTY-UPLNE
100
AcDbDimension
  2
*D2
 10
397.855297
 20
-354.884928
 30
0.0
 11
340.355297
 21
-339.224928
 31
0.0
 12
-5443.32739
 22
-1237.342654
 32
0.0
  3
UPLNE
100
AcDbAlignedDimension
 13
282.855297
 23
-149.884928
 33
0.0
 14
397.855297
 24
-149.884928
 34
0.0
100
AcDbRotatedDimension
1001
ACAD
1000
DSTYLE
1002
{
1070
    40
1040
3.0
1070
   147
1040
2.0
1002
}
  0
DIMENSION
  5
11E
100
AcDbEntity
  8
KOTY-UPLNE
100
AcDbDimension
  2
*D1
 10
282.855297
 20
-354.884928
 30
0.0
 11
270.355297
 21
-374.228685
 31
0.0
 12
-5443.32739
 22
-1237.342654
 32
0.0
 70
   128
  3
UPLNE
100
AcDbAlignedDimension
 13
257.855297
 23
-149.884928
 33
0.0
 14
282.855297
 24
-149.884928
 34
0.0
100
AcDbRotatedDimension
1001
ACAD
1000
DSTYLE
1002
{
1070
    40
1040
3.0
1070
   147
1040
2.0
1002
}
  0
LINE
  5
12E
100
AcDbEntity
  8
KOTY-UPLNE
100
AcDbLine
 10
570.15478
 20
-318.884928
 30
0.0
 11
619.266968
 21
-318.884928
 31
0.0
  0
DIMENSION
  5
12F
100
AcDbEntity
  8
KOTY-UPLNE
100
AcDbDimension
  2
*D7
 10
442.855297
 20
-107.587163
 30
0.0
 11
340.355297
 21
-91.927163
 31
0.0
 12
-5443.32739
 22
-1237.342654
 32
0.0
  3
UPLNE
100
AcDbAlignedDimension
 13
237.855297
 23
-149.884928
 33
0.0
 14
442.855297
 24
-149.884928
 34
0.0
100
AcDbRotatedDimension
1001
ACAD
1000
DSTYLE
1002
{
1070
    40
1040
3.0
1070
   147
1040
2.0
1002
}
  0
DIMENSION
  5
13C
100
AcDbEntity
  8
KOTY-UPLNE
100
AcDbDimension
  2
*D5
 10
474.99277
 20
-149.884928
 30
0.0
 11
459.24277
 21
-131.906265
 31
0.0
 12
-5443.32739
 22
-1237.342654
 32
0.0
 70
   128
  3
UPLNE
100
AcDbAlignedDimension
 13
410.355297
 23
-159.884928
 33
0.0
 14
442.855297
 24
-149.884928
 34
0.0
 50
90.0
100
AcDbRotatedDimension
1001
ACAD
1000
DSTYLE
1002
{
1070
    40
1040
3.0
1070
   147
1040
2.0
1002
}
  0
LWPOLYLINE
  5
14C
100
AcDbEntity
  8
TRAPEZ-VELKY
100
AcDbPolyline
 90
        6
 70
     0
 43
5.0
 10
278.764196
 20
-153.944889
 10
291.660809
 20
-162.944367
 42
0.07532
 10
293.438021
 20
-163.213615
 10
387.272573
 20
-163.213615
 42
0.07532
 10
389.049785
 20
-162.944367
 10
401.946399
 20
-153.944889
  0
MTEXT
  5
14D
100
AcDbEntity
  8
POZICE
100
AcDbMText
 10
520.674546
 20
-202.414636
 30
0.0
 40
41.73
 41
1.0
 71
     5
 72
     1
  1
A
  7
STYLE1
  0
DIMENSION
  5
14F
100
AcDbEntity
  8
KOTY-UPLNE
100
AcDbDimension
  2
*D19
 10
892.855297
 20
-270.044082
 30
0.0
 11
902.855297
 21
-254.384082
 31
0.0
 12
-5443.32739
 22
-1237.342654
 32
0.0
  3
UPLNE
100
AcDbAlignedDimension
 13
912.855297
 23
-354.884928
 33
0.0
 14
892.855297
 24
-354.884928
 34
0.0
100
AcDbRotatedDimension
1001
ACAD
1000
DSTYLE
1002
{
1070
    40
1040
3.0
1070
   147
1040
2.0
1002
}
  0
LINE
  5
15E
100
AcDbEntity
  8
KOTY-UPLNE
100
AcDbLine
 10
822.484129
 20
-108.96073
 30
0.0
 11
847.80463
 21
-298.884928
 31
0.0
  0
LINE
  5
15F
100
AcDbEntity
  8
KOTY-UPLNE
100
AcDbLine
 10
832.392817
 20
-107.639713
 30
0.0
 11
860.555814
 21
-318.884928
 31
0.0
  0
MTEXT
  5
160
100
AcDbEntity
  8
POZICE
100
AcDbMText
 10
657.245512
 20
-391.614601
 30
0.0
 40
41.73
 41
1.0
 71
     5
 72
     1
  1
B
  7
STYLE1
  0
DIMENSION
  5
161
100
AcDbEntity
  8
KOTY-UPLNE
100
AcDbDimension
  2
*D22
 10
1001.212185
 20
-354.884928
 30
0.0
 11
985.462185
 21
-374.121802
 31
0.0
 12
-5443.32739
 22
-1237.342654
 32
0.0
 70
   128
  3
UPLNE
100
AcDbAlignedDimension
 13
902.855297
 23
-344.884928
 33
0.0
 14
940.355297
 24
-354.884928
 34
0.0
 50
90.0
100
AcDbRotatedDimension
1001
ACAD
1000
DSTYLE
1002
{
1070
    40
1040
3.0
1070
   147
1040
2.0
1002
}
  0
DIMENSION
  5
171
100
AcDbEntity
  8
KOTY-UPLNE
100
AcDbDimension
  2
*D23
 10
823.277028
 20
-114.908108
 30
0.0
 11
818.322684
 21
-115.568616
 31
0.0
 12
-5443.32739
 22
-1237.342654
 32
0.0
 70
     1
  1
 
  3
UPLNE
100
AcDbAlignedDimension
 13
817.855297
 23
-149.884928
 33
0.0
 14
827.763985
 24
-148.563912
 34
0.0
1001
ACAD
1000
DSTYLE
1002
{
1070
    40
1040
3.0
1070
   147
1040
2.0
1002
}
  0
DIMENSION
  5
17F
100
AcDbEntity
  8
KOTY-UPLNE
100
AcDbDimension
  2
*D18
 10
833.185716
 20
-113.587092
 30
0.0
 11
821.207563
 21
-99.38545
 31
0.0
 12
-5443.32739
 22
-1237.342654
 32
0.0
 70
     1
  1
2x10
  3
UPLNE
100
AcDbAlignedDimension
 13
822.65478
 23
-185.884928
 33
0.0
 14
842.472156
 24
-183.242896
 34
0.0
1001
ACAD
1000
DSTYLE
1002
{
1070
    40
1040
3.0
1070
   147
1040
2.0
1002
}
  0
LWPOLYLINE
  5
18E
100
AcDbEntity
  8
TRAPEZ-VELKY
100
AcDbPolyline
 90
        6
 70
     0
 43
5.0
 10
653.764196
 20
-153.944889
 10
666.660809
 20
-162.944367
 42
0.07532
 10
668.438021
 20
-163.213615
 10
762.272573
 20
-163.213615
 42
0.07532
 10
764.049785
 20
-162.944367
 10
776.946399
 20
-153.944889
  0
ENDSEC
  0
SECTION
  2
OBJECTS
  0
DICTIONARY
  5
1A
100
AcDbDictionary
  3
ACAD_GROUP
350
18
  3
ACAD_MLINESTYLE
350
19
  0
DICTIONARY
  5
18
102
{ACAD_REACTORS
330
1A
102
}
100
AcDbDictionary
  0
DICTIONARY
  5
19
102
{ACAD_REACTORS
330
1A
102
}
100
AcDbDictionary
  3
STANDARD
350
1C
  0
MLINESTYLE
  5
1C
102
{ACAD_REACTORS
330
19
102
}
100
AcDbMlineStyle
  2
STANDARD
 70
     0
  3

 62
   256
 51
90.0
 52
90.0
 71
     2
 49
0.5
 62
   256
  6
BYLAYER
 49
-0.5
 62
   256
  6
BYLAYER
  0
ENDSEC
  0
EOF
