  0
SECTION
  2
HEADER
  9
$ACADVER
  1
AC1009
  9
$INSBASE
 10
0.0
 20
0.0
 30
0.0
  9
$EXTMIN
 10
-0.127149
 20
-484.008784
 30
-0.001526
  9
$EXTMAX
 10
1349.744214
 20
0.000003
 30
0.0
  9
$LIMMIN
 10
-1000.0
 20
-1000.0
  9
$LIMMAX
 10
1000.0
 20
1000.0
  9
$ORTHOMODE
 70
     0
  9
$REGENMODE
 70
     1
  9
$FILLMODE
 70
     1
  9
$QTEXTMODE
 70
     0
  9
$MIRRTEXT
 70
     0
  9
$DRAGMODE
 70
     2
  9
$LTSCALE
 40
3.0
  9
$OSMODE
 70
    32
  9
$ATTMODE
 70
     1
  9
$TEXTSIZE
 40
50.0
  9
$TRACEWID
 40
0.05
  9
$TEXTSTYLE
  7
STANDARD
  9
$CLAYER
  8
KOTY-UPLNE
  9
$CELTYPE
  6
BYLAYER
  9
$CECOLOR
 62
   256
  9
$DIMSCALE
 40
3.0
  9
$DIMASZ
 40
5.0
  9
$DIMEXO
 40
1.0
  9
$DIMDLI
 40
0.0
  9
$DIMRND
 40
1.0
  9
$DIMDLE
 40
1.0
  9
$DIMEXE
 40
2.0
  9
$DIMTP
 40
0.0
  9
$DIMTM
 40
0.0
  9
$DIMTXT
 40
6.44
  9
$DIMCEN
 40
1.0
  9
$DIMTSZ
 40
0.0
  9
$DIMTOL
 70
     0
  9
$DIMLIM
 70
     0
  9
$DIMTIH
 70
     0
  9
$DIMTOH
 70
     0
  9
$DIMSE1
 70
     0
  9
$DIMSE2
 70
     0
  9
$DIMTAD
 70
     3
  9
$DIMZIN
 70
     0
  9
$DIMBLK
  1

  9
$DIMASO
 70
     1
  9
$DIMSHO
 70
     0
  9
$DIMPOST
  1

  9
$DIMAPOST
  1

  9
$DIMALT
 70
     0
  9
$DIMALTD
 70
     2
  9
$DIMALTF
 40
25.4
  9
$DIMLFAC
 40
1.0
  9
$DIMTOFL
 70
     1
  9
$DIMTVP
 40
0.0
  9
$DIMTIX
 70
     1
  9
$DIMSOXD
 70
     0
  9
$DIMSAH
 70
     0
  9
$DIMBLK1
  1

  9
$DIMBLK2
  1

  9
$DIMSTYLE
  2
UPLNE
  9
$DIMCLRD
 70
   256
  9
$DIMCLRE
 70
   256
  9
$DIMCLRT
 70
     5
  9
$DIMTFAC
 40
1.0
  9
$DIMGAP
 40
2.0
  9
$LUNITS
 70
     2
  9
$LUPREC
 70
     2
  9
$SKETCHINC
 40
0.1
  9
$FILLETRAD
 40
5.0
  9
$AUNITS
 70
     0
  9
$AUPREC
 70
     2
  9
$MENU
  1
acad
  9
$ELEVATION
 40
0.0
  9
$PELEVATION
 40
0.0
  9
$THICKNESS
 40
0.0
  9
$LIMCHECK
 70
     0
  9
$BLIPMODE
 70
     1
  9
$CHAMFERA
 40
0.0
  9
$CHAMFERB
 40
0.0
  9
$SKPOLY
 70
     0
  9
$TDCREATE
 40
2448722.252205
  9
$TDUPDATE
 40
2454575.737213
  9
$TDINDWG
 40
2.546695
  9
$TDUSRTIMER
 40
2.546695
  9
$USRTIMER
 70
     1
  9
$ANGBASE
 50
0.0
  9
$ANGDIR
 70
     0
  9
$PDMODE
 70
     0
  9
$PDSIZE
 40
0.0
  9
$PLINEWID
 40
0.0
  9
$COORDS
 70
     2
  9
$SPLFRAME
 70
     0
  9
$SPLINETYPE
 70
     6
  9
$SPLINESEGS
 70
     8
  9
$ATTDIA
 70
     0
  9
$ATTREQ
 70
     1
  9
$HANDLING
 70
     1
  9
$HANDSEED
  5
1F2
  9
$SURFTAB1
 70
     6
  9
$SURFTAB2
 70
     6
  9
$SURFTYPE
 70
     6
  9
$SURFU
 70
     6
  9
$SURFV
 70
     6
  9
$UCSNAME
  2

  9
$UCSORG
 10
0.0
 20
0.0
 30
0.0
  9
$UCSXDIR
 10
1.0
 20
0.0
 30
0.0
  9
$UCSYDIR
 10
0.0
 20
1.0
 30
0.0
  9
$PUCSNAME
  2

  9
$PUCSORG
 10
0.0
 20
0.0
 30
0.0
  9
$PUCSXDIR
 10
1.0
 20
0.0
 30
0.0
  9
$PUCSYDIR
 10
0.0
 20
1.0
 30
0.0
  9
$USERI1
 70
     1
  9
$USERI2
 70
     0
  9
$USERI3
 70
     0
  9
$USERI4
 70
     0
  9
$USERI5
 70
     0
  9
$USERR1
 40
0.0
  9
$USERR2
 40
0.0
  9
$USERR3
 40
0.0
  9
$USERR4
 40
0.0
  9
$USERR5
 40
0.0
  9
$WORLDVIEW
 70
     1
  9
$SHADEDGE
 70
     3
  9
$SHADEDIF
 70
    70
  9
$TILEMODE
 70
     1
  9
$MAXACTVP
 70
    16
  9
$PLIMCHECK
 70
     0
  9
$PEXTMIN
 10
1.000000E+020
 20
1.000000E+020
 30
1.000000E+020
  9
$PEXTMAX
 10
-1.000000E+020
 20
-1.000000E+020
 30
-1.000000E+020
  9
$PLIMMIN
 10
0.0
 20
0.0
  9
$PLIMMAX
 10
12.0
 20
9.0
  9
$UNITMODE
 70
     0
  9
$VISRETAIN
 70
     0
  9
$PLINEGEN
 70
     0
  9
$PSLTSCALE
 70
     0
  0
ENDSEC
  0
SECTION
  2
TABLES
  0
TABLE
  2
VPORT
 70
     3
  0
VPORT
  2
*ACTIVE
 70
     0
 10
0.0
 20
0.0
 11
1.0
 21
1.0
 12
674.808532
 22
-242.00439
 13
0.0
 23
0.0
 14
1.0
 24
1.0
 15
600.0
 25
600.0
 16
0.0
 26
0.0
 36
1.0
 17
0.0
 27
0.0
 37
0.0
 40
852.242864
 41
1.595104
 42
50.0
 43
0.0
 44
0.0
 50
0.0
 51
0.0
 71
     0
 72
   100
 73
     1
 74
     0
 75
     0
 76
     0
 77
     0
 78
     0
  0
ENDTAB
  0
TABLE
  2
LTYPE
 70
     1
  0
LTYPE
  2
CONTINUOUS
 70
     0
  3
Solid line
 72
    65
 73
     0
 40
0.0
  0
ENDTAB
  0
TABLE
  2
LAYER
 70
     7
  0
LAYER
  2
0
 70
     0
 62
     7
  6
CONTINUOUS
  0
LAYER
  2
KOTY-UPLNE
 70
     0
 62
     7
  6
CONTINUOUS
  0
LAYER
  2
RAMEC
 70
     0
 62
     5
  6
CONTINUOUS
  0
LAYER
  2
POZICE
 70
     0
 62
     1
  6
CONTINUOUS
  0
LAYER
  2
POPIS
 70
     0
 62
     1
  6
CONTINUOUS
  0
LAYER
  2
DEFPOINTS
 70
     0
 62
     7
  6
CONTINUOUS
  0
LAYER
  2
TRAPEZ-VELKY
 70
     0
 62
     7
  6
CONTINUOUS
  0
ENDTAB
  0
TABLE
  2
STYLE
 70
     2
  0
STYLE
  2
STANDARD
 70
     0
 40
0.0
 41
0.9
 50
0.0
 71
     0
 42
50.0
  3
simplex.shx
  4

  0
STYLE
  2
STYLE1
 70
     0
 40
0.0
 41
0.9
 50
0.0
 71
     0
 42
50.0
  3
simplex.shx
  4

  0
ENDTAB
  0
TABLE
  2
VIEW
 70
     0
  0
ENDTAB
  0
TABLE
  2
UCS
 70
     0
  0
ENDTAB
  0
TABLE
  2
APPID
 70
     1
  0
APPID
  2
ACAD
 70
     0
  0
ENDTAB
  0
TABLE
  2
DIMSTYLE
 70
     1
  0
DIMSTYLE
  2
UPLNE
 70
     0
  3

  4

  5

  6

  7

 40
5.0
 41
5.0
 42
1.0
 43
0.0
 44
2.0
 45
1.0
 46
1.0
 47
0.0
 48
0.0
140
6.44
141
1.0
142
0.0
143
25.4
144
1.0
145
0.0
146
1.0
147
1.0
 71
     0
 72
     0
 73
     0
 74
     0
 75
     0
 76
     0
 77
     3
 78
     0
170
     0
171
     2
172
     1
173
     0
174
     1
175
     0
176
   256
177
   256
178
     5
  0
ENDTAB
  0
ENDSEC
  0
SECTION
  2
BLOCKS
  0
BLOCK
  8
0
  2
$MODEL_SPACE
 70
     0
 10
0.0
 20
0.0
 30
0.0
  3
$MODEL_SPACE
  1

  0
ENDBLK
  5
6
  8
0
  0
BLOCK
 67
     1
  8
0
  2
$PAPER_SPACE
 70
     0
 10
0.0
 20
0.0
 30
0.0
  3
$PAPER_SPACE
  1

  0
ENDBLK
  5
9
 67
     1
  8
0
  0
BLOCK
  8
0
  2
*D0
 70
     1
 10
0.0
 20
0.0
 30
0.0
  3
*D0
  1

  0
LINE
  5
3D
  8
0
  6
BYBLOCK
 10
5616.182687
 20
1525.457726
 30
0.0
 11
5616.182687
 21
1742.268176
 31
0.0
  0
LINE
  5
3E
  8
0
  6
BYBLOCK
 10
5670.182687
 20
1690.457726
 30
0.0
 11
5670.182687
 21
1742.268176
 31
0.0
  0
LINE
  5
3F
  8
0
  6
BYBLOCK
 10
5631.182687
 20
1736.268176
 30
0.0
 11
5655.182687
 21
1736.268176
 31
0.0
  0
SOLID
  5
40
  8
0
  6
BYBLOCK
 10
5631.182687
 20
1738.768176
 30
0.0
 11
5631.182687
 21
1733.768176
 31
0.0
 12
5616.182687
 22
1736.268176
 32
0.0
 13
5616.182687
 23
1736.268176
 33
0.0
  0
SOLID
  5
41
  8
0
  6
BYBLOCK
 10
5655.182687
 20
1738.768176
 30
0.0
 11
5655.182687
 21
1733.768176
 31
0.0
 12
5670.182687
 22
1736.268176
 32
0.0
 13
5670.182687
 23
1736.268176
 33
0.0
  0
TEXT
  8
0
  40
19.32
  5
1B2
  62
5
  72
0
  71
0
 10
5604.54
 20
1717.73
 30
0.000000
  1
54
  0
POINT
  5
43
  8
DEFPOINTS
  6
BYBLOCK
 62
     0
 10
5616.182687
 20
1522.457726
 30
0.0
  0
POINT
  5
44
  8
DEFPOINTS
  6
BYBLOCK
 62
     0
 10
5670.182687
 20
1687.457726
 30
0.0
  0
POINT
  5
45
  8
DEFPOINTS
  6
BYBLOCK
 62
     0
 10
5670.182687
 20
1736.268176
 30
0.0
  0
ENDBLK
  5
47
  8
0
  0
BLOCK
  8
0
  2
*D1
 70
     1
 10
0.0
 20
0.0
 30
0.0
  3
*D1
  1

  0
LINE
  5
A0
  8
0
  6
BYBLOCK
 10
5670.182687
 20
1690.457726
 30
0.0
 11
5670.182687
 21
1742.268176
 31
0.0
  0
LINE
  5
A1
  8
0
  6
BYBLOCK
 10
5772.182687
 20
1690.457726
 30
0.0
 11
5772.182687
 21
1742.268176
 31
0.0
  0
LINE
  5
A2
  8
0
  6
BYBLOCK
 10
5685.182687
 20
1736.268176
 30
0.0
 11
5757.182687
 21
1736.268176
 31
0.0
  0
SOLID
  5
A3
  8
0
  6
BYBLOCK
 10
5685.182687
 20
1738.768176
 30
0.0
 11
5685.182687
 21
1733.768176
 31
0.0
 12
5670.182687
 22
1736.268176
 32
0.0
 13
5670.182687
 23
1736.268176
 33
0.0
  0
SOLID
  5
A4
  8
0
  6
BYBLOCK
 10
5757.182687
 20
1738.768176
 30
0.0
 11
5757.182687
 21
1733.768176
 31
0.0
 12
5772.182687
 22
1736.268176
 32
0.0
 13
5772.182687
 23
1736.268176
 33
0.0
  0
TEXT
  8
0
  40
19.32
  5
1B3
  62
5
  72
0
  71
0
 10
5682.54
 20
1717.73
 30
0.000000
  1
102
  0
POINT
  5
A6
  8
DEFPOINTS
  6
BYBLOCK
 62
     0
 10
5670.182687
 20
1687.457726
 30
0.0
  0
POINT
  5
A7
  8
DEFPOINTS
  6
BYBLOCK
 62
     0
 10
5772.182687
 20
1687.457726
 30
0.0
  0
POINT
  5
A8
  8
DEFPOINTS
  6
BYBLOCK
 62
     0
 10
5772.182687
 20
1736.268176
 30
0.0
  0
ENDBLK
  5
AA
  8
0
  0
BLOCK
  8
0
  2
*D2
 70
     1
 10
0.0
 20
0.0
 30
0.0
  3
*D2
  1

  0
LINE
  5
92
  8
0
  6
BYBLOCK
 10
5772.182687
 20
1690.457726
 30
0.0
 11
5772.182687
 21
1742.268176
 31
0.0
  0
LINE
  5
93
  8
0
  6
BYBLOCK
 10
5826.182687
 20
1525.457726
 30
0.0
 11
5826.182687
 21
1742.268176
 31
0.0
  0
LINE
  5
94
  8
0
  6
BYBLOCK
 10
5787.182687
 20
1736.268176
 30
0.0
 11
5811.182687
 21
1736.268176
 31
0.0
  0
SOLID
  5
95
  8
0
  6
BYBLOCK
 10
5787.182687
 20
1738.768176
 30
0.0
 11
5787.182687
 21
1733.768176
 31
0.0
 12
5772.182687
 22
1736.268176
 32
0.0
 13
5772.182687
 23
1736.268176
 33
0.0
  0
SOLID
  5
96
  8
0
  6
BYBLOCK
 10
5811.182687
 20
1738.768176
 30
0.0
 11
5811.182687
 21
1733.768176
 31
0.0
 12
5826.182687
 22
1736.268176
 32
0.0
 13
5826.182687
 23
1736.268176
 33
0.0
  0
TEXT
  8
0
  40
19.32
  5
1B4
  62
5
  72
0
  71
0
 10
5760.54
 20
1717.73
 30
0.000000
  1
54
  0
POINT
  5
98
  8
DEFPOINTS
  6
BYBLOCK
 62
     0
 10
5772.182687
 20
1687.457726
 30
0.0
  0
POINT
  5
99
  8
DEFPOINTS
  6
BYBLOCK
 62
     0
 10
5826.182687
 20
1522.457726
 30
0.0
  0
POINT
  5
9A
  8
DEFPOINTS
  6
BYBLOCK
 62
     0
 10
5826.182687
 20
1736.268176
 30
0.0
  0
ENDBLK
  5
9C
  8
0
  0
BLOCK
  8
0
  2
*D3
 70
     1
 10
0.0
 20
0.0
 30
0.0
  3
*D3
  1

  0
LINE
  5
5C
  8
0
  6
BYBLOCK
 10
6076.182687
 20
1519.457726
 30
0.0
 11
6076.182687
 21
1456.457726
 31
0.0
  0
LINE
  5
5D
  8
0
  6
BYBLOCK
 10
6116.182687
 20
1519.457726
 30
0.0
 11
6116.182687
 21
1456.457726
 31
0.0
  0
LINE
  5
5E
  8
0
  6
BYBLOCK
 10
6061.182687
 20
1462.457726
 30
0.0
 11
6046.182687
 21
1462.457726
 31
0.0
  0
LINE
  5
5F
  8
0
  6
BYBLOCK
 10
6131.182687
 20
1462.457726
 30
0.0
 11
6146.182687
 21
1462.457726
 31
0.0
  0
LINE
  5
60
  8
0
  6
BYBLOCK
 10
6076.182687
 20
1462.457726
 30
0.0
 11
6116.182687
 21
1462.457726
 31
0.0
  0
SOLID
  5
61
  8
0
  6
BYBLOCK
 10
6061.182687
 20
1464.957726
 30
0.0
 11
6061.182687
 21
1459.957726
 31
0.0
 12
6076.182687
 22
1462.457726
 32
0.0
 13
6076.182687
 23
1462.457726
 33
0.0
  0
SOLID
  5
62
  8
0
  6
BYBLOCK
 10
6131.182687
 20
1464.957726
 30
0.0
 11
6131.182687
 21
1459.957726
 31
0.0
 12
6116.182687
 22
1462.457726
 32
0.0
 13
6116.182687
 23
1462.457726
 33
0.0
  0
TEXT
  8
0
  40
19.32
  5
1B5
  62
5
  72
0
  71
0
 10
6057.54
 20
1443.92
 30
0.000000
  1
40
  0
POINT
  5
64
  8
DEFPOINTS
  6
BYBLOCK
 62
     0
 10
6076.182687
 20
1522.457726
 30
0.0
  0
POINT
  5
65
  8
DEFPOINTS
  6
BYBLOCK
 62
     0
 10
6116.182687
 20
1522.457726
 30
0.0
  0
POINT
  5
66
  8
DEFPOINTS
  6
BYBLOCK
 62
     0
 10
6116.182687
 20
1462.457726
 30
0.0
  0
ENDBLK
  5
68
  8
0
  0
BLOCK
  8
0
  2
*D4
 70
     1
 10
0.0
 20
0.0
 30
0.0
  3
*D4
  1

  0
LINE
  5
30
  8
0
  6
BYBLOCK
 10
5596.182687
 20
1519.457726
 30
0.0
 11
5596.182687
 21
1456.457726
 31
0.0
  0
LINE
  5
31
  8
0
  6
BYBLOCK
 10
5846.182687
 20
1519.457726
 30
0.0
 11
5846.182687
 21
1456.457726
 31
0.0
  0
LINE
  5
32
  8
0
  6
BYBLOCK
 10
5611.182687
 20
1462.457726
 30
0.0
 11
5831.182687
 21
1462.457726
 31
0.0
  0
SOLID
  5
33
  8
0
  6
BYBLOCK
 10
5611.182687
 20
1464.957726
 30
0.0
 11
5611.182687
 21
1459.957726
 31
0.0
 12
5596.182687
 22
1462.457726
 32
0.0
 13
5596.182687
 23
1462.457726
 33
0.0
  0
SOLID
  5
34
  8
0
  6
BYBLOCK
 10
5831.182687
 20
1464.957726
 30
0.0
 11
5831.182687
 21
1459.957726
 31
0.0
 12
5846.182687
 22
1462.457726
 32
0.0
 13
5846.182687
 23
1462.457726
 33
0.0
  0
TEXT
  8
0
  40
19.32
  5
1B6
  62
5
  72
0
  71
0
 10
5682.54
 20
1443.92
 30
0.000000
  1
250
  0
POINT
  5
36
  8
DEFPOINTS
  6
BYBLOCK
 62
     0
 10
5596.182687
 20
1522.457726
 30
0.0
  0
POINT
  5
37
  8
DEFPOINTS
  6
BYBLOCK
 62
     0
 10
5846.182687
 20
1522.457726
 30
0.0
  0
POINT
  5
38
  8
DEFPOINTS
  6
BYBLOCK
 62
     0
 10
5846.182687
 20
1462.457726
 30
0.0
  0
ENDBLK
  5
3A
  8
0
  0
BLOCK
  8
0
  2
*D5
 70
     1
 10
0.0
 20
0.0
 30
0.0
  3
*D5
  1

  0
LINE
  5
22
  8
0
  6
BYBLOCK
 10
6346.182687
 20
1519.457726
 30
0.0
 11
6346.182687
 21
1396.457726
 31
0.0
  0
LINE
  5
23
  8
0
  6
BYBLOCK
 10
5596.182687
 20
1519.457726
 30
0.0
 11
5596.182687
 21
1396.457726
 31
0.0
  0
LINE
  5
24
  8
0
  6
BYBLOCK
 10
6331.182687
 20
1402.457726
 30
0.0
 11
5611.182687
 21
1402.457726
 31
0.0
  0
SOLID
  5
25
  8
0
  6
BYBLOCK
 10
6331.182687
 20
1404.957726
 30
0.0
 11
6331.182687
 21
1399.957726
 31
0.0
 12
6346.182687
 22
1402.457726
 32
0.0
 13
6346.182687
 23
1402.457726
 33
0.0
  0
SOLID
  5
26
  8
0
  6
BYBLOCK
 10
5611.182687
 20
1404.957726
 30
0.0
 11
5611.182687
 21
1399.957726
 31
0.0
 12
5596.182687
 22
1402.457726
 32
0.0
 13
5596.182687
 23
1402.457726
 33
0.0
  0
TEXT
  8
0
  40
19.32
  5
1B7
  62
5
  72
0
  71
0
 10
5932.54
 20
1383.92
 30
0.000000
  1
750
  0
POINT
  5
28
  8
DEFPOINTS
  6
BYBLOCK
 62
     0
 10
6346.182687
 20
1522.457726
 30
0.0
  0
POINT
  5
2A
  8
DEFPOINTS
  6
BYBLOCK
 62
     0
 10
5596.182687
 20
1522.457726
 30
0.0
  0
POINT
  5
2B
  8
DEFPOINTS
  6
BYBLOCK
 62
     0
 10
5596.182687
 20
1402.457726
 30
0.0
  0
ENDBLK
  5
2D
  8
0
  0
BLOCK
  8
0
  2
*D6
 70
     1
 10
0.0
 20
0.0
 30
0.0
  3
*D6
  1

  0
LINE
  5
4C
  8
0
  6
BYBLOCK
 10
5974.182687
 20
1679.958995
 30
0.0
 11
6073.227972
 21
1679.958995
 31
0.0
  0
LINE
  5
4D
  8
0
  6
BYBLOCK
 10
6025.182687
 20
1687.457726
 30
0.0
 11
6073.227972
 21
1687.457726
 31
0.0
  0
LINE
  5
4E
  8
0
  6
BYBLOCK
 10
6067.227972
 20
1664.958995
 30
0.0
 11
6067.227972
 21
1649.958995
 31
0.0
  0
LINE
  5
4F
  8
0
  6
BYBLOCK
 10
6067.227972
 20
1702.457726
 30
0.0
 11
6067.227972
 21
1717.457726
 31
0.0
  0
TEXT
  8
0
  40
19.32
  5
1B8
  62
5
  72
0
  71
0
 10
6012.84
 20
1667.61
 30
0.000000
  1
7
  0
LINE
  5
51
  8
0
  6
BYBLOCK
 10
6067.227972
 20
1679.958995
 30
0.0
 11
6067.227972
 21
1687.457726
 31
0.0
  0
LINE
  5
52
  8
0
  6
BYBLOCK
 10
6067.227972
 20
1679.958995
 30
0.0
 11
6067.227972
 21
1687.457726
 31
0.0
  0
SOLID
  5
53
  8
0
  6
BYBLOCK
 10
6064.727972
 20
1664.958995
 30
0.0
 11
6069.727972
 21
1664.958995
 31
0.0
 12
6067.227972
 22
1679.958995
 32
0.0
 13
6067.227972
 23
1679.958995
 33
0.0
  0
SOLID
  5
54
  8
0
  6
BYBLOCK
 10
6064.727972
 20
1702.457726
 30
0.0
 11
6069.727972
 21
1702.457726
 31
0.0
 12
6067.227972
 22
1687.457726
 32
0.0
 13
6067.227972
 23
1687.457726
 33
0.0
  0
POINT
  5
55
  8
DEFPOINTS
  6
BYBLOCK
 62
     0
 10
5971.182687
 20
1679.958995
 30
0.0
  0
POINT
  5
56
  8
DEFPOINTS
  6
BYBLOCK
 62
     0
 10
6022.182687
 20
1687.457726
 30
0.0
  0
POINT
  5
57
  8
DEFPOINTS
  6
BYBLOCK
 62
     0
 10
6067.227972
 20
1687.457726
 30
0.0
  0
ENDBLK
  5
59
  8
0
  0
BLOCK
  8
0
  2
*D7
 70
     1
 10
0.0
 20
0.0
 30
0.0
  3
*D7
  1

  0
LINE
  5
83
  8
0
  6
BYBLOCK
 10
5707.682687
 20
1684.457726
 30
0.0
 11
5707.682687
 21
1516.457726
 31
0.0
  0
LINE
  5
84
  8
0
  6
BYBLOCK
 10
5734.682687
 20
1684.457726
 30
0.0
 11
5734.682687
 21
1516.457726
 31
0.0
  0
LINE
  5
85
  8
0
  6
BYBLOCK
 10
5692.682687
 20
1522.457726
 30
0.0
 11
5677.682687
 21
1522.457726
 31
0.0
  0
LINE
  5
86
  8
0
  6
BYBLOCK
 10
5749.682687
 20
1522.457726
 30
0.0
 11
5764.682687
 21
1522.457726
 31
0.0
  0
LINE
  5
87
  8
0
  6
BYBLOCK
 10
5707.682687
 20
1522.457726
 30
0.0
 11
5734.682687
 21
1522.457726
 31
0.0
  0
SOLID
  5
88
  8
0
  6
BYBLOCK
 10
5692.682687
 20
1524.957726
 30
0.0
 11
5692.682687
 21
1519.957726
 31
0.0
 12
5707.682687
 22
1522.457726
 32
0.0
 13
5707.682687
 23
1522.457726
 33
0.0
  0
SOLID
  5
89
  8
0
  6
BYBLOCK
 10
5749.682687
 20
1524.957726
 30
0.0
 11
5749.682687
 21
1519.957726
 31
0.0
 12
5734.682687
 22
1522.457726
 32
0.0
 13
5734.682687
 23
1522.457726
 33
0.0
  0
TEXT
  8
0
  40
19.32
  5
1B9
  62
5
  72
0
  71
0
 10
5682.54
 20
1503.92
 30
0.000000
  1
27
  0
POINT
  5
8B
  8
DEFPOINTS
  6
BYBLOCK
 62
     0
 10
5707.682687
 20
1687.457726
 30
0.0
  0
POINT
  5
8C
  8
DEFPOINTS
  6
BYBLOCK
 62
     0
 10
5734.682687
 20
1687.457726
 30
0.0
  0
POINT
  5
8D
  8
DEFPOINTS
  6
BYBLOCK
 62
     0
 10
5734.682687
 20
1522.457726
 30
0.0
  0
ENDBLK
  5
8F
  8
0
  0
BLOCK
  8
0
  2
*D8
 70
     1
 10
0.0
 20
0.0
 30
0.0
  3
*D8
  1

  0
LINE
  5
12D
  8
0
  6
BYBLOCK
 10
6275.182687
 20
1687.457726
 30
0.0
 11
6409.236941
 21
1687.457726
 31
0.0
  0
LINE
  5
12E
  8
0
  6
BYBLOCK
 10
6280.105355
 20
1667.457726
 30
0.0
 11
6409.236941
 21
1667.457726
 31
0.0
  0
LINE
  5
12F
  8
0
  6
BYBLOCK
 10
6403.236941
 20
1702.457726
 30
0.0
 11
6403.236941
 21
1717.457726
 31
0.0
  0
LINE
  5
130
  8
0
  6
BYBLOCK
 10
6403.236941
 20
1652.457726
 30
0.0
 11
6403.236941
 21
1637.457726
 31
0.0
  0
TEXT
  8
0
  40
19.32
  5
1BA
  62
5
  72
0
  71
0
 10
6348.85
 20
1672.83
 30
0.000000
  1
20
  0
LINE
  5
132
  8
0
  6
BYBLOCK
 10
6403.236941
 20
1687.457726
 30
0.0
 11
6403.236941
 21
1667.457726
 31
0.0
  0
LINE
  5
133
  8
0
  6
BYBLOCK
 10
6403.236941
 20
1687.457726
 30
0.0
 11
6403.236941
 21
1667.457726
 31
0.0
  0
SOLID
  5
134
  8
0
  6
BYBLOCK
 10
6400.736941
 20
1702.457726
 30
0.0
 11
6405.736941
 21
1702.457726
 31
0.0
 12
6403.236941
 22
1687.457726
 32
0.0
 13
6403.236941
 23
1687.457726
 33
0.0
  0
SOLID
  5
135
  8
0
  6
BYBLOCK
 10
6400.736941
 20
1652.457726
 30
0.0
 11
6405.736941
 21
1652.457726
 31
0.0
 12
6403.236941
 22
1667.457726
 32
0.0
 13
6403.236941
 23
1667.457726
 33
0.0
  0
POINT
  5
136
  8
DEFPOINTS
  6
BYBLOCK
 62
     0
 10
6272.182687
 20
1687.457726
 30
0.0
  0
POINT
  5
137
  8
DEFPOINTS
  6
BYBLOCK
 62
     0
 10
6277.105355
 20
1667.457726
 30
0.0
  0
POINT
  5
138
  8
DEFPOINTS
  6
BYBLOCK
 62
     0
 10
6403.236941
 20
1667.457726
 30
0.0
  0
ENDBLK
  5
13A
  8
0
  0
BLOCK
  8
0
  2
*D9
 70
     1
 10
0.0
 20
0.0
 30
0.0
  3
*D9
  1

  0
LINE
  5
11D
  8
0
  6
BYBLOCK
 10
6280.105355
 20
1667.457726
 30
0.0
 11
6409.236941
 21
1667.457726
 31
0.0
  0
LINE
  5
11E
  8
0
  6
BYBLOCK
 10
6289.260684
 20
1657.457726
 30
0.0
 11
6409.236941
 21
1657.457726
 31
0.0
  0
LINE
  5
11F
  8
0
  6
BYBLOCK
 10
6403.236941
 20
1682.457726
 30
0.0
 11
6403.236941
 21
1697.457726
 31
0.0
  0
LINE
  5
120
  8
0
  6
BYBLOCK
 10
6403.236941
 20
1642.457726
 30
0.0
 11
6403.236941
 21
1627.457726
 31
0.0
  0
TEXT
  8
0
  40
19.32
  5
1BB
  62
5
  72
0
  71
0
 10
6385.63
 20
1628.26
 30
0.000000
  1
10
  0
LINE
  5
122
  8
0
  6
BYBLOCK
 10
6403.236941
 20
1667.457726
 30
0.0
 11
6403.236941
 21
1657.457726
 31
0.0
  0
LINE
  5
123
  8
0
  6
BYBLOCK
 10
6403.236941
 20
1667.457726
 30
0.0
 11
6403.236941
 21
1657.457726
 31
0.0
  0
SOLID
  5
124
  8
0
  6
BYBLOCK
 10
6400.736941
 20
1682.457726
 30
0.0
 11
6405.736941
 21
1682.457726
 31
0.0
 12
6403.236941
 22
1667.457726
 32
0.0
 13
6403.236941
 23
1667.457726
 33
0.0
  0
SOLID
  5
125
  8
0
  6
BYBLOCK
 10
6400.736941
 20
1642.457726
 30
0.0
 11
6405.736941
 21
1642.457726
 31
0.0
 12
6403.236941
 22
1657.457726
 32
0.0
 13
6403.236941
 23
1657.457726
 33
0.0
  0
POINT
  5
126
  8
DEFPOINTS
  6
BYBLOCK
 62
     0
 10
6277.105355
 20
1667.457726
 30
0.0
  0
POINT
  5
127
  8
DEFPOINTS
  6
BYBLOCK
 62
     0
 10
6286.260684
 20
1657.457726
 30
0.0
  0
POINT
  5
128
  8
DEFPOINTS
  6
BYBLOCK
 62
     0
 10
6403.236941
 20
1657.457726
 30
0.0
  0
ENDBLK
  5
12A
  8
0
  0
BLOCK
  8
0
  2
*D10
 70
     1
 10
0.0
 20
0.0
 30
0.0
  3
*D10
  1

  0
LINE
  5
EC
  8
0
  6
BYBLOCK
 10
6289.260684
 20
1657.457726
 30
0.0
 11
6409.236941
 21
1657.457726
 31
0.0
  0
LINE
  5
ED
  8
0
  6
BYBLOCK
 10
6315.10469
 20
1552.457726
 30
0.0
 11
6409.236941
 21
1552.457726
 31
0.0
  0
LINE
  5
EE
  8
0
  6
BYBLOCK
 10
6403.236941
 20
1642.457726
 30
0.0
 11
6403.236941
 21
1567.457726
 31
0.0
  0
SOLID
  5
EF
  8
0
  6
BYBLOCK
 10
6400.736941
 20
1642.457726
 30
0.0
 11
6405.736941
 21
1642.457726
 31
0.0
 12
6403.236941
 22
1657.457726
 32
0.0
 13
6403.236941
 23
1657.457726
 33
0.0
  0
SOLID
  5
F0
  8
0
  6
BYBLOCK
 10
6400.736941
 20
1567.457726
 30
0.0
 11
6405.736941
 21
1567.457726
 31
0.0
 12
6403.236941
 22
1552.457726
 32
0.0
 13
6403.236941
 23
1552.457726
 33
0.0
  0
TEXT
  8
0
  40
19.32
  5
1BC
  62
5
  72
0
  71
0
 10
6348.94
 20
1570.76
 30
0.000000
  1
105
  0
POINT
  5
F2
  8
DEFPOINTS
  6
BYBLOCK
 62
     0
 10
6286.260684
 20
1657.457726
 30
0.0
  0
POINT
  5
F3
  8
DEFPOINTS
  6
BYBLOCK
 62
     0
 10
6312.10469
 20
1552.457726
 30
0.0
  0
POINT
  5
F4
  8
DEFPOINTS
  6
BYBLOCK
 62
     0
 10
6403.236941
 20
1552.457726
 30
0.0
  0
ENDBLK
  5
F6
  8
0
  0
BLOCK
  8
0
  2
*D11
 70
     1
 10
0.0
 20
0.0
 30
0.0
  3
*D11
  1

  0
LINE
  5
10C
  8
0
  6
BYBLOCK
 10
6315.10469
 20
1552.457726
 30
0.0
 11
6409.236941
 21
1552.457726
 31
0.0
  0
LINE
  5
10D
  8
0
  6
BYBLOCK
 10
6324.26002
 20
1542.457726
 30
0.0
 11
6409.236941
 21
1542.457726
 31
0.0
  0
LINE
  5
10E
  8
0
  6
BYBLOCK
 10
6403.236941
 20
1567.457726
 30
0.0
 11
6403.236941
 21
1582.457726
 31
0.0
  0
LINE
  5
10F
  8
0
  6
BYBLOCK
 10
6403.236941
 20
1527.457726
 30
0.0
 11
6403.236941
 21
1512.457726
 31
0.0
  0
TEXT
  8
0
  40
19.32
  5
1BD
  62
5
  72
0
  71
0
 10
6387.91
 20
1513.26
 30
0.000000
  1
10
  0
LINE
  5
111
  8
0
  6
BYBLOCK
 10
6403.236941
 20
1552.457726
 30
0.0
 11
6403.236941
 21
1542.457726
 31
0.0
  0
LINE
  5
112
  8
0
  6
BYBLOCK
 10
6403.236941
 20
1552.457726
 30
0.0
 11
6403.236941
 21
1542.457726
 31
0.0
  0
SOLID
  5
113
  8
0
  6
BYBLOCK
 10
6400.736941
 20
1567.457726
 30
0.0
 11
6405.736941
 21
1567.457726
 31
0.0
 12
6403.236941
 22
1552.457726
 32
0.0
 13
6403.236941
 23
1552.457726
 33
0.0
  0
SOLID
  5
114
  8
0
  6
BYBLOCK
 10
6400.736941
 20
1527.457726
 30
0.0
 11
6405.736941
 21
1527.457726
 31
0.0
 12
6403.236941
 22
1542.457726
 32
0.0
 13
6403.236941
 23
1542.457726
 33
0.0
  0
POINT
  5
115
  8
DEFPOINTS
  6
BYBLOCK
 62
     0
 10
6312.10469
 20
1552.457726
 30
0.0
  0
POINT
  5
116
  8
DEFPOINTS
  6
BYBLOCK
 62
     0
 10
6321.26002
 20
1542.457726
 30
0.0
  0
POINT
  5
117
  8
DEFPOINTS
  6
BYBLOCK
 62
     0
 10
6403.236941
 20
1542.457726
 30
0.0
  0
ENDBLK
  5
119
  8
0
  0
BLOCK
  8
0
  2
*D12
 70
     1
 10
0.0
 20
0.0
 30
0.0
  3
*D12
  1

  0
LINE
  5
FC
  8
0
  6
BYBLOCK
 10
6324.26002
 20
1542.457726
 30
0.0
 11
6409.236941
 21
1542.457726
 31
0.0
  0
LINE
  5
FD
  8
0
  6
BYBLOCK
 10
6359.182687
 20
1522.457726
 30
0.0
 11
6409.236941
 21
1522.457726
 31
0.0
  0
LINE
  5
FE
  8
0
  6
BYBLOCK
 10
6403.236941
 20
1557.457726
 30
0.0
 11
6403.236941
 21
1572.457726
 31
0.0
  0
LINE
  5
FF
  8
0
  6
BYBLOCK
 10
6403.236941
 20
1507.457726
 30
0.0
 11
6403.236941
 21
1492.457726
 31
0.0
  0
TEXT
  8
0
  40
19.32
  5
1BE
  62
5
  72
0
  71
0
 10
6348.85
 20
1460.77
 30
0.000000
  1
20
  0
LINE
  5
101
  8
0
  6
BYBLOCK
 10
6403.236941
 20
1542.457726
 30
0.0
 11
6403.236941
 21
1522.457726
 31
0.0
  0
LINE
  5
102
  8
0
  6
BYBLOCK
 10
6403.236941
 20
1542.457726
 30
0.0
 11
6403.236941
 21
1522.457726
 31
0.0
  0
SOLID
  5
103
  8
0
  6
BYBLOCK
 10
6400.736941
 20
1557.457726
 30
0.0
 11
6405.736941
 21
1557.457726
 31
0.0
 12
6403.236941
 22
1542.457726
 32
0.0
 13
6403.236941
 23
1542.457726
 33
0.0
  0
SOLID
  5
104
  8
0
  6
BYBLOCK
 10
6400.736941
 20
1507.457726
 30
0.0
 11
6405.736941
 21
1507.457726
 31
0.0
 12
6403.236941
 22
1522.457726
 32
0.0
 13
6403.236941
 23
1522.457726
 33
0.0
  0
POINT
  5
105
  8
DEFPOINTS
  6
BYBLOCK
 62
     0
 10
6321.26002
 20
1542.457726
 30
0.0
  0
POINT
  5
106
  8
DEFPOINTS
  6
BYBLOCK
 62
     0
 10
6356.182687
 20
1522.457726
 30
0.0
  0
POINT
  5
107
  8
DEFPOINTS
  6
BYBLOCK
 62
     0
 10
6403.236941
 20
1522.457726
 30
0.0
  0
ENDBLK
  5
109
  8
0
  0
BLOCK
  8
0
  2
*D13
 70
     1
 10
0.0
 20
0.0
 30
0.0
  3
*D13
  1

  0
LINE
  5
DF
  8
0
  6
BYBLOCK
 10
6275.182687
 20
1687.457726
 30
0.0
 11
6464.963137
 21
1687.457726
 31
0.0
  0
LINE
  5
E0
  8
0
  6
BYBLOCK
 10
6359.182687
 20
1522.457726
 30
0.0
 11
6464.963137
 21
1522.457726
 31
0.0
  0
LINE
  5
E1
  8
0
  6
BYBLOCK
 10
6458.963137
 20
1672.457726
 30
0.0
 11
6458.963137
 21
1537.457726
 31
0.0
  0
SOLID
  5
E2
  8
0
  6
BYBLOCK
 10
6456.463137
 20
1672.457726
 30
0.0
 11
6461.463137
 21
1672.457726
 31
0.0
 12
6458.963137
 22
1687.457726
 32
0.0
 13
6458.963137
 23
1687.457726
 33
0.0
  0
SOLID
  5
E3
  8
0
  6
BYBLOCK
 10
6456.463137
 20
1537.457726
 30
0.0
 11
6461.463137
 21
1537.457726
 31
0.0
 12
6458.963137
 22
1522.457726
 32
0.0
 13
6458.963137
 23
1522.457726
 33
0.0
  0
TEXT
  8
0
  40
19.32
  5
1BF
  62
5
  72
0
  71
0
 10
6404.66
 20
1570.76
 30
0.000000
  1
165
  0
POINT
  5
E5
  8
DEFPOINTS
  6
BYBLOCK
 62
     0
 10
6272.182687
 20
1687.457726
 30
0.0
  0
POINT
  5
E6
  8
DEFPOINTS
  6
BYBLOCK
 62
     0
 10
6356.182687
 20
1522.457726
 30
0.0
  0
POINT
  5
E7
  8
DEFPOINTS
  6
BYBLOCK
 62
     0
 10
6458.963137
 20
1522.457726
 30
0.0
  0
ENDBLK
  5
E9
  8
0
  0
BLOCK
  8
0
  2
*D14
 70
     1
 10
0.0
 20
0.0
 30
0.0
  3
*D14
  1

  0
LINE
  5
B3
  8
0
  6
BYBLOCK
 10
5915.97702
 20
1670.370784
 30
0.0
 11
5928.326987
 21
1720.546695
 31
0.0
  0
LINE
  5
B4
  8
0
  6
BYBLOCK
 10
5909.665394
 20
1671.924286
 30
0.0
 11
5922.015361
 21
1722.100197
 31
0.0
  0
LINE
  5
B5
  8
0
  6
BYBLOCK
 10
5941.458278
 20
1711.135573
 30
0.0
 11
5956.02357
 21
1707.550568
 31
0.0
  0
LINE
  5
B6
  8
0
  6
BYBLOCK
 10
5906.016066
 20
1719.859084
 30
0.0
 11
5891.450774
 21
1723.444089
 31
0.0
  0
LINE
  5
B7
  8
0
  6
BYBLOCK
 10
5926.892985
 20
1714.720578
 30
0.0
 11
5920.581359
 21
1716.27408
 31
0.0
  0
SOLID
  5
B8
  8
0
  6
BYBLOCK
 10
5942.055779
 20
1713.563122
 30
0.0
 11
5940.860777
 21
1708.708024
 31
0.0
 12
5926.892985
 22
1714.720578
 32
0.0
 13
5926.892985
 23
1714.720578
 33
0.0
  0
SOLID
  5
B9
  8
0
  6
BYBLOCK
 10
5906.613567
 20
1722.286633
 30
0.0
 11
5905.418566
 21
1717.431536
 31
0.0
 12
5920.581359
 22
1716.27408
 32
0.0
 13
5920.581359
 23
1716.27408
 33
0.0
  0
POINT
  5
BA
  8
DEFPOINTS
  6
BYBLOCK
 62
     0
 10
5915.26002
 20
1667.457726
 30
0.0
  0
POINT
  5
BB
  8
DEFPOINTS
  6
BYBLOCK
 62
     0
 10
5908.948393
 20
1669.011228
 30
0.0
  0
POINT
  5
BC
  8
DEFPOINTS
  6
BYBLOCK
 62
     0
 10
5920.581359
 20
1716.27408
 30
0.0
  0
ENDBLK
  5
BE
  8
0
  0
BLOCK
  8
0
  2
*D15
 70
     1
 10
0.0
 20
0.0
 30
0.0
  3
*D15
  1

  0
LINE
  5
74
  8
0
  6
BYBLOCK
 10
5909.665394
 20
1671.924286
 30
0.0
 11
5922.015361
 21
1722.100197
 31
0.0
  0
LINE
  5
75
  8
0
  6
BYBLOCK
 10
5871.822356
 20
1545.370784
 30
0.0
 11
5915.703734
 21
1723.653699
 31
0.0
  0
LINE
  5
76
  8
0
  6
BYBLOCK
 10
5935.146651
 20
1712.689075
 30
0.0
 11
5949.711943
 21
1709.10407
 31
0.0
  0
LINE
  5
77
  8
0
  6
BYBLOCK
 10
5899.70444
 20
1721.412587
 30
0.0
 11
5885.139147
 21
1724.997591
 31
0.0
  0
LINE
  5
78
  8
0
  6
BYBLOCK
 10
5920.581359
 20
1716.27408
 30
0.0
 11
5914.269732
 21
1717.827582
 31
0.0
  0
SOLID
  5
79
  8
0
  6
BYBLOCK
 10
5935.744152
 20
1715.116624
 30
0.0
 11
5934.54915
 21
1710.261526
 31
0.0
 12
5920.581359
 22
1716.27408
 32
0.0
 13
5920.581359
 23
1716.27408
 33
0.0
  0
SOLID
  5
7A
  8
0
  6
BYBLOCK
 10
5900.301941
 20
1723.840135
 30
0.0
 11
5899.106939
 21
1718.985038
 31
0.0
 12
5914.269732
 22
1717.827582
 32
0.0
 13
5914.269732
 23
1717.827582
 33
0.0
  0
TEXT
  8
0
  40
19.32
  5
1C0
  62
5
  72
0
  71
0
 10
5882.97
 20
1699.85
 30
0.000000
  1
2x6,5
  0
POINT
  5
7C
  8
DEFPOINTS
  6
BYBLOCK
 62
     0
 10
5908.948393
 20
1669.011228
 30
0.0
  0
POINT
  5
7D
  8
DEFPOINTS
  6
BYBLOCK
 62
     0
 10
5871.105355
 20
1542.457726
 30
0.0
  0
POINT
  5
7E
  8
DEFPOINTS
  6
BYBLOCK
 62
     0
 10
5914.269732
 20
1717.827582
 30
0.0
  0
ENDBLK
  5
80
  8
0
  0
BLOCK
  8
0
  2
*D16
 70
     1
 10
0.0
 20
0.0
 30
0.0
  3
*D16
  1

  0
LINE
  5
D1
  8
0
  6
BYBLOCK
 10
6132.286495
 20
1554.670437
 30
0.0
 11
6169.150677
 21
1594.935709
 31
0.0
  0
ARC
  5
D2
  8
0
  6
BYBLOCK
 10
6121.105355
 20
1542.457726
 30
0.0
 40
65.149783
 50
13.221017
 51
34.303854
  0
SOLID
  5
D3
  8
0
  6
BYBLOCK
 10
6187.011728
 20
1557.645799
 30
0.0
 11
6182.044969
 21
1557.070202
 31
0.0
 12
6186.255139
 22
1542.457726
 32
0.0
 13
6186.255139
 23
1542.457726
 33
0.0
  0
SOLID
  5
D4
  8
0
  6
BYBLOCK
 10
6173.033787
 20
1577.537621
 30
0.0
 11
6176.812234
 21
1580.812272
 31
0.0
 12
6165.099056
 22
1590.510286
 32
0.0
 13
6165.099056
 23
1590.510286
 33
0.0
  0
TEXT
  8
0
  40
19.32
  5
1C1
  62
5
  72
0
  71
0
 10
6158.11
 20
1541.56
 30
0.000000
  1
47,52%%d
  0
POINT
  5
D6
  8
DEFPOINTS
  6
BYBLOCK
 62
     0
 10
6183.780746
 20
1560.242261
 30
0.0
  0
POINT
  5
D7
  8
DEFPOINTS
  6
BYBLOCK
 62
     0
 10
6121.105355
 20
1542.457726
 30
0.0
  0
POINT
  5
D8
  8
DEFPOINTS
  6
BYBLOCK
 62
     0
 10
6121.105355
 20
1542.457726
 30
0.0
  0
POINT
  5
D9
  8
DEFPOINTS
  6
BYBLOCK
 62
     0
 10
6189.635834
 20
1542.457726
 30
0.0
  0
POINT
  5
DA
  8
DEFPOINTS
  6
BYBLOCK
 62
     0
 10
6130.260684
 20
1552.457726
 30
0.0
  0
ENDBLK
  5
DC
  8
0
  0
BLOCK
  8
0
  2
*D17
 70
     1
 10
0.0
 20
0.0
 30
0.0
  3
*D17
  1

  0
LINE
  5
C2
  8
0
  6
BYBLOCK
 10
6119.182687
 20
1522.457726
 30
0.0
 11
6256.03356
 21
1522.457726
 31
0.0
  0
LINE
  5
C3
  8
0
  6
BYBLOCK
 10
6121.822356
 20
1545.370784
 30
0.0
 11
6149.60709
 21
1658.255648
 31
0.0
  0
ARC
  5
C4
  8
0
  6
BYBLOCK
 10
6116.182687
 20
1522.457726
 30
0.0
 40
133.850872
 50
6.424217
 51
69.748237
  0
SOLID
  5
C5
  8
0
  6
BYBLOCK
 10
6251.689144
 20
1537.574241
 30
0.0
 11
6246.697
 21
1537.294079
 31
0.0
 12
6250.03356
 22
1522.457726
 32
0.0
 13
6250.03356
 23
1522.457726
 33
0.0
  0
SOLID
  5
C6
  8
0
  6
BYBLOCK
 10
6161.782037
 20
1645.643774
 30
0.0
 11
6163.247205
 21
1650.424285
 31
0.0
 12
6148.173088
 22
1652.429531
 32
0.0
 13
6148.173088
 23
1652.429531
 33
0.0
  0
TEXT
  8
0
  40
19.32
  5
1C2
  62
5
  72
0
  71
0
 10
6196.67
 20
1581.62
 30
0.000000
  1
76,17%%d
  0
POINT
  5
C8
  8
DEFPOINTS
  6
BYBLOCK
 62
     0
 10
6237.104103
 20
1579.85169
 30
0.0
  0
POINT
  5
C9
  8
DEFPOINTS
  6
BYBLOCK
 62
     0
 10
6096.182687
 20
1522.457726
 30
0.0
  0
POINT
  5
CA
  8
DEFPOINTS
  6
BYBLOCK
 62
     0
 10
6116.182687
 20
1522.457726
 30
0.0
  0
POINT
  5
CB
  8
DEFPOINTS
  6
BYBLOCK
 62
     0
 10
6121.105355
 20
1542.457726
 30
0.0
  0
POINT
  5
CC
  8
DEFPOINTS
  6
BYBLOCK
 62
     0
 10
6116.182687
 20
1522.457726
 30
0.0
  0
ENDBLK
  5
CE
  8
0
  0
ENDSEC
  0
SECTION
  2
ENTITIES
  0
POLYLINE
  5
1E
  8
RAMEC
 66
     1
 10
0.0
 20
0.0
 30
0.0
 70
     1
  0
VERTEX
  5
149
  8
RAMEC
 10
0.0
 20
0.0
 30
0.0
  0
VERTEX
  5
14A
  8
RAMEC
 10
0.0
 20
-484.001233
 30
0.0
  0
VERTEX
  5
14B
  8
RAMEC
 10
1349.672502
 20
-484.001233
 30
0.0
  0
VERTEX
  5
14C
  8
RAMEC
 10
1349.672502
 20
0.0
 30
0.0
  0
SEQEND
  5
14D
  8
RAMEC
  0
DIMENSION
  5
20
  8
KOTY-UPLNE
  2
*D5
 10
152.855297
 20
-434.884928
 30
0.0
 11
527.855297
 21
-419.224928
 31
0.0
 12
-5443.32739
 22
-1837.342654
 32
0.0
 13
902.855297
 23
-314.884928
 33
0.0
 14
152.855297
 24
-314.884928
 34
0.0
1001
ACAD
1000
DSTYLE
1002
{
1070
    40
1040
3.0
1070
   147
1040
2.0
1002
}
  0
DIMENSION
  5
2E
  8
KOTY-UPLNE
  2
*D4
 10
402.855297
 20
-374.884928
 30
0.0
 11
277.855297
 21
-359.224928
 31
0.0
 12
-5443.32739
 22
-1837.342654
 32
0.0
 13
152.855297
 23
-314.884928
 33
0.0
 14
402.855297
 24
-314.884928
 34
0.0
1001
ACAD
1000
DSTYLE
1002
{
1070
    40
1040
3.0
1070
   147
1040
2.0
1002
}
  0
DIMENSION
  5
3B
  8
KOTY-UPLNE
  2
*D0
 10
226.855297
 20
-101.074478
 30
0.0
 11
199.855297
 21
-85.414478
 31
0.0
 12
-5443.32739
 22
-1837.342654
 32
0.0
 13
172.855297
 23
-314.884928
 33
0.0
 14
226.855297
 24
-149.884928
 34
0.0
1001
ACAD
1000
DSTYLE
1002
{
1070
    40
1040
3.0
1070
   147
1040
2.0
1002
}
  0
POLYLINE
  5
48
  8
TRAPEZ-VELKY
 66
     1
 10
0.0
 20
0.0
 30
0.0
 40
5.0
 41
5.0
  0
VERTEX
  5
14E
  8
TRAPEZ-VELKY
 10
130.393963
 20
-304.884928
 30
0.0
  0
VERTEX
  5
14F
  8
TRAPEZ-VELKY
 10
132.293375
 20
-312.601929
 30
0.0
 42
0.34517
  0
VERTEX
  5
150
  8
TRAPEZ-VELKY
 10
135.206433
 20
-314.884928
 30
0.0
  0
VERTEX
  5
151
  8
TRAPEZ-VELKY
 10
152.855297
 20
-314.884928
 30
0.0
  0
VERTEX
  5
152
  8
TRAPEZ-VELKY
 10
170.504161
 20
-314.884928
 30
0.0
 42
0.34517
  0
VERTEX
  5
153
  8
TRAPEZ-VELKY
 10
173.417219
 20
-312.601929
 30
0.0
  0
VERTEX
  5
154
  8
TRAPEZ-VELKY
 10
177.594887
 20
-295.628746
 30
0.0
 42
-0.125654
  0
VERTEX
  5
155
  8
TRAPEZ-VELKY
 10
178.295233
 20
-294.319936
 30
0.0
  0
VERTEX
  5
156
  8
TRAPEZ-VELKY
 10
186.416026
 20
-285.44992
 30
0.0
 42
0.125654
  0
VERTEX
  5
157
  8
TRAPEZ-VELKY
 10
187.116373
 20
-284.14111
 30
0.0
  0
VERTEX
  5
158
  8
TRAPEZ-VELKY
 10
212.594222
 20
-180.628746
 30
0.0
 42
-0.125654
  0
VERTEX
  5
159
  8
TRAPEZ-VELKY
 10
213.294569
 20
-179.319936
 30
0.0
  0
VERTEX
  5
15A
  8
TRAPEZ-VELKY
 10
221.415361
 20
-170.44992
 30
0.0
 42
0.125654
  0
VERTEX
  5
15B
  8
TRAPEZ-VELKY
 10
222.115708
 20
-169.14111
 30
0.0
  0
VERTEX
  5
15C
  8
TRAPEZ-VELKY
 10
226.293375
 20
-152.167927
 30
0.0
 42
-0.34517
  0
VERTEX
  5
15D
  8
TRAPEZ-VELKY
 10
229.206433
 20
-149.884928
 30
0.0
  0
VERTEX
  5
15E
  8
TRAPEZ-VELKY
 10
263.534568
 20
-149.884928
 30
0.0
 42
-0.13432
  0
VERTEX
  5
15F
  8
TRAPEZ-VELKY
 10
265.061727
 20
-150.302723
 30
0.0
  0
VERTEX
  5
160
  8
TRAPEZ-VELKY
 10
276.328138
 20
-156.965865
 30
0.0
 42
0.273576
  0
VERTEX
  5
161
  8
TRAPEZ-VELKY
 10
279.382456
 20
-156.965865
 30
0.0
  0
VERTEX
  5
162
  8
TRAPEZ-VELKY
 10
290.648867
 20
-150.302723
 30
0.0
 42
-0.13432
  0
VERTEX
  5
163
  8
TRAPEZ-VELKY
 10
292.176026
 20
-149.884928
 30
0.0
  0
VERTEX
  5
164
  8
TRAPEZ-VELKY
 10
326.504161
 20
-149.884928
 30
0.0
 42
-0.34517
  0
VERTEX
  5
165
  8
TRAPEZ-VELKY
 10
329.417219
 20
-152.167927
 30
0.0
  0
VERTEX
  5
166
  8
TRAPEZ-VELKY
 10
333.594887
 20
-169.14111
 30
0.0
 42
0.125654
  0
VERTEX
  5
167
  8
TRAPEZ-VELKY
 10
334.295233
 20
-170.44992
 30
0.0
  0
VERTEX
  5
168
  8
TRAPEZ-VELKY
 10
342.416026
 20
-179.319936
 30
0.0
 42
-0.125654
  0
VERTEX
  5
169
  8
TRAPEZ-VELKY
 10
343.116373
 20
-180.628746
 30
0.0
  0
VERTEX
  5
16A
  8
TRAPEZ-VELKY
 10
368.594222
 20
-284.14111
 30
0.0
 42
0.125654
  0
VERTEX
  5
16B
  8
TRAPEZ-VELKY
 10
369.294569
 20
-285.44992
 30
0.0
  0
VERTEX
  5
16C
  8
TRAPEZ-VELKY
 10
377.415361
 20
-294.319936
 30
0.0
 42
-0.125654
  0
VERTEX
  5
16D
  8
TRAPEZ-VELKY
 10
378.115708
 20
-295.628746
 30
0.0
  0
VERTEX
  5
16E
  8
TRAPEZ-VELKY
 10
382.293375
 20
-312.601929
 30
0.0
 42
0.34517
  0
VERTEX
  5
16F
  8
TRAPEZ-VELKY
 10
385.206433
 20
-314.884928
 30
0.0
  0
VERTEX
  5
170
  8
TRAPEZ-VELKY
 10
402.855297
 20
-314.884928
 30
0.0
  0
VERTEX
  5
171
  8
TRAPEZ-VELKY
 10
420.504161
 20
-314.884928
 30
0.0
 42
0.34517
  0
VERTEX
  5
172
  8
TRAPEZ-VELKY
 10
423.417219
 20
-312.601929
 30
0.0
  0
VERTEX
  5
173
  8
TRAPEZ-VELKY
 10
427.594887
 20
-295.628746
 30
0.0
 42
-0.125654
  0
VERTEX
  5
174
  8
TRAPEZ-VELKY
 10
428.295233
 20
-294.319936
 30
0.0
  0
VERTEX
  5
175
  8
TRAPEZ-VELKY
 10
436.416026
 20
-285.44992
 30
0.0
 42
0.125654
  0
VERTEX
  5
176
  8
TRAPEZ-VELKY
 10
437.116373
 20
-284.14111
 30
0.0
  0
VERTEX
  5
177
  8
TRAPEZ-VELKY
 10
462.594222
 20
-180.628746
 30
0.0
 42
-0.125654
  0
VERTEX
  5
178
  8
TRAPEZ-VELKY
 10
463.294569
 20
-179.319936
 30
0.0
  0
VERTEX
  5
179
  8
TRAPEZ-VELKY
 10
471.415361
 20
-170.44992
 30
0.0
 42
0.125654
  0
VERTEX
  5
17A
  8
TRAPEZ-VELKY
 10
472.115708
 20
-169.14111
 30
0.0
  0
VERTEX
  5
17B
  8
TRAPEZ-VELKY
 10
476.293375
 20
-152.167927
 30
0.0
 42
-0.34517
  0
VERTEX
  5
17C
  8
TRAPEZ-VELKY
 10
479.206433
 20
-149.884928
 30
0.0
  0
VERTEX
  5
17D
  8
TRAPEZ-VELKY
 10
513.534568
 20
-149.884928
 30
0.0
 42
-0.13432
  0
VERTEX
  5
17E
  8
TRAPEZ-VELKY
 10
515.061727
 20
-150.302723
 30
0.0
  0
VERTEX
  5
17F
  8
TRAPEZ-VELKY
 10
526.328138
 20
-156.965865
 30
0.0
 42
0.273576
  0
VERTEX
  5
180
  8
TRAPEZ-VELKY
 10
529.382456
 20
-156.965865
 30
0.0
  0
VERTEX
  5
181
  8
TRAPEZ-VELKY
 10
540.648867
 20
-150.302723
 30
0.0
 42
-0.13432
  0
VERTEX
  5
182
  8
TRAPEZ-VELKY
 10
542.176026
 20
-149.884928
 30
0.0
  0
VERTEX
  5
183
  8
TRAPEZ-VELKY
 10
576.504161
 20
-149.884928
 30
0.0
 42
-0.34517
  0
VERTEX
  5
184
  8
TRAPEZ-VELKY
 10
579.417219
 20
-152.167927
 30
0.0
  0
VERTEX
  5
185
  8
TRAPEZ-VELKY
 10
583.594887
 20
-169.14111
 30
0.0
 42
0.125654
  0
VERTEX
  5
186
  8
TRAPEZ-VELKY
 10
584.295233
 20
-170.44992
 30
0.0
  0
VERTEX
  5
187
  8
TRAPEZ-VELKY
 10
592.416026
 20
-179.319936
 30
0.0
 42
-0.125654
  0
VERTEX
  5
188
  8
TRAPEZ-VELKY
 10
593.116373
 20
-180.628746
 30
0.0
  0
VERTEX
  5
189
  8
TRAPEZ-VELKY
 10
618.594222
 20
-284.14111
 30
0.0
 42
0.125654
  0
VERTEX
  5
18A
  8
TRAPEZ-VELKY
 10
619.294569
 20
-285.44992
 30
0.0
  0
VERTEX
  5
18B
  8
TRAPEZ-VELKY
 10
627.415361
 20
-294.319936
 30
0.0
 42
-0.125654
  0
VERTEX
  5
18C
  8
TRAPEZ-VELKY
 10
628.115708
 20
-295.628746
 30
0.0
  0
VERTEX
  5
18D
  8
TRAPEZ-VELKY
 10
632.293375
 20
-312.601929
 30
0.0
 42
0.34517
  0
VERTEX
  5
18E
  8
TRAPEZ-VELKY
 10
635.206433
 20
-314.884928
 30
0.0
  0
VERTEX
  5
18F
  8
TRAPEZ-VELKY
 10
652.855297
 20
-314.884928
 30
0.0
  0
VERTEX
  5
190
  8
TRAPEZ-VELKY
 10
670.504161
 20
-314.884928
 30
0.0
 42
0.34517
  0
VERTEX
  5
191
  8
TRAPEZ-VELKY
 10
673.417219
 20
-312.601929
 30
0.0
  0
VERTEX
  5
192
  8
TRAPEZ-VELKY
 10
677.594887
 20
-295.628746
 30
0.0
 42
-0.125654
  0
VERTEX
  5
193
  8
TRAPEZ-VELKY
 10
678.295233
 20
-294.319936
 30
0.0
  0
VERTEX
  5
194
  8
TRAPEZ-VELKY
 10
686.416026
 20
-285.44992
 30
0.0
 42
0.125654
  0
VERTEX
  5
195
  8
TRAPEZ-VELKY
 10
687.116373
 20
-284.14111
 30
0.0
  0
VERTEX
  5
196
  8
TRAPEZ-VELKY
 10
712.594222
 20
-180.628746
 30
0.0
 42
-0.125654
  0
VERTEX
  5
197
  8
TRAPEZ-VELKY
 10
713.294569
 20
-179.319936
 30
0.0
  0
VERTEX
  5
198
  8
TRAPEZ-VELKY
 10
721.415361
 20
-170.44992
 30
0.0
 42
0.125654
  0
VERTEX
  5
199
  8
TRAPEZ-VELKY
 10
722.115708
 20
-169.14111
 30
0.0
  0
VERTEX
  5
19A
  8
TRAPEZ-VELKY
 10
726.293375
 20
-152.167927
 30
0.0
 42
-0.34517
  0
VERTEX
  5
19B
  8
TRAPEZ-VELKY
 10
729.206433
 20
-149.884928
 30
0.0
  0
VERTEX
  5
19C
  8
TRAPEZ-VELKY
 10
763.534568
 20
-149.884928
 30
0.0
 42
-0.13432
  0
VERTEX
  5
19D
  8
TRAPEZ-VELKY
 10
765.061727
 20
-150.302723
 30
0.0
  0
VERTEX
  5
19E
  8
TRAPEZ-VELKY
 10
776.328138
 20
-156.965865
 30
0.0
 42
0.273576
  0
VERTEX
  5
19F
  8
TRAPEZ-VELKY
 10
779.382456
 20
-156.965865
 30
0.0
  0
VERTEX
  5
1A0
  8
TRAPEZ-VELKY
 10
790.648867
 20
-150.302723
 30
0.0
 42
-0.13432
  0
VERTEX
  5
1A1
  8
TRAPEZ-VELKY
 10
792.176026
 20
-149.884928
 30
0.0
  0
VERTEX
  5
1A2
  8
TRAPEZ-VELKY
 10
826.504161
 20
-149.884928
 30
0.0
 42
-0.34517
  0
VERTEX
  5
1A3
  8
TRAPEZ-VELKY
 10
829.417219
 20
-152.167927
 30
0.0
  0
VERTEX
  5
1A4
  8
TRAPEZ-VELKY
 10
833.594887
 20
-169.14111
 30
0.0
 42
0.125654
  0
VERTEX
  5
1A5
  8
TRAPEZ-VELKY
 10
834.295233
 20
-170.44992
 30
0.0
  0
VERTEX
  5
1A6
  8
TRAPEZ-VELKY
 10
842.416026
 20
-179.319936
 30
0.0
 42
-0.125654
  0
VERTEX
  5
1A7
  8
TRAPEZ-VELKY
 10
843.116373
 20
-180.628746
 30
0.0
  0
VERTEX
  5
1A8
  8
TRAPEZ-VELKY
 10
868.594222
 20
-284.14111
 30
0.0
 42
0.125654
  0
VERTEX
  5
1A9
  8
TRAPEZ-VELKY
 10
869.294569
 20
-285.44992
 30
0.0
  0
VERTEX
  5
1AA
  8
TRAPEZ-VELKY
 10
877.415361
 20
-294.319936
 30
0.0
 42
-0.125654
  0
VERTEX
  5
1AB
  8
TRAPEZ-VELKY
 10
878.115708
 20
-295.628746
 30
0.0
  0
VERTEX
  5
1AC
  8
TRAPEZ-VELKY
 10
882.293375
 20
-312.601929
 30
0.0
 42
0.34517
  0
VERTEX
  5
1AD
  8
TRAPEZ-VELKY
 10
885.206433
 20
-314.884928
 30
0.0
  0
VERTEX
  5
1AE
  8
TRAPEZ-VELKY
 10
902.855297
 20
-314.884928
 30
0.0
  0
VERTEX
  5
1AF
  8
TRAPEZ-VELKY
 10
912.855297
 20
-314.884928
 30
0.0
  0
SEQEND
  5
1B0
  8
TRAPEZ-VELKY
  0
DIMENSION
  5
4A
  8
KOTY-UPLNE
  2
*D6
 10
623.900581
 20
-149.884928
 30
0.0
 11
608.150581
 21
-135.535631
 31
0.0
 12
-5443.32739
 22
-1837.342654
 32
0.0
 70
   128
 13
527.855297
 23
-157.383659
 33
0.0
 14
578.855297
 24
-149.884928
 34
0.0
 50
90.0
1001
ACAD
1000
DSTYLE
1002
{
1070
    40
1040
3.0
1070
   147
1040
2.0
1002
}
  0
DIMENSION
  5
5A
  8
KOTY-UPLNE
  2
*D3
 10
672.855297
 20
-374.884928
 30
0.0
 11
652.855297
 21
-359.224928
 31
0.0
 12
-5443.32739
 22
-1837.342654
 32
0.0
 13
632.855297
 23
-314.884928
 33
0.0
 14
672.855297
 24
-314.884928
 34
0.0
1001
ACAD
1000
DSTYLE
1002
{
1070
    40
1040
3.0
1070
   147
1040
2.0
1002
}
  0
TEXT
  8
0
  40
40
  5
1C3
  72
0
  71
0
 10
661.731
 20
-94.1240
 30
0.000000
  1
TR 165/250
  7
STYLE1
  0
TEXT
  8
0
  40
16.5
  5
1C4
  62
5
  72
0
  71
0
 10
364.207
 20
-187.534
 30
0.000000
  1
R=2
  0
POLYLINE
  8
0
  5
1C5
  66
     1
 10
0.000000
 20
0.000000
 30
0.000000
  70
     8
  0
VERTEX
  8
0
  5
1C6
 10
422.855
 20
-314.885
 30
0.000000
  70
    32
  0
VERTEX
  8
0
  5
1C7
 10
418.207
 20
-172.579
 30
0.000000
  70
    32
  0
VERTEX
  8
0
  5
1C8
 10
403.207
 20
-172.579
 30
0.000000
  70
    32
  0
SEQEND
  8
0
  5
1C9
  0
TEXT
  8
0
  40
16.5
  5
1CA
  62
5
  72
0
  71
0
 10
382.995
 20
-150.004
 30
0.000000
  1
R=3
  0
POLYLINE
  8
0
  5
1CB
  66
     1
 10
0.000000
 20
0.000000
 30
0.000000
  70
     8
  0
VERTEX
  8
0
  5
1CC
 10
436.933
 20
-284.885
 30
0.000000
  70
    32
  0
VERTEX
  8
0
  5
1CD
 10
436.995
 20
-135.049
 30
0.000000
  70
    32
  0
VERTEX
  8
0
  5
1CE
 10
421.995
 20
-135.049
 30
0.000000
  70
    32
  0
SEQEND
  8
0
  5
1CF
  0
TEXT
  8
0
  40
16.5
  5
1D0
  62
5
  72
0
  71
0
 10
478.271
 20
-292.446
 30
0.000000
  1
R=3
  0
POLYLINE
  8
0
  5
1D1
  66
     1
 10
0.000000
 20
0.000000
 30
0.000000
  70
     8
  0
VERTEX
  8
0
  5
1D2
 10
462.777
 20
-179.885
 30
0.000000
  70
    32
  0
VERTEX
  8
0
  5
1D3
 10
490.271
 20
-277.491
 30
0.000000
  70
    32
  0
VERTEX
  8
0
  5
1D4
 10
505.271
 20
-277.491
 30
0.000000
  70
    32
  0
SEQEND
  8
0
  5
1D5
  0
DIMENSION
  5
72
  8
KOTY-UPLNE
  2
*D15
 10
470.942342
 20
-119.515072
 30
0.0
 11
478.280661
 21
-103.298982
 31
0.0
 12
-5443.32739
 22
-1837.342654
 32
0.0
  1
2x6,5
 13
465.621003
 23
-168.331426
 33
0.0
 14
427.777965
 24
-294.884928
 34
0.0
 50
346.172454
1001
ACAD
1000
DSTYLE
1002
{
1070
    40
1040
3.0
1070
   147
1040
2.0
1002
}
  0
DIMENSION
  5
81
  8
KOTY-UPLNE
  2
*D7
 10
291.355297
 20
-314.884928
 30
0.0
 11
277.855297
 21
-299.224928
 31
0.0
 12
-5443.32739
 22
-1837.342654
 32
0.0
 13
264.355297
 23
-149.884928
 33
0.0
 14
291.355297
 24
-149.884928
 34
0.0
1001
ACAD
1000
DSTYLE
1002
{
1070
    40
1040
3.0
1070
   147
1040
2.0
1002
}
  0
DIMENSION
  5
90
  8
KOTY-UPLNE
  2
*D2
 10
382.855297
 20
-101.074478
 30
0.0
 11
355.855297
 21
-85.414478
 31
0.0
 12
-5443.32739
 22
-1837.342654
 32
0.0
 13
328.855297
 23
-149.884928
 33
0.0
 14
382.855297
 24
-314.884928
 34
0.0
1001
ACAD
1000
DSTYLE
1002
{
1070
    40
1040
3.0
1070
   147
1040
2.0
1002
}
  0
POLYLINE
  8
0
  5
1D6
  66
     1
 10
0.000000
 20
0.000000
 30
0.000000
  70
     8
  0
VERTEX
  8
0
  5
1D7
 10
427.778
 20
-294.885
 30
0.000000
  70
    32
  0
VERTEX
  8
0
  5
1D8
 10
487.271
 20
-278.991
 30
0.000000
  70
    32
  0
SEQEND
  8
0
  5
1D9
  0
DIMENSION
  5
9E
  8
KOTY-UPLNE
  2
*D1
 10
328.855297
 20
-101.074478
 30
0.0
 11
277.855297
 21
-85.414478
 31
0.0
 12
-5443.32739
 22
-1837.342654
 32
0.0
 13
226.855297
 23
-149.884928
 33
0.0
 14
328.855297
 24
-149.884928
 34
0.0
1001
ACAD
1000
DSTYLE
1002
{
1070
    40
1040
3.0
1070
   147
1040
2.0
1002
}
  0
TEXT
  8
0
  40
16.5
  5
1DA
  62
5
  72
0
  71
0
 10
538.052
 20
-120.151
 30
0.000000
  1
R=3
  0
TEXT
  8
0
  40
16.5
  5
1DB
  62
5
  72
0
  71
0
 10
496.205
 20
-215.681
 30
0.000000
  1
R=3
  0
POLYLINE
  8
0
  5
1DC
  66
     1
 10
0.000000
 20
0.000000
 30
0.000000
  70
     8
  0
VERTEX
  8
0
  5
1DD
 10
514.355
 20
-149.885
 30
0.000000
  70
    32
  0
VERTEX
  8
0
  5
1DE
 10
508.205
 20
-200.726
 30
0.000000
  70
    32
  0
VERTEX
  8
0
  5
1DF
 10
523.205
 20
-200.726
 30
0.000000
  70
    32
  0
SEQEND
  8
0
  5
1E0
  0
TEXT
  8
0
  40
16.5
  5
1E1
  62
5
  72
0
  71
0
 10
490.227
 20
-256.623
 30
0.000000
  1
R=2
  0
POLYLINE
  8
0
  5
1E2
  66
     1
 10
0.000000
 20
0.000000
 30
0.000000
  70
     8
  0
VERTEX
  8
0
  5
1E3
 10
476.855
 20
-149.885
 30
0.000000
  70
    32
  0
VERTEX
  8
0
  5
1E4
 10
502.227
 20
-241.668
 30
0.000000
  70
    32
  0
VERTEX
  8
0
  5
1E5
 10
517.227
 20
-241.668
 30
0.000000
  70
    32
  0
SEQEND
  8
0
  5
1E6
  0
POLYLINE
  8
0
  5
1E7
  66
     1
 10
0.000000
 20
0.000000
 30
0.000000
  70
     8
  0
VERTEX
  8
0
  5
1E8
 10
471.933
 20
-169.885
 30
0.000000
  70
    32
  0
VERTEX
  8
0
  5
1E9
 10
439.995
 20
-136.549
 30
0.000000
  70
    32
  0
SEQEND
  8
0
  5
1EA
  0
DIMENSION
  5
B1
  8
KOTY-UPLNE
  2
*D14
 10
477.253969
 20
-121.068574
 30
0.0
 11
480.409782
 21
-121.845325
 31
0.0
 12
-5443.32739
 22
-1837.342654
 32
0.0
 70
     1
  1
 
 13
471.932629
 23
-169.884928
 33
0.0
 14
465.621003
 24
-168.331426
 34
0.0
1001
ACAD
1000
DSTYLE
1002
{
1070
    40
1040
3.0
1070
   147
1040
2.0
1002
}
  0
POLYLINE
  8
0
  5
1EB
  66
     1
 10
0.000000
 20
0.000000
 30
0.000000
  70
     8
  0
VERTEX
  8
0
  5
1EC
 10
526.328
 20
-156.966
 30
0.000000
  70
    32
  0
VERTEX
  8
0
  5
1ED
 10
550.052
 20
-105.196
 30
0.000000
  70
    32
  0
VERTEX
  8
0
  5
1EE
 10
565.052
 20
-105.196
 30
0.000000
  70
    32
  0
SEQEND
  8
0
  5
1EF
  0
DIMENSION
  5
C0
  8
KOTY-UPLNE
  2
*D17
 10
672.855297
 20
-314.884928
 30
0.0
 11
791.981045
 21
-221.524643
 31
0.0
 12
-5443.32739
 22
-1837.342654
 32
0.0
 70
     2
  1
76,17%%D
 13
672.855297
 23
-314.884928
 33
0.0
 14
677.777965
 24
-294.884928
 34
0.0
 15
652.855297
 25
-314.884928
 35
0.0
 16
793.776713
 26
-257.490964
 36
0.0
1001
ACAD
1000
DSTYLE
1002
{
1070
    40
1040
3.0
1070
   147
1040
2.0
1002
}
  0
DIMENSION
  5
CF
  8
KOTY-UPLNE
  2
*D16
 10
686.933294
 20
-284.884928
 30
0.0
 11
753.421034
 21
-261.581583
 31
0.0
 12
-5443.32739
 22
-1837.342654
 32
0.0
 70
     2
  1
47,52%%D
 13
677.777965
 23
-294.884928
 33
0.0
 14
746.308443
 24
-294.884928
 34
0.0
 15
677.777965
 25
-294.884928
 35
0.0
 16
740.453355
 26
-277.100393
 36
0.0
1001
ACAD
1000
DSTYLE
1002
{
1070
    40
1040
3.0
1070
   147
1040
2.0
1002
}
  0
DIMENSION
  5
DD
  8
KOTY-UPLNE
  2
*D13
 10
1015.635747
 20
-314.884928
 30
0.0
 11
999.975747
 21
-232.384928
 31
0.0
 12
-5443.32739
 22
-1837.342654
 32
0.0
 13
828.855297
 23
-149.884928
 33
0.0
 14
912.855297
 24
-314.884928
 34
0.0
 50
90.0
1001
ACAD
1000
DSTYLE
1002
{
1070
    40
1040
3.0
1070
   147
1040
2.0
1002
}
  0
DIMENSION
  5
EA
  8
KOTY-UPLNE
  2
*D10
 10
959.90955
 20
-284.884928
 30
0.0
 11
944.24955
 21
-232.384928
 31
0.0
 12
-5443.32739
 22
-1837.342654
 32
0.0
 13
842.933294
 23
-179.884928
 33
0.0
 14
868.7773
 24
-284.884928
 34
0.0
 50
90.0
1001
ACAD
1000
DSTYLE
1002
{
1070
    40
1040
3.0
1070
   147
1040
2.0
1002
}
  0
LINE
  5
F7
  8
KOTY-UPLNE
 10
677.777965
 20
-294.884928
 30
0.0
 11
746.308443
 21
-294.884928
 31
0.0
  0
TEXT
  8
0
  40
41.73
  5
1F0
  72
0
  71
0
 10
735.356
 20
-434.599
 30
0.000000
  1
B
  7
STYLE1
  0
DIMENSION
  5
FA
  8
KOTY-UPLNE
  2
*D12
 10
959.90955
 20
-314.884928
 30
0.0
 11
944.15955
 21
-342.375797
 31
0.0
 12
-5443.32739
 22
-1837.342654
 32
0.0
 70
   128
 13
877.932629
 23
-294.884928
 33
0.0
 14
912.855297
 24
-314.884928
 34
0.0
 50
90.0
1001
ACAD
1000
DSTYLE
1002
{
1070
    40
1040
3.0
1070
   147
1040
2.0
1002
}
  0
DIMENSION
  5
10A
  8
KOTY-UPLNE
  2
*D11
 10
959.90955
 20
-294.884928
 30
0.0
 11
983.223653
 21
-289.884928
 31
0.0
 12
-5443.32739
 22
-1837.342654
 32
0.0
 70
   128
 13
868.7773
 23
-284.884928
 33
0.0
 14
877.932629
 24
-294.884928
 34
0.0
 50
90.0
1001
ACAD
1000
DSTYLE
1002
{
1070
    40
1040
3.0
1070
   147
1040
2.0
1002
}
  0
TEXT
  8
0
  40
41.73
  5
1F1
  72
0
  71
0
 10
661.107
 20
-225.830
 30
0.000000
  1
A
  7
STYLE1
  0
DIMENSION
  5
11B
  8
KOTY-UPLNE
  2
*D9
 10
959.90955
 20
-179.884928
 30
0.0
 11
980.941855
 21
-174.884928
 31
0.0
 12
-5443.32739
 22
-1837.342654
 32
0.0
 70
   128
 13
833.777965
 23
-169.884928
 33
0.0
 14
842.933294
 24
-179.884928
 34
0.0
 50
90.0
1001
ACAD
1000
DSTYLE
1002
{
1070
    40
1040
3.0
1070
   147
1040
2.0
1002
}
  0
DIMENSION
  5
12B
  8
KOTY-UPLNE
  2
*D8
 10
959.90955
 20
-169.884928
 30
0.0
 11
944.15955
 21
-130.311311
 31
0.0
 12
-5443.32739
 22
-1837.342654
 32
0.0
 70
   128
 13
828.855297
 23
-149.884928
 33
0.0
 14
833.777965
 24
-169.884928
 34
0.0
 50
90.0
1001
ACAD
1000
DSTYLE
1002
{
1070
    40
1040
3.0
1070
   147
1040
2.0
1002
}
  0
ENDSEC
  0
EOF
