  0
SECTION
  2
HEADER
  9
$ACADVER
  1
AC1014
  9
$ACADMAINTVER
 70
     0
  9
$DWGCODEPAGE
  3
ANSI_1250
  9
$INSBASE
 10
0.0
 20
0.0
 30
0.0
  9
$EXTMIN
 10
0.0
 20
-477.001233
 30
0.0
  9
$EXTMAX
 10
1349.672502
 20
0.0
 30
0.0
  9
$LIMMIN
 10
-1000.0
 20
-1000.0
  9
$LIMMAX
 10
1000.0
 20
1000.0
  9
$ORTHOMODE
 70
     0
  9
$REGENMODE
 70
     1
  9
$FILLMODE
 70
     1
  9
$QTEXTMODE
 70
     0
  9
$MIRRTEXT
 70
     0
  9
$DRAGMODE
 70
     2
  9
$LTSCALE
 40
3.0
  9
$OSMODE
 70
    32
  9
$ATTMODE
 70
     1
  9
$TEXTSIZE
 40
50.0
  9
$TRACEWID
 40
0.05
  9
$TEXTSTYLE
  7
STANDARD
  9
$CLAYER
  8
KOTY-UPLNE
  9
$CELTYPE
  6
BYLAYER
  9
$CECOLOR
 62
   256
  9
$CELTSCALE
 40
1.0
  9
$DELOBJ
 70
     1
  9
$DISPSILH
 70
     0
  9
$DIMSCALE
 40
3.0
  9
$DIMASZ
 40
5.0
  9
$DIMEXO
 40
1.0
  9
$DIMDLI
 40
0.0
  9
$DIMRND
 40
1.0
  9
$DIMDLE
 40
1.0
  9
$DIMEXE
 40
2.0
  9
$DIMTP
 40
0.0
  9
$DIMTM
 40
0.0
  9
$DIMTXT
 40
6.44
  9
$DIMCEN
 40
1.0
  9
$DIMTSZ
 40
0.0
  9
$DIMTOL
 70
     0
  9
$DIMLIM
 70
     0
  9
$DIMTIH
 70
     0
  9
$DIMTOH
 70
     0
  9
$DIMSE1
 70
     0
  9
$DIMSE2
 70
     0
  9
$DIMTAD
 70
     3
  9
$DIMZIN
 70
     0
  9
$DIMBLK
  1

  9
$DIMASO
 70
     1
  9
$DIMSHO
 70
     0
  9
$DIMPOST
  1

  9
$DIMAPOST
  1

  9
$DIMALT
 70
     0
  9
$DIMALTD
 70
     2
  9
$DIMALTF
 40
25.4
  9
$DIMLFAC
 40
1.0
  9
$DIMTOFL
 70
     1
  9
$DIMTVP
 40
0.0
  9
$DIMTIX
 70
     1
  9
$DIMSOXD
 70
     0
  9
$DIMSAH
 70
     0
  9
$DIMBLK1
  1

  9
$DIMBLK2
  1

  9
$DIMSTYLE
  2
UPLNE
  9
$DIMCLRD
 70
   256
  9
$DIMCLRE
 70
   256
  9
$DIMCLRT
 70
     5
  9
$DIMTFAC
 40
1.0
  9
$DIMGAP
 40
2.0
  9
$DIMJUST
 70
     0
  9
$DIMSD1
 70
     0
  9
$DIMSD2
 70
     0
  9
$DIMTOLJ
 70
     1
  9
$DIMTZIN
 70
     0
  9
$DIMALTZ
 70
     0
  9
$DIMALTTZ
 70
     0
  9
$DIMFIT
 70
     5
  9
$DIMUPT
 70
     0
  9
$DIMUNIT
 70
     2
  9
$DIMDEC
 70
     0
  9
$DIMTDEC
 70
     0
  9
$DIMALTU
 70
     2
  9
$DIMALTTD
 70
     2
  9
$DIMTXSTY
  7
STANDARD
  9
$DIMAUNIT
 70
     0
  9
$LUNITS
 70
     2
  9
$LUPREC
 70
     2
  9
$SKETCHINC
 40
0.1
  9
$FILLETRAD
 40
5.0
  9
$AUNITS
 70
     0
  9
$AUPREC
 70
     2
  9
$MENU
  1
acad
  9
$ELEVATION
 40
0.0
  9
$PELEVATION
 40
0.0
  9
$THICKNESS
 40
0.0
  9
$LIMCHECK
 70
     0
  9
$BLIPMODE
 70
     1
  9
$CHAMFERA
 40
0.0
  9
$CHAMFERB
 40
0.0
  9
$CHAMFERC
 40
0.0
  9
$CHAMFERD
 40
0.0
  9
$SKPOLY
 70
     0
  9
$TDCREATE
 40
2448722.252204629
  9
$TDUPDATE
 40
2452465.900068634
  9
$TDINDWG
 40
2.5464284722
  9
$TDUSRTIMER
 40
2.5464284722
  9
$USRTIMER
 70
     1
  9
$ANGBASE
 50
0.0
  9
$ANGDIR
 70
     0
  9
$PDMODE
 70
     0
  9
$PDSIZE
 40
0.0
  9
$PLINEWID
 40
0.0
  9
$COORDS
 70
     2
  9
$SPLFRAME
 70
     0
  9
$SPLINETYPE
 70
     6
  9
$SPLINESEGS
 70
     8
  9
$ATTDIA
 70
     0
  9
$ATTREQ
 70
     1
  9
$HANDLING
 70
     1
  9
$HANDSEED
  5
136
  9
$SURFTAB1
 70
     6
  9
$SURFTAB2
 70
     6
  9
$SURFTYPE
 70
     6
  9
$SURFU
 70
     6
  9
$SURFV
 70
     6
  9
$UCSNAME
  2

  9
$UCSORG
 10
0.0
 20
0.0
 30
0.0
  9
$UCSXDIR
 10
1.0
 20
0.0
 30
0.0
  9
$UCSYDIR
 10
0.0
 20
1.0
 30
0.0
  9
$PUCSNAME
  2

  9
$PUCSORG
 10
0.0
 20
0.0
 30
0.0
  9
$PUCSXDIR
 10
1.0
 20
0.0
 30
0.0
  9
$PUCSYDIR
 10
0.0
 20
1.0
 30
0.0
  9
$USERI1
 70
     1
  9
$USERI2
 70
     0
  9
$USERI3
 70
     0
  9
$USERI4
 70
     0
  9
$USERI5
 70
     0
  9
$USERR1
 40
0.0
  9
$USERR2
 40
0.0
  9
$USERR3
 40
0.0
  9
$USERR4
 40
0.0
  9
$USERR5
 40
0.0
  9
$WORLDVIEW
 70
     1
  9
$SHADEDGE
 70
     3
  9
$SHADEDIF
 70
    70
  9
$TILEMODE
 70
     1
  9
$MAXACTVP
 70
    16
  9
$PINSBASE
 10
0.0
 20
0.0
 30
0.0
  9
$PLIMCHECK
 70
     0
  9
$PEXTMIN
 10
1.000000E+20
 20
1.000000E+20
 30
1.000000E+20
  9
$PEXTMAX
 10
-1.000000E+20
 20
-1.000000E+20
 30
-1.000000E+20
  9
$PLIMMIN
 10
0.0
 20
0.0
  9
$PLIMMAX
 10
12.0
 20
9.0
  9
$UNITMODE
 70
     0
  9
$VISRETAIN
 70
     0
  9
$PLINEGEN
 70
     0
  9
$PSLTSCALE
 70
     0
  9
$TREEDEPTH
 70
  3020
  9
$PICKSTYLE
 70
     0
  9
$CMLSTYLE
  2
STANDARD
  9
$CMLJUST
 70
     0
  9
$CMLSCALE
 40
1.0
  9
$PROXYGRAPHICS
 70
     1
  9
$MEASUREMENT
 70
     0
  0
ENDSEC
  0
SECTION
  2
CLASSES
  0
CLASS
  1
LWPOLYLINE
  2
AcDbPolyline
  3
"AutoCAD"
 90
        0
280
     0
281
     1
  0
CLASS
  1
DICTIONARYVAR
  2
AcDbDictionaryVar
  3
"AutoCAD"
 90
        0
280
     0
281
     0
  0
ENDSEC
  0
SECTION
  2
TABLES
  0
TABLE
  2
VPORT
  5
12
100
AcDbSymbolTable
 70
     2
  0
VPORT
  5
135
100
AcDbSymbolTableRecord
100
AcDbViewportTableRecord
  2
*ACTIVE
 70
     0
 10
0.0
 20
0.0
 11
1.0
 21
1.0
 12
835.817037
 22
-216.387691
 13
0.0
 23
0.0
 14
1.0
 24
1.0
 15
600.0
 25
600.0
 16
0.0
 26
0.0
 36
1.0
 17
0.0
 27
0.0
 37
0.0
 40
822.300396
 41
2.224444
 42
50.0
 43
0.0
 44
0.0
 50
0.0
 51
0.0
 71
     0
 72
   100
 73
     1
 74
     0
 75
     0
 76
     0
 77
     0
 78
     0
  0
ENDTAB
  0
TABLE
  2
LTYPE
  5
D
100
AcDbSymbolTable
 70
     1
  0
LTYPE
  5
E
100
AcDbSymbolTableRecord
100
AcDbLinetypeTableRecord
  2
BYBLOCK
 70
     0
  3

 72
    65
 73
     0
 40
0.0
  0
LTYPE
  5
F
100
AcDbSymbolTableRecord
100
AcDbLinetypeTableRecord
  2
BYLAYER
 70
     0
  3

 72
    65
 73
     0
 40
0.0
  0
LTYPE
  5
5
100
AcDbSymbolTableRecord
100
AcDbLinetypeTableRecord
  2
CONTINUOUS
 70
     0
  3
Solid line
 72
    65
 73
     0
 40
0.0
  0
ENDTAB
  0
TABLE
  2
LAYER
  5
A
100
AcDbSymbolTable
 70
     7
  0
LAYER
  5
4
100
AcDbSymbolTableRecord
100
AcDbLayerTableRecord
  2
0
 70
     0
 62
     7
  6
CONTINUOUS
  0
LAYER
  5
1B
100
AcDbSymbolTableRecord
100
AcDbLayerTableRecord
  2
KOTY-UPLNE
 70
     0
 62
     7
  6
CONTINUOUS
  0
LAYER
  5
B7
100
AcDbSymbolTableRecord
100
AcDbLayerTableRecord
  2
RAMEC
 70
     0
 62
     5
  6
CONTINUOUS
  0
LAYER
  5
FF
100
AcDbSymbolTableRecord
100
AcDbLayerTableRecord
  2
POZICE
 70
     0
 62
     1
  6
CONTINUOUS
  0
LAYER
  5
120
100
AcDbSymbolTableRecord
100
AcDbLayerTableRecord
  2
POPIS
 70
     0
 62
     1
  6
CONTINUOUS
  0
LAYER
  5
27
100
AcDbSymbolTableRecord
100
AcDbLayerTableRecord
  2
DEFPOINTS
 70
     0
 62
     7
  6
CONTINUOUS
  0
LAYER
  5
B5
100
AcDbSymbolTableRecord
100
AcDbLayerTableRecord
  2
TRAPEZ-VELKY
 70
     0
 62
     7
  6
CONTINUOUS
  0
ENDTAB
  0
TABLE
  2
STYLE
  5
B
100
AcDbSymbolTable
 70
     2
  0
STYLE
  5
C
100
AcDbSymbolTableRecord
100
AcDbTextStyleTableRecord
  2
STANDARD
 70
     0
 40
0.0
 41
0.9
 50
0.0
 71
     0
 42
50.0
  3
simplex.shx
  4

  0
STYLE
  5
100
100
AcDbSymbolTableRecord
100
AcDbTextStyleTableRecord
  2
STYLE1
 70
     0
 40
0.0
 41
0.9
 50
0.0
 71
     0
 42
50.0
  3
simplex.shx
  4

  0
ENDTAB
  0
TABLE
  2
VIEW
  5
10
100
AcDbSymbolTable
 70
     0
  0
ENDTAB
  0
TABLE
  2
UCS
  5
11
100
AcDbSymbolTable
 70
     0
  0
ENDTAB
  0
TABLE
  2
APPID
  5
14
100
AcDbSymbolTable
 70
     1
  0
APPID
  5
15
100
AcDbSymbolTableRecord
100
AcDbRegAppTableRecord
  2
ACAD
 70
     0
  0
ENDTAB
  0
TABLE
  2
DIMSTYLE
  5
16
100
AcDbSymbolTable
 70
     1
  0
DIMSTYLE
105
1D
102
{ACAD_REACTORS
330
D5
330
101
330
C8
330
10E
330
B8
330
E2
330
A7
330
EF
330
122
330
97
330
87
330
77
330
68
330
58
330
4B
330
3B
330
2C
330
1E
102
}
100
AcDbSymbolTableRecord
100
AcDbDimStyleTableRecord
  2
UPLNE
 70
     0
  3

  4

  5

  6

  7

 40
5.0
 41
5.0
 42
1.0
 43
0.0
 44
2.0
 45
1.0
 46
1.0
 47
0.0
 48
0.0
140
6.44
141
1.0
142
0.0
143
25.4
144
1.0
145
0.0
146
1.0
147
1.0
 71
     0
 72
     0
 73
     0
 74
     0
 75
     0
 76
     0
 77
     3
 78
     0
170
     0
171
     2
172
     1
173
     0
174
     1
175
     0
176
   256
177
   256
178
     5
270
     2
271
     0
272
     0
273
     2
274
     2
340
C
275
     0
280
     0
281
     0
282
     0
283
     1
284
     0
285
     0
286
     0
287
     5
288
     0
  0
ENDTAB
  0
TABLE
  2
BLOCK_RECORD
  5
1
100
AcDbSymbolTable
 70
    18
  0
BLOCK_RECORD
  5
2
100
AcDbSymbolTableRecord
100
AcDbBlockTableRecord
  2
*MODEL_SPACE
  0
BLOCK_RECORD
  5
7
100
AcDbSymbolTableRecord
100
AcDbBlockTableRecord
  2
*PAPER_SPACE
  0
BLOCK_RECORD
  5
D6
100
AcDbSymbolTableRecord
100
AcDbBlockTableRecord
  2
*D0
  0
BLOCK_RECORD
  5
102
100
AcDbSymbolTableRecord
100
AcDbBlockTableRecord
  2
*D1
  0
BLOCK_RECORD
  5
C9
100
AcDbSymbolTableRecord
100
AcDbBlockTableRecord
  2
*D2
  0
BLOCK_RECORD
  5
10F
100
AcDbSymbolTableRecord
100
AcDbBlockTableRecord
  2
*D3
  0
BLOCK_RECORD
  5
B9
100
AcDbSymbolTableRecord
100
AcDbBlockTableRecord
  2
*D4
  0
BLOCK_RECORD
  5
E3
100
AcDbSymbolTableRecord
100
AcDbBlockTableRecord
  2
*D5
  0
BLOCK_RECORD
  5
A8
100
AcDbSymbolTableRecord
100
AcDbBlockTableRecord
  2
*D6
  0
BLOCK_RECORD
  5
F0
100
AcDbSymbolTableRecord
100
AcDbBlockTableRecord
  2
*D7
  0
BLOCK_RECORD
  5
123
100
AcDbSymbolTableRecord
100
AcDbBlockTableRecord
  2
*D8
  0
BLOCK_RECORD
  5
98
100
AcDbSymbolTableRecord
100
AcDbBlockTableRecord
  2
*D9
  0
BLOCK_RECORD
  5
88
100
AcDbSymbolTableRecord
100
AcDbBlockTableRecord
  2
*D10
  0
BLOCK_RECORD
  5
78
100
AcDbSymbolTableRecord
100
AcDbBlockTableRecord
  2
*D11
  0
BLOCK_RECORD
  5
69
100
AcDbSymbolTableRecord
100
AcDbBlockTableRecord
  2
*D12
  0
BLOCK_RECORD
  5
59
100
AcDbSymbolTableRecord
100
AcDbBlockTableRecord
  2
*D13
  0
BLOCK_RECORD
  5
4C
100
AcDbSymbolTableRecord
100
AcDbBlockTableRecord
  2
*D14
  0
BLOCK_RECORD
  5
3C
100
AcDbSymbolTableRecord
100
AcDbBlockTableRecord
  2
*D15
  0
BLOCK_RECORD
  5
2D
100
AcDbSymbolTableRecord
100
AcDbBlockTableRecord
  2
*D16
  0
BLOCK_RECORD
  5
1F
100
AcDbSymbolTableRecord
100
AcDbBlockTableRecord
  2
*D17
  0
ENDTAB
  0
ENDSEC
  0
SECTION
  2
BLOCKS
  0
BLOCK
  5
3
100
AcDbEntity
  8
0
100
AcDbBlockBegin
  2
*MODEL_SPACE
 70
     0
 10
0.0
 20
0.0
 30
0.0
  3
*MODEL_SPACE
  1

  0
ENDBLK
  5
6
100
AcDbEntity
  8
0
100
AcDbBlockEnd
  0
BLOCK
  5
8
100
AcDbEntity
 67
     1
  8
0
100
AcDbBlockBegin
  2
*PAPER_SPACE
 70
     0
 10
0.0
 20
0.0
 30
0.0
  3
*PAPER_SPACE
  1

  0
ENDBLK
  5
9
100
AcDbEntity
 67
     1
  8
0
100
AcDbBlockEnd
  0
BLOCK
  5
E0
100
AcDbEntity
  8
0
100
AcDbBlockBegin
  2
*D0
 70
     1
 10
0.0
 20
0.0
 30
0.0
  3
*D0
  1

  0
LINE
  5
D7
100
AcDbEntity
  8
0
  6
BYBLOCK
100
AcDbLine
 10
4116.682687
 20
-4467.542274
 30
0.0
 11
4116.682687
 21
-4257.731824
 31
0.0
  0
LINE
  5
D8
100
AcDbEntity
  8
0
  6
BYBLOCK
100
AcDbLine
 10
4161.682687
 20
-4309.542274
 30
0.0
 11
4161.682687
 21
-4257.731824
 31
0.0
  0
LINE
  5
D9
100
AcDbEntity
  8
0
  6
BYBLOCK
100
AcDbLine
 10
4131.682687
 20
-4263.731824
 30
0.0
 11
4146.682687
 21
-4263.731824
 31
0.0
  0
SOLID
  5
DA
100
AcDbEntity
  8
0
  6
BYBLOCK
100
AcDbTrace
 10
4131.682687
 20
-4261.231824
 30
0.0
 11
4131.682687
 21
-4266.231824
 31
0.0
 12
4116.682687
 22
-4263.731824
 32
0.0
 13
4116.682687
 23
-4263.731824
 33
0.0
  0
SOLID
  5
DB
100
AcDbEntity
  8
0
  6
BYBLOCK
100
AcDbTrace
 10
4146.682687
 20
-4261.231824
 30
0.0
 11
4146.682687
 21
-4266.231824
 31
0.0
 12
4161.682687
 22
-4263.731824
 32
0.0
 13
4161.682687
 23
-4263.731824
 33
0.0
  0
MTEXT
  5
DC
100
AcDbEntity
  8
0
  6
BYBLOCK
 62
     5
100
AcDbMText
 10
4139.182687
 20
-4248.071824
 30
0.0
 40
19.32
 41
0.0
 71
     5
 72
     1
  1
\A1;45
  0
POINT
  5
DD
100
AcDbEntity
  8
DEFPOINTS
  6
BYBLOCK
 62
     0
100
AcDbPoint
 10
4116.682687
 20
-4470.542274
 30
0.0
  0
POINT
  5
DE
100
AcDbEntity
  8
DEFPOINTS
  6
BYBLOCK
 62
     0
100
AcDbPoint
 10
4161.682687
 20
-4312.542274
 30
0.0
  0
POINT
  5
DF
100
AcDbEntity
  8
DEFPOINTS
  6
BYBLOCK
 62
     0
100
AcDbPoint
 10
4161.682687
 20
-4263.731824
 30
0.0
  0
ENDBLK
  5
E1
100
AcDbEntity
  8
0
100
AcDbBlockEnd
  0
BLOCK
  5
10C
100
AcDbEntity
  8
0
100
AcDbBlockBegin
  2
*D1
 70
     1
 10
0.0
 20
0.0
 30
0.0
  3
*D1
  1

  0
LINE
  5
103
100
AcDbEntity
  8
0
  6
BYBLOCK
100
AcDbLine
 10
4161.682687
 20
-4309.542274
 30
0.0
 11
4161.682687
 21
-4257.731824
 31
0.0
  0
LINE
  5
104
100
AcDbEntity
  8
0
  6
BYBLOCK
100
AcDbLine
 10
4280.682687
 20
-4309.542274
 30
0.0
 11
4280.682687
 21
-4257.731824
 31
0.0
  0
LINE
  5
105
100
AcDbEntity
  8
0
  6
BYBLOCK
100
AcDbLine
 10
4176.682687
 20
-4263.731824
 30
0.0
 11
4265.682687
 21
-4263.731824
 31
0.0
  0
SOLID
  5
106
100
AcDbEntity
  8
0
  6
BYBLOCK
100
AcDbTrace
 10
4176.682687
 20
-4261.231824
 30
0.0
 11
4176.682687
 21
-4266.231824
 31
0.0
 12
4161.682687
 22
-4263.731824
 32
0.0
 13
4161.682687
 23
-4263.731824
 33
0.0
  0
SOLID
  5
107
100
AcDbEntity
  8
0
  6
BYBLOCK
100
AcDbTrace
 10
4265.682687
 20
-4261.231824
 30
0.0
 11
4265.682687
 21
-4266.231824
 31
0.0
 12
4280.682687
 22
-4263.731824
 32
0.0
 13
4280.682687
 23
-4263.731824
 33
0.0
  0
MTEXT
  5
108
100
AcDbEntity
  8
0
  6
BYBLOCK
 62
     5
100
AcDbMText
 10
4221.182687
 20
-4248.071824
 30
0.0
 40
19.32
 41
0.0
 71
     5
 72
     1
  1
\A1;119
  0
POINT
  5
109
100
AcDbEntity
  8
DEFPOINTS
  6
BYBLOCK
 62
     0
100
AcDbPoint
 10
4161.682687
 20
-4312.542274
 30
0.0
  0
POINT
  5
10A
100
AcDbEntity
  8
DEFPOINTS
  6
BYBLOCK
 62
     0
100
AcDbPoint
 10
4280.682687
 20
-4312.542274
 30
0.0
  0
POINT
  5
10B
100
AcDbEntity
  8
DEFPOINTS
  6
BYBLOCK
 62
     0
100
AcDbPoint
 10
4280.682687
 20
-4263.731824
 30
0.0
  0
ENDBLK
  5
10D
100
AcDbEntity
  8
0
100
AcDbBlockEnd
  0
BLOCK
  5
D3
100
AcDbEntity
  8
0
100
AcDbBlockBegin
  2
*D2
 70
     1
 10
0.0
 20
0.0
 30
0.0
  3
*D2
  1

  0
LINE
  5
CA
100
AcDbEntity
  8
0
  6
BYBLOCK
100
AcDbLine
 10
4280.682687
 20
-4309.542274
 30
0.0
 11
4280.682687
 21
-4257.731824
 31
0.0
  0
LINE
  5
CB
100
AcDbEntity
  8
0
  6
BYBLOCK
100
AcDbLine
 10
4325.682687
 20
-4467.542274
 30
0.0
 11
4325.682687
 21
-4257.731824
 31
0.0
  0
LINE
  5
CC
100
AcDbEntity
  8
0
  6
BYBLOCK
100
AcDbLine
 10
4295.682687
 20
-4263.731824
 30
0.0
 11
4310.682687
 21
-4263.731824
 31
0.0
  0
SOLID
  5
CD
100
AcDbEntity
  8
0
  6
BYBLOCK
100
AcDbTrace
 10
4295.682687
 20
-4261.231824
 30
0.0
 11
4295.682687
 21
-4266.231824
 31
0.0
 12
4280.682687
 22
-4263.731824
 32
0.0
 13
4280.682687
 23
-4263.731824
 33
0.0
  0
SOLID
  5
CE
100
AcDbEntity
  8
0
  6
BYBLOCK
100
AcDbTrace
 10
4310.682687
 20
-4261.231824
 30
0.0
 11
4310.682687
 21
-4266.231824
 31
0.0
 12
4325.682687
 22
-4263.731824
 32
0.0
 13
4325.682687
 23
-4263.731824
 33
0.0
  0
MTEXT
  5
CF
100
AcDbEntity
  8
0
  6
BYBLOCK
 62
     5
100
AcDbMText
 10
4303.182687
 20
-4248.071824
 30
0.0
 40
19.32
 41
0.0
 71
     5
 72
     1
  1
\A1;45
  0
POINT
  5
D0
100
AcDbEntity
  8
DEFPOINTS
  6
BYBLOCK
 62
     0
100
AcDbPoint
 10
4280.682687
 20
-4312.542274
 30
0.0
  0
POINT
  5
D1
100
AcDbEntity
  8
DEFPOINTS
  6
BYBLOCK
 62
     0
100
AcDbPoint
 10
4325.682687
 20
-4470.542274
 30
0.0
  0
POINT
  5
D2
100
AcDbEntity
  8
DEFPOINTS
  6
BYBLOCK
 62
     0
100
AcDbPoint
 10
4325.682687
 20
-4263.731824
 30
0.0
  0
ENDBLK
  5
D4
100
AcDbEntity
  8
0
100
AcDbBlockEnd
  0
BLOCK
  5
11C
100
AcDbEntity
  8
0
100
AcDbBlockBegin
  2
*D3
 70
     1
 10
0.0
 20
0.0
 30
0.0
  3
*D3
  1

  0
LINE
  5
110
100
AcDbEntity
  8
0
  6
BYBLOCK
100
AcDbLine
 10
4224.182687
 20
-4318.542274
 30
0.0
 11
4364.38665
 21
-4318.542274
 31
0.0
  0
LINE
  5
111
100
AcDbEntity
  8
0
  6
BYBLOCK
100
AcDbLine
 10
4283.682687
 20
-4312.542274
 30
0.0
 11
4364.38665
 21
-4312.542274
 31
0.0
  0
LINE
  5
112
100
AcDbEntity
  8
0
  6
BYBLOCK
100
AcDbLine
 10
4358.38665
 20
-4333.542274
 30
0.0
 11
4358.38665
 21
-4348.542274
 31
0.0
  0
LINE
  5
113
100
AcDbEntity
  8
0
  6
BYBLOCK
100
AcDbLine
 10
4358.38665
 20
-4297.542274
 30
0.0
 11
4358.38665
 21
-4282.542274
 31
0.0
  0
MTEXT
  5
114
100
AcDbEntity
  8
0
  6
BYBLOCK
 62
     5
100
AcDbMText
 10
4342.63665
 20
-4336.003385
 30
0.0
 40
19.32
 41
0.0
 71
     5
 72
     1
  1
\A1;6
 11
0.0
 21
1.0
 31
0.0
  0
LINE
  5
115
100
AcDbEntity
  8
0
  6
BYBLOCK
100
AcDbLine
 10
4358.38665
 20
-4318.542274
 30
0.0
 11
4358.38665
 21
-4312.542274
 31
0.0
  0
LINE
  5
116
100
AcDbEntity
  8
0
  6
BYBLOCK
100
AcDbLine
 10
4358.38665
 20
-4318.542274
 30
0.0
 11
4358.38665
 21
-4312.542274
 31
0.0
  0
SOLID
  5
117
100
AcDbEntity
  8
0
  6
BYBLOCK
100
AcDbTrace
 10
4355.88665
 20
-4333.542274
 30
0.0
 11
4360.88665
 21
-4333.542274
 31
0.0
 12
4358.38665
 22
-4318.542274
 32
0.0
 13
4358.38665
 23
-4318.542274
 33
0.0
  0
SOLID
  5
118
100
AcDbEntity
  8
0
  6
BYBLOCK
100
AcDbTrace
 10
4355.88665
 20
-4297.542274
 30
0.0
 11
4360.88665
 21
-4297.542274
 31
0.0
 12
4358.38665
 22
-4312.542274
 32
0.0
 13
4358.38665
 23
-4312.542274
 33
0.0
  0
POINT
  5
119
100
AcDbEntity
  8
DEFPOINTS
  6
BYBLOCK
 62
     0
100
AcDbPoint
 10
4221.182687
 20
-4318.542274
 30
0.0
  0
POINT
  5
11A
100
AcDbEntity
  8
DEFPOINTS
  6
BYBLOCK
 62
     0
100
AcDbPoint
 10
4280.682687
 20
-4312.542274
 30
0.0
  0
POINT
  5
11B
100
AcDbEntity
  8
DEFPOINTS
  6
BYBLOCK
 62
     0
100
AcDbPoint
 10
4358.38665
 20
-4312.542274
 30
0.0
  0
ENDBLK
  5
11D
100
AcDbEntity
  8
0
100
AcDbBlockEnd
  0
BLOCK
  5
C6
100
AcDbEntity
  8
0
100
AcDbBlockBegin
  2
*D4
 70
     1
 10
0.0
 20
0.0
 30
0.0
  3
*D4
  1

  0
LINE
  5
BA
100
AcDbEntity
  8
0
  6
BYBLOCK
100
AcDbLine
 10
4210.682687
 20
-4315.542274
 30
0.0
 11
4210.682687
 21
-4476.542274
 31
0.0
  0
LINE
  5
BB
100
AcDbEntity
  8
0
  6
BYBLOCK
100
AcDbLine
 10
4231.682687
 20
-4315.542274
 30
0.0
 11
4231.682687
 21
-4476.542274
 31
0.0
  0
LINE
  5
BC
100
AcDbEntity
  8
0
  6
BYBLOCK
100
AcDbLine
 10
4195.682687
 20
-4470.542274
 30
0.0
 11
4180.682687
 21
-4470.542274
 31
0.0
  0
LINE
  5
BD
100
AcDbEntity
  8
0
  6
BYBLOCK
100
AcDbLine
 10
4246.682687
 20
-4470.542274
 30
0.0
 11
4261.682687
 21
-4470.542274
 31
0.0
  0
MTEXT
  5
BE
100
AcDbEntity
  8
0
  6
BYBLOCK
 62
     5
100
AcDbMText
 10
4263.149356
 20
-4454.792274
 30
0.0
 40
19.32
 41
0.0
 71
     5
 72
     1
  1
\A1;21
  0
LINE
  5
BF
100
AcDbEntity
  8
0
  6
BYBLOCK
100
AcDbLine
 10
4210.682687
 20
-4470.542274
 30
0.0
 11
4231.682687
 21
-4470.542274
 31
0.0
  0
LINE
  5
C0
100
AcDbEntity
  8
0
  6
BYBLOCK
100
AcDbLine
 10
4210.682687
 20
-4470.542274
 30
0.0
 11
4231.682687
 21
-4470.542274
 31
0.0
  0
SOLID
  5
C1
100
AcDbEntity
  8
0
  6
BYBLOCK
100
AcDbTrace
 10
4195.682687
 20
-4468.042274
 30
0.0
 11
4195.682687
 21
-4473.042274
 31
0.0
 12
4210.682687
 22
-4470.542274
 32
0.0
 13
4210.682687
 23
-4470.542274
 33
0.0
  0
SOLID
  5
C2
100
AcDbEntity
  8
0
  6
BYBLOCK
100
AcDbTrace
 10
4246.682687
 20
-4468.042274
 30
0.0
 11
4246.682687
 21
-4473.042274
 31
0.0
 12
4231.682687
 22
-4470.542274
 32
0.0
 13
4231.682687
 23
-4470.542274
 33
0.0
  0
POINT
  5
C3
100
AcDbEntity
  8
DEFPOINTS
  6
BYBLOCK
 62
     0
100
AcDbPoint
 10
4210.682687
 20
-4312.542274
 30
0.0
  0
POINT
  5
C4
100
AcDbEntity
  8
DEFPOINTS
  6
BYBLOCK
 62
     0
100
AcDbPoint
 10
4231.682687
 20
-4312.542274
 30
0.0
  0
POINT
  5
C5
100
AcDbEntity
  8
DEFPOINTS
  6
BYBLOCK
 62
     0
100
AcDbPoint
 10
4231.682687
 20
-4470.542274
 30
0.0
  0
ENDBLK
  5
C7
100
AcDbEntity
  8
0
100
AcDbBlockEnd
  0
BLOCK
  5
ED
100
AcDbEntity
  8
0
100
AcDbBlockBegin
  2
*D5
 70
     1
 10
0.0
 20
0.0
 30
0.0
  3
*D5
  1

  0
LINE
  5
E4
100
AcDbEntity
  8
0
  6
BYBLOCK
100
AcDbLine
 10
4096.182687
 20
-4473.542274
 30
0.0
 11
4096.182687
 21
-4536.542274
 31
0.0
  0
LINE
  5
E5
100
AcDbEntity
  8
0
  6
BYBLOCK
100
AcDbLine
 10
4346.182687
 20
-4473.542274
 30
0.0
 11
4346.182687
 21
-4536.542274
 31
0.0
  0
LINE
  5
E6
100
AcDbEntity
  8
0
  6
BYBLOCK
100
AcDbLine
 10
4111.182687
 20
-4530.542274
 30
0.0
 11
4331.182687
 21
-4530.542274
 31
0.0
  0
SOLID
  5
E7
100
AcDbEntity
  8
0
  6
BYBLOCK
100
AcDbTrace
 10
4111.182687
 20
-4528.042274
 30
0.0
 11
4111.182687
 21
-4533.042274
 31
0.0
 12
4096.182687
 22
-4530.542274
 32
0.0
 13
4096.182687
 23
-4530.542274
 33
0.0
  0
SOLID
  5
E8
100
AcDbEntity
  8
0
  6
BYBLOCK
100
AcDbTrace
 10
4331.182687
 20
-4528.042274
 30
0.0
 11
4331.182687
 21
-4533.042274
 31
0.0
 12
4346.182687
 22
-4530.542274
 32
0.0
 13
4346.182687
 23
-4530.542274
 33
0.0
  0
MTEXT
  5
E9
100
AcDbEntity
  8
0
  6
BYBLOCK
 62
     5
100
AcDbMText
 10
4221.182687
 20
-4514.882274
 30
0.0
 40
19.32
 41
0.0
 71
     5
 72
     1
  1
\A1;250
  0
POINT
  5
EA
100
AcDbEntity
  8
DEFPOINTS
  6
BYBLOCK
 62
     0
100
AcDbPoint
 10
4096.182687
 20
-4470.542274
 30
0.0
  0
POINT
  5
EB
100
AcDbEntity
  8
DEFPOINTS
  6
BYBLOCK
 62
     0
100
AcDbPoint
 10
4346.182687
 20
-4470.542274
 30
0.0
  0
POINT
  5
EC
100
AcDbEntity
  8
DEFPOINTS
  6
BYBLOCK
 62
     0
100
AcDbPoint
 10
4346.182687
 20
-4530.542274
 30
0.0
  0
ENDBLK
  5
EE
100
AcDbEntity
  8
0
100
AcDbBlockEnd
  0
BLOCK
  5
B2
100
AcDbEntity
  8
0
100
AcDbBlockBegin
  2
*D6
 70
     1
 10
0.0
 20
0.0
 30
0.0
  3
*D6
  1

  0
LINE
  5
A9
100
AcDbEntity
  8
0
  6
BYBLOCK
100
AcDbLine
 10
4096.182687
 20
-4473.542274
 30
0.0
 11
4096.182687
 21
-4596.542274
 31
0.0
  0
LINE
  5
AA
100
AcDbEntity
  8
0
  6
BYBLOCK
100
AcDbLine
 10
4846.182687
 20
-4473.542274
 30
0.0
 11
4846.182687
 21
-4596.542274
 31
0.0
  0
LINE
  5
AB
100
AcDbEntity
  8
0
  6
BYBLOCK
100
AcDbLine
 10
4111.182687
 20
-4590.542274
 30
0.0
 11
4831.182687
 21
-4590.542274
 31
0.0
  0
SOLID
  5
AC
100
AcDbEntity
  8
0
  6
BYBLOCK
100
AcDbTrace
 10
4111.182687
 20
-4588.042274
 30
0.0
 11
4111.182687
 21
-4593.042274
 31
0.0
 12
4096.182687
 22
-4590.542274
 32
0.0
 13
4096.182687
 23
-4590.542274
 33
0.0
  0
SOLID
  5
AD
100
AcDbEntity
  8
0
  6
BYBLOCK
100
AcDbTrace
 10
4831.182687
 20
-4588.042274
 30
0.0
 11
4831.182687
 21
-4593.042274
 31
0.0
 12
4846.182687
 22
-4590.542274
 32
0.0
 13
4846.182687
 23
-4590.542274
 33
0.0
  0
MTEXT
  5
AE
100
AcDbEntity
  8
0
  6
BYBLOCK
 62
     5
100
AcDbMText
 10
4471.182687
 20
-4574.882274
 30
0.0
 40
19.32
 41
0.0
 71
     5
 72
     1
  1
\A1;750
  0
POINT
  5
AF
100
AcDbEntity
  8
DEFPOINTS
  6
BYBLOCK
 62
     0
100
AcDbPoint
 10
4096.182687
 20
-4470.542274
 30
0.0
  0
POINT
  5
B0
100
AcDbEntity
  8
DEFPOINTS
  6
BYBLOCK
 62
     0
100
AcDbPoint
 10
4846.182687
 20
-4470.542274
 30
0.0
  0
POINT
  5
B1
100
AcDbEntity
  8
DEFPOINTS
  6
BYBLOCK
 62
     0
100
AcDbPoint
 10
4846.182687
 20
-4590.542274
 30
0.0
  0
ENDBLK
  5
B3
100
AcDbEntity
  8
0
100
AcDbBlockEnd
  0
BLOCK
  5
FC
100
AcDbEntity
  8
0
100
AcDbBlockBegin
  2
*D7
 70
     1
 10
0.0
 20
0.0
 30
0.0
  3
*D7
  1

  0
LINE
  5
F1
100
AcDbEntity
  8
0
  6
BYBLOCK
100
AcDbLine
 10
4616.682687
 20
-4473.542274
 30
0.0
 11
4616.682687
 21
-4536.542274
 31
0.0
  0
LINE
  5
F2
100
AcDbEntity
  8
0
  6
BYBLOCK
100
AcDbLine
 10
4575.682687
 20
-4473.542274
 30
0.0
 11
4575.682687
 21
-4536.542274
 31
0.0
  0
LINE
  5
F3
100
AcDbEntity
  8
0
  6
BYBLOCK
100
AcDbLine
 10
4631.682687
 20
-4530.542274
 30
0.0
 11
4646.682687
 21
-4530.542274
 31
0.0
  0
LINE
  5
F4
100
AcDbEntity
  8
0
  6
BYBLOCK
100
AcDbLine
 10
4560.682687
 20
-4530.542274
 30
0.0
 11
4545.682687
 21
-4530.542274
 31
0.0
  0
LINE
  5
F5
100
AcDbEntity
  8
0
  6
BYBLOCK
100
AcDbLine
 10
4616.682687
 20
-4530.542274
 30
0.0
 11
4575.682687
 21
-4530.542274
 31
0.0
  0
SOLID
  5
F6
100
AcDbEntity
  8
0
  6
BYBLOCK
100
AcDbTrace
 10
4631.682687
 20
-4528.042274
 30
0.0
 11
4631.682687
 21
-4533.042274
 31
0.0
 12
4616.682687
 22
-4530.542274
 32
0.0
 13
4616.682687
 23
-4530.542274
 33
0.0
  0
SOLID
  5
F7
100
AcDbEntity
  8
0
  6
BYBLOCK
100
AcDbTrace
 10
4560.682687
 20
-4528.042274
 30
0.0
 11
4560.682687
 21
-4533.042274
 31
0.0
 12
4575.682687
 22
-4530.542274
 32
0.0
 13
4575.682687
 23
-4530.542274
 33
0.0
  0
MTEXT
  5
F8
100
AcDbEntity
  8
0
  6
BYBLOCK
 62
     5
100
AcDbMText
 10
4596.182687
 20
-4514.882274
 30
0.0
 40
19.32
 41
0.0
 71
     5
 72
     1
  1
\A1;41
  0
POINT
  5
F9
100
AcDbEntity
  8
DEFPOINTS
  6
BYBLOCK
 62
     0
100
AcDbPoint
 10
4616.682687
 20
-4470.542274
 30
0.0
  0
POINT
  5
FA
100
AcDbEntity
  8
DEFPOINTS
  6
BYBLOCK
 62
     0
100
AcDbPoint
 10
4575.682687
 20
-4470.542274
 30
0.0
  0
POINT
  5
FB
100
AcDbEntity
  8
DEFPOINTS
  6
BYBLOCK
 62
     0
100
AcDbPoint
 10
4575.682687
 20
-4530.542274
 30
0.0
  0
ENDBLK
  5
FD
100
AcDbEntity
  8
0
100
AcDbBlockEnd
  0
BLOCK
  5
130
100
AcDbEntity
  8
0
100
AcDbBlockBegin
  2
*D8
 70
     1
 10
0.0
 20
0.0
 30
0.0
  3
*D8
  1

  0
LINE
  5
124
100
AcDbEntity
  8
0
  6
BYBLOCK
100
AcDbLine
 10
4780.682687
 20
-4309.542274
 30
0.0
 11
4780.682687
 21
-4257.731824
 31
0.0
  0
LINE
  5
125
100
AcDbEntity
  8
0
  6
BYBLOCK
100
AcDbLine
 10
4787.182687
 20
-4346.542274
 30
0.0
 11
4787.182687
 21
-4257.731824
 31
0.0
  0
LINE
  5
126
100
AcDbEntity
  8
0
  6
BYBLOCK
100
AcDbLine
 10
4765.682687
 20
-4263.731824
 30
0.0
 11
4750.682687
 21
-4263.731824
 31
0.0
  0
LINE
  5
127
100
AcDbEntity
  8
0
  6
BYBLOCK
100
AcDbLine
 10
4802.182687
 20
-4263.731824
 30
0.0
 11
4817.182687
 21
-4263.731824
 31
0.0
  0
MTEXT
  5
128
100
AcDbEntity
  8
0
  6
BYBLOCK
 62
     5
100
AcDbMText
 10
4750.42597
 20
-4246.410396
 30
0.0
 40
19.32
 41
0.0
 71
     5
 72
     1
  1
\A1;6,5
  0
LINE
  5
129
100
AcDbEntity
  8
0
  6
BYBLOCK
100
AcDbLine
 10
4780.682687
 20
-4263.731824
 30
0.0
 11
4787.182687
 21
-4263.731824
 31
0.0
  0
LINE
  5
12A
100
AcDbEntity
  8
0
  6
BYBLOCK
100
AcDbLine
 10
4780.682687
 20
-4263.731824
 30
0.0
 11
4787.182687
 21
-4263.731824
 31
0.0
  0
SOLID
  5
12B
100
AcDbEntity
  8
0
  6
BYBLOCK
100
AcDbTrace
 10
4765.682687
 20
-4261.231824
 30
0.0
 11
4765.682687
 21
-4266.231824
 31
0.0
 12
4780.682687
 22
-4263.731824
 32
0.0
 13
4780.682687
 23
-4263.731824
 33
0.0
  0
SOLID
  5
12C
100
AcDbEntity
  8
0
  6
BYBLOCK
100
AcDbTrace
 10
4802.182687
 20
-4261.231824
 30
0.0
 11
4802.182687
 21
-4266.231824
 31
0.0
 12
4787.182687
 22
-4263.731824
 32
0.0
 13
4787.182687
 23
-4263.731824
 33
0.0
  0
POINT
  5
12D
100
AcDbEntity
  8
DEFPOINTS
  6
BYBLOCK
 62
     0
100
AcDbPoint
 10
4780.682687
 20
-4312.542274
 30
0.0
  0
POINT
  5
12E
100
AcDbEntity
  8
DEFPOINTS
  6
BYBLOCK
 62
     0
100
AcDbPoint
 10
4787.182687
 20
-4349.542274
 30
0.0
  0
POINT
  5
12F
100
AcDbEntity
  8
DEFPOINTS
  6
BYBLOCK
 62
     0
100
AcDbPoint
 10
4787.182687
 20
-4263.731824
 30
0.0
  0
ENDBLK
  5
131
100
AcDbEntity
  8
0
100
AcDbBlockEnd
  0
BLOCK
  5
A5
100
AcDbEntity
  8
0
100
AcDbBlockBegin
  2
*D9
 70
     1
 10
0.0
 20
0.0
 30
0.0
  3
*D9
  1

  0
LINE
  5
99
100
AcDbEntity
  8
0
  6
BYBLOCK
100
AcDbLine
 10
4787.182687
 20
-4346.542274
 30
0.0
 11
4787.182687
 21
-4257.731824
 31
0.0
  0
LINE
  5
9A
100
AcDbEntity
  8
0
  6
BYBLOCK
100
AcDbLine
 10
4795.682687
 20
-4356.542274
 30
0.0
 11
4795.682687
 21
-4257.731824
 31
0.0
  0
LINE
  5
9B
100
AcDbEntity
  8
0
  6
BYBLOCK
100
AcDbLine
 10
4772.182687
 20
-4263.731824
 30
0.0
 11
4757.182687
 21
-4263.731824
 31
0.0
  0
LINE
  5
9C
100
AcDbEntity
  8
0
  6
BYBLOCK
100
AcDbLine
 10
4810.682687
 20
-4263.731824
 30
0.0
 11
4825.682687
 21
-4263.731824
 31
0.0
  0
MTEXT
  5
9D
100
AcDbEntity
  8
0
  6
BYBLOCK
 62
     5
100
AcDbMText
 10
4820.571679
 20
-4246.410396
 30
0.0
 40
19.32
 41
0.0
 71
     5
 72
     1
  1
\A1;8,5
  0
LINE
  5
9E
100
AcDbEntity
  8
0
  6
BYBLOCK
100
AcDbLine
 10
4787.182687
 20
-4263.731824
 30
0.0
 11
4795.682687
 21
-4263.731824
 31
0.0
  0
LINE
  5
9F
100
AcDbEntity
  8
0
  6
BYBLOCK
100
AcDbLine
 10
4787.182687
 20
-4263.731824
 30
0.0
 11
4795.682687
 21
-4263.731824
 31
0.0
  0
SOLID
  5
A0
100
AcDbEntity
  8
0
  6
BYBLOCK
100
AcDbTrace
 10
4772.182687
 20
-4261.231824
 30
0.0
 11
4772.182687
 21
-4266.231824
 31
0.0
 12
4787.182687
 22
-4263.731824
 32
0.0
 13
4787.182687
 23
-4263.731824
 33
0.0
  0
SOLID
  5
A1
100
AcDbEntity
  8
0
  6
BYBLOCK
100
AcDbTrace
 10
4810.682687
 20
-4261.231824
 30
0.0
 11
4810.682687
 21
-4266.231824
 31
0.0
 12
4795.682687
 22
-4263.731824
 32
0.0
 13
4795.682687
 23
-4263.731824
 33
0.0
  0
POINT
  5
A2
100
AcDbEntity
  8
DEFPOINTS
  6
BYBLOCK
 62
     0
100
AcDbPoint
 10
4787.182687
 20
-4349.542274
 30
0.0
  0
POINT
  5
A3
100
AcDbEntity
  8
DEFPOINTS
  6
BYBLOCK
 62
     0
100
AcDbPoint
 10
4795.682687
 20
-4359.542274
 30
0.0
  0
POINT
  5
A4
100
AcDbEntity
  8
DEFPOINTS
  6
BYBLOCK
 62
     0
100
AcDbPoint
 10
4795.682687
 20
-4263.731824
 30
0.0
  0
ENDBLK
  5
A6
100
AcDbEntity
  8
0
100
AcDbBlockEnd
  0
BLOCK
  5
95
100
AcDbEntity
  8
0
100
AcDbBlockBegin
  2
*D10
 70
     1
 10
0.0
 20
0.0
 30
0.0
  3
*D10
  1

  0
LINE
  5
89
100
AcDbEntity
  8
0
  6
BYBLOCK
100
AcDbLine
 10
4811.682687
 20
-4432.542274
 30
0.0
 11
4811.682687
 21
-4536.542274
 31
0.0
  0
LINE
  5
8A
100
AcDbEntity
  8
0
  6
BYBLOCK
100
AcDbLine
 10
4820.182687
 20
-4442.542274
 30
0.0
 11
4820.182687
 21
-4536.542274
 31
0.0
  0
LINE
  5
8B
100
AcDbEntity
  8
0
  6
BYBLOCK
100
AcDbLine
 10
4796.682687
 20
-4530.542274
 30
0.0
 11
4781.682687
 21
-4530.542274
 31
0.0
  0
LINE
  5
8C
100
AcDbEntity
  8
0
  6
BYBLOCK
100
AcDbLine
 10
4835.182687
 20
-4530.542274
 30
0.0
 11
4850.182687
 21
-4530.542274
 31
0.0
  0
MTEXT
  5
8D
100
AcDbEntity
  8
0
  6
BYBLOCK
 62
     5
100
AcDbMText
 10
4788.31392
 20
-4513.220846
 30
0.0
 40
19.32
 41
0.0
 71
     5
 72
     1
  1
\A1;8,5
  0
LINE
  5
8E
100
AcDbEntity
  8
0
  6
BYBLOCK
100
AcDbLine
 10
4811.682687
 20
-4530.542274
 30
0.0
 11
4820.182687
 21
-4530.542274
 31
0.0
  0
LINE
  5
8F
100
AcDbEntity
  8
0
  6
BYBLOCK
100
AcDbLine
 10
4811.682687
 20
-4530.542274
 30
0.0
 11
4820.182687
 21
-4530.542274
 31
0.0
  0
SOLID
  5
90
100
AcDbEntity
  8
0
  6
BYBLOCK
100
AcDbTrace
 10
4796.682687
 20
-4528.042274
 30
0.0
 11
4796.682687
 21
-4533.042274
 31
0.0
 12
4811.682687
 22
-4530.542274
 32
0.0
 13
4811.682687
 23
-4530.542274
 33
0.0
  0
SOLID
  5
91
100
AcDbEntity
  8
0
  6
BYBLOCK
100
AcDbTrace
 10
4835.182687
 20
-4528.042274
 30
0.0
 11
4835.182687
 21
-4533.042274
 31
0.0
 12
4820.182687
 22
-4530.542274
 32
0.0
 13
4820.182687
 23
-4530.542274
 33
0.0
  0
POINT
  5
92
100
AcDbEntity
  8
DEFPOINTS
  6
BYBLOCK
 62
     0
100
AcDbPoint
 10
4811.682687
 20
-4429.542274
 30
0.0
  0
POINT
  5
93
100
AcDbEntity
  8
DEFPOINTS
  6
BYBLOCK
 62
     0
100
AcDbPoint
 10
4820.182687
 20
-4439.542274
 30
0.0
  0
POINT
  5
94
100
AcDbEntity
  8
DEFPOINTS
  6
BYBLOCK
 62
     0
100
AcDbPoint
 10
4820.182687
 20
-4530.542274
 30
0.0
  0
ENDBLK
  5
96
100
AcDbEntity
  8
0
100
AcDbBlockEnd
  0
BLOCK
  5
85
100
AcDbEntity
  8
0
100
AcDbBlockBegin
  2
*D11
 70
     1
 10
0.0
 20
0.0
 30
0.0
  3
*D11
  1

  0
LINE
  5
79
100
AcDbEntity
  8
0
  6
BYBLOCK
100
AcDbLine
 10
4820.182687
 20
-4442.542274
 30
0.0
 11
4820.182687
 21
-4536.542274
 31
0.0
  0
LINE
  5
7A
100
AcDbEntity
  8
0
  6
BYBLOCK
100
AcDbLine
 10
4825.682687
 20
-4473.542274
 30
0.0
 11
4825.682687
 21
-4536.542274
 31
0.0
  0
LINE
  5
7B
100
AcDbEntity
  8
0
  6
BYBLOCK
100
AcDbLine
 10
4805.182687
 20
-4530.542274
 30
0.0
 11
4790.182687
 21
-4530.542274
 31
0.0
  0
LINE
  5
7C
100
AcDbEntity
  8
0
  6
BYBLOCK
100
AcDbLine
 10
4840.682687
 20
-4530.542274
 30
0.0
 11
4855.682687
 21
-4530.542274
 31
0.0
  0
MTEXT
  5
7D
100
AcDbEntity
  8
0
  6
BYBLOCK
 62
     5
100
AcDbMText
 10
4850.427682
 20
-4513.220846
 30
0.0
 40
19.32
 41
0.0
 71
     5
 72
     1
  1
\A1;5,5
  0
LINE
  5
7E
100
AcDbEntity
  8
0
  6
BYBLOCK
100
AcDbLine
 10
4820.182687
 20
-4530.542274
 30
0.0
 11
4825.682687
 21
-4530.542274
 31
0.0
  0
LINE
  5
7F
100
AcDbEntity
  8
0
  6
BYBLOCK
100
AcDbLine
 10
4820.182687
 20
-4530.542274
 30
0.0
 11
4825.682687
 21
-4530.542274
 31
0.0
  0
SOLID
  5
80
100
AcDbEntity
  8
0
  6
BYBLOCK
100
AcDbTrace
 10
4805.182687
 20
-4528.042274
 30
0.0
 11
4805.182687
 21
-4533.042274
 31
0.0
 12
4820.182687
 22
-4530.542274
 32
0.0
 13
4820.182687
 23
-4530.542274
 33
0.0
  0
SOLID
  5
81
100
AcDbEntity
  8
0
  6
BYBLOCK
100
AcDbTrace
 10
4840.682687
 20
-4528.042274
 30
0.0
 11
4840.682687
 21
-4533.042274
 31
0.0
 12
4825.682687
 22
-4530.542274
 32
0.0
 13
4825.682687
 23
-4530.542274
 33
0.0
  0
POINT
  5
82
100
AcDbEntity
  8
DEFPOINTS
  6
BYBLOCK
 62
     0
100
AcDbPoint
 10
4820.182687
 20
-4439.542274
 30
0.0
  0
POINT
  5
83
100
AcDbEntity
  8
DEFPOINTS
  6
BYBLOCK
 62
     0
100
AcDbPoint
 10
4825.682687
 20
-4470.542274
 30
0.0
  0
POINT
  5
84
100
AcDbEntity
  8
DEFPOINTS
  6
BYBLOCK
 62
     0
100
AcDbPoint
 10
4825.682687
 20
-4530.542274
 30
0.0
  0
ENDBLK
  5
86
100
AcDbEntity
  8
0
100
AcDbBlockEnd
  0
BLOCK
  5
75
100
AcDbEntity
  8
0
100
AcDbBlockBegin
  2
*D12
 70
     1
 10
0.0
 20
0.0
 30
0.0
  3
*D12
  1

  0
LINE
  5
6A
100
AcDbEntity
  8
0
  6
BYBLOCK
100
AcDbLine
 10
4783.682687
 20
-4312.542274
 30
0.0
 11
4922.051877
 21
-4312.542274
 31
0.0
  0
LINE
  5
6B
100
AcDbEntity
  8
0
  6
BYBLOCK
100
AcDbLine
 10
4790.182687
 20
-4349.542274
 30
0.0
 11
4922.051877
 21
-4349.542274
 31
0.0
  0
LINE
  5
6C
100
AcDbEntity
  8
0
  6
BYBLOCK
100
AcDbLine
 10
4916.051877
 20
-4297.542274
 30
0.0
 11
4916.051877
 21
-4282.542274
 31
0.0
  0
LINE
  5
6D
100
AcDbEntity
  8
0
  6
BYBLOCK
100
AcDbLine
 10
4916.051877
 20
-4364.542274
 30
0.0
 11
4916.051877
 21
-4379.542274
 31
0.0
  0
LINE
  5
6E
100
AcDbEntity
  8
0
  6
BYBLOCK
100
AcDbLine
 10
4916.051877
 20
-4312.542274
 30
0.0
 11
4916.051877
 21
-4349.542274
 31
0.0
  0
SOLID
  5
6F
100
AcDbEntity
  8
0
  6
BYBLOCK
100
AcDbTrace
 10
4913.551877
 20
-4297.542274
 30
0.0
 11
4918.551877
 21
-4297.542274
 31
0.0
 12
4916.051877
 22
-4312.542274
 32
0.0
 13
4916.051877
 23
-4312.542274
 33
0.0
  0
SOLID
  5
70
100
AcDbEntity
  8
0
  6
BYBLOCK
100
AcDbTrace
 10
4913.551877
 20
-4364.542274
 30
0.0
 11
4918.551877
 21
-4364.542274
 31
0.0
 12
4916.051877
 22
-4349.542274
 32
0.0
 13
4916.051877
 23
-4349.542274
 33
0.0
  0
MTEXT
  5
71
100
AcDbEntity
  8
0
  6
BYBLOCK
 62
     5
100
AcDbMText
 10
4900.391877
 20
-4331.042274
 30
0.0
 40
19.32
 41
0.0
 71
     5
 72
     1
  1
\A1;37
 11
0.0
 21
1.0
 31
0.0
  0
POINT
  5
72
100
AcDbEntity
  8
DEFPOINTS
  6
BYBLOCK
 62
     0
100
AcDbPoint
 10
4780.682687
 20
-4312.542274
 30
0.0
  0
POINT
  5
73
100
AcDbEntity
  8
DEFPOINTS
  6
BYBLOCK
 62
     0
100
AcDbPoint
 10
4787.182687
 20
-4349.542274
 30
0.0
  0
POINT
  5
74
100
AcDbEntity
  8
DEFPOINTS
  6
BYBLOCK
 62
     0
100
AcDbPoint
 10
4916.051877
 20
-4349.542274
 30
0.0
  0
ENDBLK
  5
76
100
AcDbEntity
  8
0
100
AcDbBlockEnd
  0
BLOCK
  5
66
100
AcDbEntity
  8
0
100
AcDbBlockBegin
  2
*D13
 70
     1
 10
0.0
 20
0.0
 30
0.0
  3
*D13
  1

  0
LINE
  5
5A
100
AcDbEntity
  8
0
  6
BYBLOCK
100
AcDbLine
 10
4790.182687
 20
-4349.542274
 30
0.0
 11
4922.051877
 21
-4349.542274
 31
0.0
  0
LINE
  5
5B
100
AcDbEntity
  8
0
  6
BYBLOCK
100
AcDbLine
 10
4798.682687
 20
-4359.542274
 30
0.0
 11
4922.051877
 21
-4359.542274
 31
0.0
  0
LINE
  5
5C
100
AcDbEntity
  8
0
  6
BYBLOCK
100
AcDbLine
 10
4916.051877
 20
-4334.542274
 30
0.0
 11
4916.051877
 21
-4319.542274
 31
0.0
  0
LINE
  5
5D
100
AcDbEntity
  8
0
  6
BYBLOCK
100
AcDbLine
 10
4916.051877
 20
-4374.542274
 30
0.0
 11
4916.051877
 21
-4389.542274
 31
0.0
  0
MTEXT
  5
5E
100
AcDbEntity
  8
0
  6
BYBLOCK
 62
     5
100
AcDbMText
 10
4936.525468
 20
-4354.542274
 30
0.0
 40
19.32
 41
0.0
 71
     5
 72
     1
  1
\A1;10
 11
0.0
 21
1.0
 31
0.0
  0
LINE
  5
5F
100
AcDbEntity
  8
0
  6
BYBLOCK
100
AcDbLine
 10
4916.051877
 20
-4349.542274
 30
0.0
 11
4916.051877
 21
-4359.542274
 31
0.0
  0
LINE
  5
60
100
AcDbEntity
  8
0
  6
BYBLOCK
100
AcDbLine
 10
4916.051877
 20
-4349.542274
 30
0.0
 11
4916.051877
 21
-4359.542274
 31
0.0
  0
SOLID
  5
61
100
AcDbEntity
  8
0
  6
BYBLOCK
100
AcDbTrace
 10
4913.551877
 20
-4334.542274
 30
0.0
 11
4918.551877
 21
-4334.542274
 31
0.0
 12
4916.051877
 22
-4349.542274
 32
0.0
 13
4916.051877
 23
-4349.542274
 33
0.0
  0
SOLID
  5
62
100
AcDbEntity
  8
0
  6
BYBLOCK
100
AcDbTrace
 10
4913.551877
 20
-4374.542274
 30
0.0
 11
4918.551877
 21
-4374.542274
 31
0.0
 12
4916.051877
 22
-4359.542274
 32
0.0
 13
4916.051877
 23
-4359.542274
 33
0.0
  0
POINT
  5
63
100
AcDbEntity
  8
DEFPOINTS
  6
BYBLOCK
 62
     0
100
AcDbPoint
 10
4787.182687
 20
-4349.542274
 30
0.0
  0
POINT
  5
64
100
AcDbEntity
  8
DEFPOINTS
  6
BYBLOCK
 62
     0
100
AcDbPoint
 10
4795.682687
 20
-4359.542274
 30
0.0
  0
POINT
  5
65
100
AcDbEntity
  8
DEFPOINTS
  6
BYBLOCK
 62
     0
100
AcDbPoint
 10
4916.051877
 20
-4359.542274
 30
0.0
  0
ENDBLK
  5
67
100
AcDbEntity
  8
0
100
AcDbBlockEnd
  0
BLOCK
  5
56
100
AcDbEntity
  8
0
100
AcDbBlockBegin
  2
*D14
 70
     1
 10
0.0
 20
0.0
 30
0.0
  3
*D14
  1

  0
LINE
  5
4D
100
AcDbEntity
  8
0
  6
BYBLOCK
100
AcDbLine
 10
4798.682687
 20
-4359.542274
 30
0.0
 11
4922.051877
 21
-4359.542274
 31
0.0
  0
LINE
  5
4E
100
AcDbEntity
  8
0
  6
BYBLOCK
100
AcDbLine
 10
4814.682687
 20
-4429.542274
 30
0.0
 11
4922.051877
 21
-4429.542274
 31
0.0
  0
LINE
  5
4F
100
AcDbEntity
  8
0
  6
BYBLOCK
100
AcDbLine
 10
4916.051877
 20
-4374.542274
 30
0.0
 11
4916.051877
 21
-4414.542274
 31
0.0
  0
SOLID
  5
50
100
AcDbEntity
  8
0
  6
BYBLOCK
100
AcDbTrace
 10
4913.551877
 20
-4374.542274
 30
0.0
 11
4918.551877
 21
-4374.542274
 31
0.0
 12
4916.051877
 22
-4359.542274
 32
0.0
 13
4916.051877
 23
-4359.542274
 33
0.0
  0
SOLID
  5
51
100
AcDbEntity
  8
0
  6
BYBLOCK
100
AcDbTrace
 10
4913.551877
 20
-4414.542274
 30
0.0
 11
4918.551877
 21
-4414.542274
 31
0.0
 12
4916.051877
 22
-4429.542274
 32
0.0
 13
4916.051877
 23
-4429.542274
 33
0.0
  0
MTEXT
  5
52
100
AcDbEntity
  8
0
  6
BYBLOCK
 62
     5
100
AcDbMText
 10
4900.391877
 20
-4394.542274
 30
0.0
 40
19.32
 41
0.0
 71
     5
 72
     1
  1
\A1;70
 11
0.0
 21
1.0
 31
0.0
  0
POINT
  5
53
100
AcDbEntity
  8
DEFPOINTS
  6
BYBLOCK
 62
     0
100
AcDbPoint
 10
4795.682687
 20
-4359.542274
 30
0.0
  0
POINT
  5
54
100
AcDbEntity
  8
DEFPOINTS
  6
BYBLOCK
 62
     0
100
AcDbPoint
 10
4811.682687
 20
-4429.542274
 30
0.0
  0
POINT
  5
55
100
AcDbEntity
  8
DEFPOINTS
  6
BYBLOCK
 62
     0
100
AcDbPoint
 10
4916.051877
 20
-4429.542274
 30
0.0
  0
ENDBLK
  5
57
100
AcDbEntity
  8
0
100
AcDbBlockEnd
  0
BLOCK
  5
49
100
AcDbEntity
  8
0
100
AcDbBlockBegin
  2
*D15
 70
     1
 10
0.0
 20
0.0
 30
0.0
  3
*D15
  1

  0
LINE
  5
3D
100
AcDbEntity
  8
0
  6
BYBLOCK
100
AcDbLine
 10
4814.682687
 20
-4429.542274
 30
0.0
 11
4922.051877
 21
-4429.542274
 31
0.0
  0
LINE
  5
3E
100
AcDbEntity
  8
0
  6
BYBLOCK
100
AcDbLine
 10
4823.182687
 20
-4439.542274
 30
0.0
 11
4922.051877
 21
-4439.542274
 31
0.0
  0
LINE
  5
3F
100
AcDbEntity
  8
0
  6
BYBLOCK
100
AcDbLine
 10
4916.051877
 20
-4414.542274
 30
0.0
 11
4916.051877
 21
-4399.542274
 31
0.0
  0
LINE
  5
40
100
AcDbEntity
  8
0
  6
BYBLOCK
100
AcDbLine
 10
4916.051877
 20
-4454.542274
 30
0.0
 11
4916.051877
 21
-4469.542274
 31
0.0
  0
MTEXT
  5
41
100
AcDbEntity
  8
0
  6
BYBLOCK
 62
     5
100
AcDbMText
 10
4936.525468
 20
-4434.542274
 30
0.0
 40
19.32
 41
0.0
 71
     5
 72
     1
  1
\A1;10
 11
0.0
 21
1.0
 31
0.0
  0
LINE
  5
42
100
AcDbEntity
  8
0
  6
BYBLOCK
100
AcDbLine
 10
4916.051877
 20
-4429.542274
 30
0.0
 11
4916.051877
 21
-4439.542274
 31
0.0
  0
LINE
  5
43
100
AcDbEntity
  8
0
  6
BYBLOCK
100
AcDbLine
 10
4916.051877
 20
-4429.542274
 30
0.0
 11
4916.051877
 21
-4439.542274
 31
0.0
  0
SOLID
  5
44
100
AcDbEntity
  8
0
  6
BYBLOCK
100
AcDbTrace
 10
4913.551877
 20
-4414.542274
 30
0.0
 11
4918.551877
 21
-4414.542274
 31
0.0
 12
4916.051877
 22
-4429.542274
 32
0.0
 13
4916.051877
 23
-4429.542274
 33
0.0
  0
SOLID
  5
45
100
AcDbEntity
  8
0
  6
BYBLOCK
100
AcDbTrace
 10
4913.551877
 20
-4454.542274
 30
0.0
 11
4918.551877
 21
-4454.542274
 31
0.0
 12
4916.051877
 22
-4439.542274
 32
0.0
 13
4916.051877
 23
-4439.542274
 33
0.0
  0
POINT
  5
46
100
AcDbEntity
  8
DEFPOINTS
  6
BYBLOCK
 62
     0
100
AcDbPoint
 10
4811.682687
 20
-4429.542274
 30
0.0
  0
POINT
  5
47
100
AcDbEntity
  8
DEFPOINTS
  6
BYBLOCK
 62
     0
100
AcDbPoint
 10
4820.182687
 20
-4439.542274
 30
0.0
  0
POINT
  5
48
100
AcDbEntity
  8
DEFPOINTS
  6
BYBLOCK
 62
     0
100
AcDbPoint
 10
4916.051877
 20
-4439.542274
 30
0.0
  0
ENDBLK
  5
4A
100
AcDbEntity
  8
0
100
AcDbBlockEnd
  0
BLOCK
  5
39
100
AcDbEntity
  8
0
100
AcDbBlockBegin
  2
*D16
 70
     1
 10
0.0
 20
0.0
 30
0.0
  3
*D16
  1

  0
LINE
  5
2E
100
AcDbEntity
  8
0
  6
BYBLOCK
100
AcDbLine
 10
4823.182687
 20
-4439.542274
 30
0.0
 11
4922.051877
 21
-4439.542274
 31
0.0
  0
LINE
  5
2F
100
AcDbEntity
  8
0
  6
BYBLOCK
100
AcDbLine
 10
4869.682687
 20
-4470.542274
 30
0.0
 11
4922.051877
 21
-4470.542274
 31
0.0
  0
LINE
  5
30
100
AcDbEntity
  8
0
  6
BYBLOCK
100
AcDbLine
 10
4916.051877
 20
-4424.542274
 30
0.0
 11
4916.051877
 21
-4409.542274
 31
0.0
  0
LINE
  5
31
100
AcDbEntity
  8
0
  6
BYBLOCK
100
AcDbLine
 10
4916.051877
 20
-4485.542274
 30
0.0
 11
4916.051877
 21
-4500.542274
 31
0.0
  0
LINE
  5
32
100
AcDbEntity
  8
0
  6
BYBLOCK
100
AcDbLine
 10
4916.051877
 20
-4439.542274
 30
0.0
 11
4916.051877
 21
-4470.542274
 31
0.0
  0
SOLID
  5
33
100
AcDbEntity
  8
0
  6
BYBLOCK
100
AcDbTrace
 10
4913.551877
 20
-4424.542274
 30
0.0
 11
4918.551877
 21
-4424.542274
 31
0.0
 12
4916.051877
 22
-4439.542274
 32
0.0
 13
4916.051877
 23
-4439.542274
 33
0.0
  0
SOLID
  5
34
100
AcDbEntity
  8
0
  6
BYBLOCK
100
AcDbTrace
 10
4913.551877
 20
-4485.542274
 30
0.0
 11
4918.551877
 21
-4485.542274
 31
0.0
 12
4916.051877
 22
-4470.542274
 32
0.0
 13
4916.051877
 23
-4470.542274
 33
0.0
  0
MTEXT
  5
35
100
AcDbEntity
  8
0
  6
BYBLOCK
 62
     5
100
AcDbMText
 10
4900.391877
 20
-4455.042274
 30
0.0
 40
19.32
 41
0.0
 71
     5
 72
     1
  1
\A1;31
 11
0.0
 21
1.0
 31
0.0
  0
POINT
  5
36
100
AcDbEntity
  8
DEFPOINTS
  6
BYBLOCK
 62
     0
100
AcDbPoint
 10
4820.182687
 20
-4439.542274
 30
0.0
  0
POINT
  5
37
100
AcDbEntity
  8
DEFPOINTS
  6
BYBLOCK
 62
     0
100
AcDbPoint
 10
4866.682687
 20
-4470.542274
 30
0.0
  0
POINT
  5
38
100
AcDbEntity
  8
DEFPOINTS
  6
BYBLOCK
 62
     0
100
AcDbPoint
 10
4916.051877
 20
-4470.542274
 30
0.0
  0
ENDBLK
  5
3A
100
AcDbEntity
  8
0
100
AcDbBlockEnd
  0
BLOCK
  5
2A
100
AcDbEntity
  8
0
100
AcDbBlockBegin
  2
*D17
 70
     1
 10
0.0
 20
0.0
 30
0.0
  3
*D17
  1

  0
LINE
  5
20
100
AcDbEntity
  8
0
  6
BYBLOCK
100
AcDbLine
 10
4869.682687
 20
-4470.542274
 30
0.0
 11
4981.110331
 21
-4470.542274
 31
0.0
  0
LINE
  5
21
100
AcDbEntity
  8
0
  6
BYBLOCK
100
AcDbLine
 10
4783.682687
 20
-4312.542274
 30
0.0
 11
4981.110331
 21
-4312.542274
 31
0.0
  0
LINE
  5
22
100
AcDbEntity
  8
0
  6
BYBLOCK
100
AcDbLine
 10
4975.110331
 20
-4455.542274
 30
0.0
 11
4975.110331
 21
-4327.542274
 31
0.0
  0
SOLID
  5
23
100
AcDbEntity
  8
0
  6
BYBLOCK
100
AcDbTrace
 10
4972.610331
 20
-4455.542274
 30
0.0
 11
4977.610331
 21
-4455.542274
 31
0.0
 12
4975.110331
 22
-4470.542274
 32
0.0
 13
4975.110331
 23
-4470.542274
 33
0.0
  0
SOLID
  5
24
100
AcDbEntity
  8
0
  6
BYBLOCK
100
AcDbTrace
 10
4972.610331
 20
-4327.542274
 30
0.0
 11
4977.610331
 21
-4327.542274
 31
0.0
 12
4975.110331
 22
-4312.542274
 32
0.0
 13
4975.110331
 23
-4312.542274
 33
0.0
  0
MTEXT
  5
25
100
AcDbEntity
  8
0
  6
BYBLOCK
 62
     5
100
AcDbMText
 10
4959.450331
 20
-4391.542274
 30
0.0
 40
19.32
 41
0.0
 71
     5
 72
     1
  1
\A1;158
 11
0.0
 21
1.0
 31
0.0
  0
POINT
  5
26
100
AcDbEntity
  8
DEFPOINTS
  6
BYBLOCK
 62
     0
100
AcDbPoint
 10
4866.682687
 20
-4470.542274
 30
0.0
  0
POINT
  5
28
100
AcDbEntity
  8
DEFPOINTS
  6
BYBLOCK
 62
     0
100
AcDbPoint
 10
4780.682687
 20
-4312.542274
 30
0.0
  0
POINT
  5
29
100
AcDbEntity
  8
DEFPOINTS
  6
BYBLOCK
 62
     0
100
AcDbPoint
 10
4975.110331
 20
-4312.542274
 30
0.0
  0
ENDBLK
  5
2B
100
AcDbEntity
  8
0
100
AcDbBlockEnd
  0
ENDSEC
  0
SECTION
  2
ENTITIES
  0
DIMENSION
  5
1E
100
AcDbEntity
  8
KOTY-UPLNE
100
AcDbDimension
  2
*D17
 10
1031.782941
 20
-149.884928
 30
0.0
 11
1016.122941
 21
-228.884928
 31
0.0
 12
-3943.32739
 22
4162.657346
 32
0.0
  3
UPLNE
100
AcDbAlignedDimension
 13
923.355297
 23
-307.884928
 33
0.0
 14
837.355297
 24
-149.884928
 34
0.0
 50
90.0
100
AcDbRotatedDimension
1001
ACAD
1000
DSTYLE
1002
{
1070
    40
1040
3.0
1070
   147
1040
2.0
1002
}
  0
DIMENSION
  5
2C
100
AcDbEntity
  8
KOTY-UPLNE
100
AcDbDimension
  2
*D16
 10
972.724487
 20
-307.884928
 30
0.0
 11
957.064487
 21
-292.384928
 31
0.0
 12
-3943.32739
 22
4162.657346
 32
0.0
  3
UPLNE
100
AcDbAlignedDimension
 13
876.855297
 23
-276.884928
 33
0.0
 14
923.355297
 24
-307.884928
 34
0.0
 50
90.0
100
AcDbRotatedDimension
1001
ACAD
1000
DSTYLE
1002
{
1070
    40
1040
3.0
1070
   147
1040
2.0
1002
}
  0
DIMENSION
  5
3B
100
AcDbEntity
  8
KOTY-UPLNE
100
AcDbDimension
  2
*D15
 10
972.724487
 20
-276.884928
 30
0.0
 11
993.198078
 21
-271.884928
 31
0.0
 12
-3943.32739
 22
4162.657346
 32
0.0
 70
   128
  3
UPLNE
100
AcDbAlignedDimension
 13
868.355297
 23
-266.884928
 33
0.0
 14
876.855297
 24
-276.884928
 34
0.0
 50
90.0
100
AcDbRotatedDimension
1001
ACAD
1000
DSTYLE
1002
{
1070
    40
1040
3.0
1070
   147
1040
2.0
1002
}
  0
DIMENSION
  5
4B
100
AcDbEntity
  8
KOTY-UPLNE
100
AcDbDimension
  2
*D14
 10
972.724487
 20
-266.884928
 30
0.0
 11
957.064487
 21
-231.884928
 31
0.0
 12
-3943.32739
 22
4162.657346
 32
0.0
  3
UPLNE
100
AcDbAlignedDimension
 13
852.355297
 23
-196.884928
 33
0.0
 14
868.355297
 24
-266.884928
 34
0.0
 50
90.0
100
AcDbRotatedDimension
1001
ACAD
1000
DSTYLE
1002
{
1070
    40
1040
3.0
1070
   147
1040
2.0
1002
}
  0
DIMENSION
  5
58
100
AcDbEntity
  8
KOTY-UPLNE
100
AcDbDimension
  2
*D13
 10
972.724487
 20
-196.884928
 30
0.0
 11
993.198078
 21
-191.884928
 31
0.0
 12
-3943.32739
 22
4162.657346
 32
0.0
 70
   128
  3
UPLNE
100
AcDbAlignedDimension
 13
843.855297
 23
-186.884928
 33
0.0
 14
852.355297
 24
-196.884928
 34
0.0
 50
90.0
100
AcDbRotatedDimension
1001
ACAD
1000
DSTYLE
1002
{
1070
    40
1040
3.0
1070
   147
1040
2.0
1002
}
  0
DIMENSION
  5
68
100
AcDbEntity
  8
KOTY-UPLNE
100
AcDbDimension
  2
*D12
 10
972.724487
 20
-186.884928
 30
0.0
 11
957.064487
 21
-168.384928
 31
0.0
 12
-3943.32739
 22
4162.657346
 32
0.0
  3
UPLNE
100
AcDbAlignedDimension
 13
837.355297
 23
-149.884928
 33
0.0
 14
843.855297
 24
-186.884928
 34
0.0
 50
90.0
100
AcDbRotatedDimension
1001
ACAD
1000
DSTYLE
1002
{
1070
    40
1040
3.0
1070
   147
1040
2.0
1002
}
  0
DIMENSION
  5
77
100
AcDbEntity
  8
KOTY-UPLNE
100
AcDbDimension
  2
*D11
 10
882.355297
 20
-367.884928
 30
0.0
 11
907.100292
 21
-350.5635
 31
0.0
 12
-3943.32739
 22
4162.657346
 32
0.0
 70
   128
  1
5,5
  3
UPLNE
100
AcDbAlignedDimension
 13
876.855297
 23
-276.884928
 33
0.0
 14
882.355297
 24
-307.884928
 34
0.0
100
AcDbRotatedDimension
1001
ACAD
1000
DSTYLE
1002
{
1070
    40
1040
3.0
1070
   147
1040
2.0
1002
}
  0
DIMENSION
  5
87
100
AcDbEntity
  8
KOTY-UPLNE
100
AcDbDimension
  2
*D10
 10
876.855297
 20
-367.884928
 30
0.0
 11
844.98653
 21
-350.5635
 31
0.0
 12
-3943.32739
 22
4162.657346
 32
0.0
 70
   128
  1
8,5
  3
UPLNE
100
AcDbAlignedDimension
 13
868.355297
 23
-266.884928
 33
0.0
 14
876.855297
 24
-276.884928
 34
0.0
100
AcDbRotatedDimension
1001
ACAD
1000
DSTYLE
1002
{
1070
    40
1040
3.0
1070
   147
1040
2.0
1002
}
  0
DIMENSION
  5
97
100
AcDbEntity
  8
KOTY-UPLNE
100
AcDbDimension
  2
*D9
 10
852.355297
 20
-101.074478
 30
0.0
 11
877.244289
 21
-83.75305
 31
0.0
 12
-3943.32739
 22
4162.657346
 32
0.0
 70
   128
  1
8,5
  3
UPLNE
100
AcDbAlignedDimension
 13
843.855297
 23
-186.884928
 33
0.0
 14
852.355297
 24
-196.884928
 34
0.0
100
AcDbRotatedDimension
1001
ACAD
1000
DSTYLE
1002
{
1070
    40
1040
3.0
1070
   147
1040
2.0
1002
}
  0
DIMENSION
  5
A7
100
AcDbEntity
  8
KOTY-UPLNE
100
AcDbDimension
  2
*D6
 10
902.855297
 20
-427.884928
 30
0.0
 11
527.855297
 21
-412.224928
 31
0.0
 12
-3943.32739
 22
4162.657346
 32
0.0
  3
UPLNE
100
AcDbAlignedDimension
 13
152.855297
 23
-307.884928
 33
0.0
 14
902.855297
 24
-307.884928
 34
0.0
100
AcDbRotatedDimension
1001
ACAD
1000
DSTYLE
1002
{
1070
    40
1040
3.0
1070
   147
1040
2.0
1002
}
  0
LWPOLYLINE
  5
B4
100
AcDbEntity
  8
TRAPEZ-VELKY
100
AcDbPolyline
 90
      100
 70
     0
 43
5.0
 10
929.66244
 20
-292.884928
 10
926.647433
 20
-297.906198
 42
0.058862
 10
926.165678
 20
-298.975888
 10
924.458058
 20
-304.389125
 42
-0.327295
 10
919.689684
 20
-307.884928
 10
902.855297
 20
-307.884928
 10
886.546285
 20
-307.884928
 42
-0.36367
 10
881.623168
 20
-303.758384
 10
877.091823
 20
-278.218074
 42
0.133001
 10
875.978403
 20
-275.853288
 10
869.147377
 20
-267.816786
 42
-0.120524
 10
868.082781
 20
-265.692668
 10
852.627814
 20
-198.077188
 42
0.120524
 10
851.563218
 20
-195.95307
 10
844.73513
 20
-187.920026
 42
-0.133432
 10
843.620241
 20
-185.546914
 10
838.081693
 20
-154.019798
 42
0.364149
 10
833.157107
 20
-149.884928
 10
789.917454
 20
-149.884928
 42
0.152579
 10
787.070993
 20
-150.774252
 10
780.701758
 20
-155.184664
 42
-0.312431
 10
775.008836
 20
-155.184664
 10
768.639601
 20
-150.774252
 42
0.152579
 10
765.79314
 20
-149.884928
 10
722.553487
 20
-149.884928
 42
0.364149
 10
717.628901
 20
-154.019798
 10
712.090354
 20
-185.546914
 42
-0.133432
 10
710.975464
 20
-187.920026
 10
704.147377
 20
-195.95307
 42
0.120524
 10
703.082781
 20
-198.077188
 10
687.627814
 20
-265.692668
 42
-0.120524
 10
686.563218
 20
-267.816786
 10
679.732191
 20
-275.853288
 42
0.133001
 10
678.618771
 20
-278.218074
 10
674.087426
 20
-303.758384
 42
-0.36367
 10
669.16431
 20
-307.884928
 10
652.855297
 20
-307.884928
 10
636.546285
 20
-307.884928
 42
-0.36367
 10
631.623168
 20
-303.758384
 10
627.091823
 20
-278.218074
 42
0.133001
 10
625.978403
 20
-275.853288
 10
619.147377
 20
-267.816786
 42
-0.120524
 10
618.082781
 20
-265.692668
 10
602.627814
 20
-198.077188
 42
0.120524
 10
601.563218
 20
-195.95307
 10
594.73513
 20
-187.920026
 42
-0.133432
 10
593.620241
 20
-185.546914
 10
588.081693
 20
-154.019798
 42
0.364149
 10
583.157107
 20
-149.884928
 10
539.917454
 20
-149.884928
 42
0.152579
 10
537.070993
 20
-150.774252
 10
530.701758
 20
-155.184664
 42
-0.312431
 10
525.008836
 20
-155.184664
 10
518.639601
 20
-150.774252
 42
0.152579
 10
515.79314
 20
-149.884928
 10
472.553487
 20
-149.884928
 42
0.364149
 10
467.628901
 20
-154.019798
 10
462.090354
 20
-185.546914
 42
-0.133432
 10
460.975464
 20
-187.920026
 10
454.147377
 20
-195.95307
 42
0.120524
 10
453.082781
 20
-198.077188
 10
437.627814
 20
-265.692668
 42
-0.120524
 10
436.563218
 20
-267.816786
 10
429.732191
 20
-275.853288
 42
0.133001
 10
428.618771
 20
-278.218074
 10
424.087426
 20
-303.758384
 42
-0.36367
 10
419.16431
 20
-307.884928
 10
402.855297
 20
-307.884928
 10
386.546285
 20
-307.884928
 42
-0.36367
 10
381.623168
 20
-303.758384
 10
377.091823
 20
-278.218074
 42
0.133001
 10
375.978403
 20
-275.853288
 10
369.147377
 20
-267.816786
 42
-0.120524
 10
368.082781
 20
-265.692668
 10
352.627814
 20
-198.077188
 42
0.120524
 10
351.563218
 20
-195.95307
 10
344.73513
 20
-187.920026
 42
-0.133432
 10
343.620241
 20
-185.546914
 10
338.081693
 20
-154.019798
 42
0.364149
 10
333.157107
 20
-149.884928
 10
289.917454
 20
-149.884928
 42
0.152579
 10
287.070993
 20
-150.774252
 10
280.701758
 20
-155.184664
 42
-0.312431
 10
275.008836
 20
-155.184664
 10
268.639601
 20
-150.774252
 42
0.152579
 10
265.79314
 20
-149.884928
 10
222.553487
 20
-149.884928
 42
0.364149
 10
217.628901
 20
-154.019798
 10
212.090354
 20
-185.546914
 42
-0.133432
 10
210.975464
 20
-187.920026
 10
204.147377
 20
-195.95307
 42
0.120524
 10
203.082781
 20
-198.077188
 10
187.627814
 20
-265.692668
 42
-0.120524
 10
186.563218
 20
-267.816786
 10
179.732191
 20
-275.853288
 42
0.133001
 10
178.618771
 20
-278.218074
 10
174.087426
 20
-303.758384
 42
-0.36367
 10
169.16431
 20
-307.884928
 10
152.855297
 20
-307.884928
 10
147.855297
 20
-307.884928
  0
LWPOLYLINE
  5
B6
100
AcDbEntity
  8
RAMEC
100
AcDbPolyline
 90
        4
 70
     1
 43
0.0
 10
0.0
 20
0.0
 10
0.0
 20
-477.001233
 10
1349.672502
 20
-477.001233
 10
1349.672502
 20
0.0
  0
DIMENSION
  5
B8
100
AcDbEntity
  8
KOTY-UPLNE
100
AcDbDimension
  2
*D4
 10
288.355297
 20
-307.884928
 30
0.0
 11
319.821966
 21
-292.134928
 31
0.0
 12
-3943.32739
 22
4162.657346
 32
0.0
 70
   128
  3
UPLNE
100
AcDbAlignedDimension
 13
267.355297
 23
-149.884928
 33
0.0
 14
288.355297
 24
-149.884928
 34
0.0
100
AcDbRotatedDimension
1001
ACAD
1000
DSTYLE
1002
{
1070
    40
1040
3.0
1070
   147
1040
2.0
1002
}
  0
DIMENSION
  5
C8
100
AcDbEntity
  8
KOTY-UPLNE
100
AcDbDimension
  2
*D2
 10
382.355297
 20
-101.074478
 30
0.0
 11
359.855297
 21
-85.414478
 31
0.0
 12
-3943.32739
 22
4162.657346
 32
0.0
  3
UPLNE
100
AcDbAlignedDimension
 13
337.355297
 23
-149.884928
 33
0.0
 14
382.355297
 24
-307.884928
 34
0.0
100
AcDbRotatedDimension
1001
ACAD
1000
DSTYLE
1002
{
1070
    40
1040
3.0
1070
   147
1040
2.0
1002
}
  0
DIMENSION
  5
D5
100
AcDbEntity
  8
KOTY-UPLNE
100
AcDbDimension
  2
*D0
 10
218.355297
 20
-101.074478
 30
0.0
 11
195.855297
 21
-85.414478
 31
0.0
 12
-3943.32739
 22
4162.657346
 32
0.0
  3
UPLNE
100
AcDbAlignedDimension
 13
173.355297
 23
-307.884928
 33
0.0
 14
218.355297
 24
-149.884928
 34
0.0
100
AcDbRotatedDimension
1001
ACAD
1000
DSTYLE
1002
{
1070
    40
1040
3.0
1070
   147
1040
2.0
1002
}
  0
DIMENSION
  5
E2
100
AcDbEntity
  8
KOTY-UPLNE
100
AcDbDimension
  2
*D5
 10
402.855297
 20
-367.884928
 30
0.0
 11
277.855297
 21
-352.224928
 31
0.0
 12
-3943.32739
 22
4162.657346
 32
0.0
  3
UPLNE
100
AcDbAlignedDimension
 13
152.855297
 23
-307.884928
 33
0.0
 14
402.855297
 24
-307.884928
 34
0.0
100
AcDbRotatedDimension
1001
ACAD
1000
DSTYLE
1002
{
1070
    40
1040
3.0
1070
   147
1040
2.0
1002
}
  0
DIMENSION
  5
EF
100
AcDbEntity
  8
KOTY-UPLNE
100
AcDbDimension
  2
*D7
 10
632.355297
 20
-367.884928
 30
0.0
 11
652.855297
 21
-352.224928
 31
0.0
 12
-3943.32739
 22
4162.657346
 32
0.0
  3
UPLNE
100
AcDbAlignedDimension
 13
673.355297
 23
-307.884928
 33
0.0
 14
632.355297
 24
-307.884928
 34
0.0
100
AcDbRotatedDimension
1001
ACAD
1000
DSTYLE
1002
{
1070
    40
1040
3.0
1070
   147
1040
2.0
1002
}
  0
MTEXT
  5
FE
100
AcDbEntity
  8
POZICE
100
AcDbMText
 10
737.336555
 20
-364.006514
 30
0.0
 40
41.73
 41
1.0
 71
     5
 72
     1
  1
B
  7
STYLE1
  0
DIMENSION
  5
101
100
AcDbEntity
  8
KOTY-UPLNE
100
AcDbDimension
  2
*D1
 10
337.355297
 20
-101.074478
 30
0.0
 11
277.855297
 21
-85.414478
 31
0.0
 12
-3943.32739
 22
4162.657346
 32
0.0
  3
UPLNE
100
AcDbAlignedDimension
 13
218.355297
 23
-149.884928
 33
0.0
 14
337.355297
 24
-149.884928
 34
0.0
100
AcDbRotatedDimension
1001
ACAD
1000
DSTYLE
1002
{
1070
    40
1040
3.0
1070
   147
1040
2.0
1002
}
  0
DIMENSION
  5
10E
100
AcDbEntity
  8
KOTY-UPLNE
100
AcDbDimension
  2
*D3
 10
415.059259
 20
-149.884928
 30
0.0
 11
399.309259
 21
-173.346039
 31
0.0
 12
-3943.32739
 22
4162.657346
 32
0.0
 70
   128
  3
UPLNE
100
AcDbAlignedDimension
 13
277.855297
 23
-155.884928
 33
0.0
 14
337.355297
 24
-149.884928
 34
0.0
 50
90.0
100
AcDbRotatedDimension
1001
ACAD
1000
DSTYLE
1002
{
1070
    40
1040
3.0
1070
   147
1040
2.0
1002
}
  0
MTEXT
  5
11E
100
AcDbEntity
  8
KOTY-UPLNE
  6
BYBLOCK
 62
     5
100
AcDbMText
 10
614.428351
 20
-85.198963
 30
0.0
 40
16.5
 41
0.0
 71
     5
 72
     1
  1
všechna zaoblení R=5
  0
MTEXT
  5
11F
100
AcDbEntity
  8
POPIS
100
AcDbMText
 10
661.730741
 20
-42.124031
 30
0.0
 40
40.0
 41
1.0
 71
     5
 72
     1
  1
TR 160/250
  7
STYLE1
  0
MTEXT
  5
121
100
AcDbEntity
  8
POZICE
100
AcDbMText
 10
650.382323
 20
-167.368692
 30
0.0
 40
41.73
 41
1.0
 71
     5
 72
     1
  1
A
  7
STYLE1
  0
DIMENSION
  5
122
100
AcDbEntity
  8
KOTY-UPLNE
100
AcDbDimension
  2
*D8
 10
843.855297
 20
-101.074478
 30
0.0
 11
807.09858
 21
-83.75305
 31
0.0
 12
-3943.32739
 22
4162.657346
 32
0.0
 70
   128
  1
6,5
  3
UPLNE
100
AcDbAlignedDimension
 13
837.355297
 23
-149.884928
 33
0.0
 14
843.855297
 24
-186.884928
 34
0.0
100
AcDbRotatedDimension
1001
ACAD
1000
DSTYLE
1002
{
1070
    40
1040
3.0
1070
   147
1040
2.0
1002
}
  0
ENDSEC
  0
SECTION
  2
OBJECTS
  0
DICTIONARY
  5
1A
100
AcDbDictionary
  3
ACAD_GROUP
350
18
  3
ACAD_MLINESTYLE
350
19
  0
DICTIONARY
  5
18
102
{ACAD_REACTORS
330
1A
102
}
100
AcDbDictionary
  0
DICTIONARY
  5
19
102
{ACAD_REACTORS
330
1A
102
}
100
AcDbDictionary
  3
STANDARD
350
1C
  0
MLINESTYLE
  5
1C
102
{ACAD_REACTORS
330
19
102
}
100
AcDbMlineStyle
  2
STANDARD
 70
     0
  3

 62
   256
 51
90.0
 52
90.0
 71
     2
 49
0.5
 62
   256
  6
BYLAYER
 49
-0.5
 62
   256
  6
BYLAYER
  0
ENDSEC
  0
EOF
