  0
SECTION
  2
HEADER
  9
$ACADVER
  1
AC1014
  9
$ACADMAINTVER
 70
     0
  9
$DWGCODEPAGE
  3
ANSI_1250
  9
$INSBASE
 10
0.0
 20
0.0
 30
0.0
  9
$EXTMIN
 10
0.0
 20
-532.001233
 30
0.0
  9
$EXTMAX
 10
1349.672502
 20
0.0
 30
0.0
  9
$LIMMIN
 10
-1000.0
 20
-1000.0
  9
$LIMMAX
 10
1000.0
 20
1000.0
  9
$ORTHOMODE
 70
     0
  9
$REGENMODE
 70
     1
  9
$FILLMODE
 70
     1
  9
$QTEXTMODE
 70
     0
  9
$MIRRTEXT
 70
     0
  9
$DRAGMODE
 70
     2
  9
$LTSCALE
 40
3.0
  9
$OSMODE
 70
    32
  9
$ATTMODE
 70
     1
  9
$TEXTSIZE
 40
50.0
  9
$TRACEWID
 40
0.05
  9
$TEXTSTYLE
  7
STANDARD
  9
$CLAYER
  8
KOTY-UPLNE
  9
$CELTYPE
  6
BYLAYER
  9
$CECOLOR
 62
   256
  9
$CELTSCALE
 40
1.0
  9
$DELOBJ
 70
     1
  9
$DISPSILH
 70
     0
  9
$DIMSCALE
 40
3.0
  9
$DIMASZ
 40
5.0
  9
$DIMEXO
 40
1.0
  9
$DIMDLI
 40
0.0
  9
$DIMRND
 40
1.0
  9
$DIMDLE
 40
1.0
  9
$DIMEXE
 40
2.0
  9
$DIMTP
 40
0.0
  9
$DIMTM
 40
0.0
  9
$DIMTXT
 40
6.44
  9
$DIMCEN
 40
1.0
  9
$DIMTSZ
 40
0.0
  9
$DIMTOL
 70
     0
  9
$DIMLIM
 70
     0
  9
$DIMTIH
 70
     0
  9
$DIMTOH
 70
     0
  9
$DIMSE1
 70
     0
  9
$DIMSE2
 70
     0
  9
$DIMTAD
 70
     3
  9
$DIMZIN
 70
     0
  9
$DIMBLK
  1

  9
$DIMASO
 70
     1
  9
$DIMSHO
 70
     0
  9
$DIMPOST
  1

  9
$DIMAPOST
  1

  9
$DIMALT
 70
     0
  9
$DIMALTD
 70
     2
  9
$DIMALTF
 40
25.4
  9
$DIMLFAC
 40
1.0
  9
$DIMTOFL
 70
     1
  9
$DIMTVP
 40
0.0
  9
$DIMTIX
 70
     1
  9
$DIMSOXD
 70
     0
  9
$DIMSAH
 70
     0
  9
$DIMBLK1
  1

  9
$DIMBLK2
  1

  9
$DIMSTYLE
  2
UPLNE
  9
$DIMCLRD
 70
   256
  9
$DIMCLRE
 70
   256
  9
$DIMCLRT
 70
     5
  9
$DIMTFAC
 40
1.0
  9
$DIMGAP
 40
2.0
  9
$DIMJUST
 70
     0
  9
$DIMSD1
 70
     0
  9
$DIMSD2
 70
     0
  9
$DIMTOLJ
 70
     1
  9
$DIMTZIN
 70
     0
  9
$DIMALTZ
 70
     0
  9
$DIMALTTZ
 70
     0
  9
$DIMFIT
 70
     5
  9
$DIMUPT
 70
     0
  9
$DIMUNIT
 70
     2
  9
$DIMDEC
 70
     0
  9
$DIMTDEC
 70
     0
  9
$DIMALTU
 70
     2
  9
$DIMALTTD
 70
     2
  9
$DIMTXSTY
  7
STANDARD
  9
$DIMAUNIT
 70
     0
  9
$LUNITS
 70
     2
  9
$LUPREC
 70
     2
  9
$SKETCHINC
 40
0.1
  9
$FILLETRAD
 40
5.0
  9
$AUNITS
 70
     0
  9
$AUPREC
 70
     2
  9
$MENU
  1
acad
  9
$ELEVATION
 40
0.0
  9
$PELEVATION
 40
0.0
  9
$THICKNESS
 40
0.0
  9
$LIMCHECK
 70
     0
  9
$BLIPMODE
 70
     1
  9
$CHAMFERA
 40
0.0
  9
$CHAMFERB
 40
0.0
  9
$CHAMFERC
 40
0.0
  9
$CHAMFERD
 40
0.0
  9
$SKPOLY
 70
     0
  9
$TDCREATE
 40
2448722.252204629
  9
$TDUPDATE
 40
2452465.899519907
  9
$TDINDWG
 40
2.5464442130
  9
$TDUSRTIMER
 40
2.5464442130
  9
$USRTIMER
 70
     1
  9
$ANGBASE
 50
0.0
  9
$ANGDIR
 70
     0
  9
$PDMODE
 70
     0
  9
$PDSIZE
 40
0.0
  9
$PLINEWID
 40
0.0
  9
$COORDS
 70
     2
  9
$SPLFRAME
 70
     0
  9
$SPLINETYPE
 70
     6
  9
$SPLINESEGS
 70
     8
  9
$ATTDIA
 70
     0
  9
$ATTREQ
 70
     1
  9
$HANDLING
 70
     1
  9
$HANDSEED
  5
136
  9
$SURFTAB1
 70
     6
  9
$SURFTAB2
 70
     6
  9
$SURFTYPE
 70
     6
  9
$SURFU
 70
     6
  9
$SURFV
 70
     6
  9
$UCSNAME
  2

  9
$UCSORG
 10
0.0
 20
0.0
 30
0.0
  9
$UCSXDIR
 10
1.0
 20
0.0
 30
0.0
  9
$UCSYDIR
 10
0.0
 20
1.0
 30
0.0
  9
$PUCSNAME
  2

  9
$PUCSORG
 10
0.0
 20
0.0
 30
0.0
  9
$PUCSXDIR
 10
1.0
 20
0.0
 30
0.0
  9
$PUCSYDIR
 10
0.0
 20
1.0
 30
0.0
  9
$USERI1
 70
     1
  9
$USERI2
 70
     0
  9
$USERI3
 70
     0
  9
$USERI4
 70
     0
  9
$USERI5
 70
     0
  9
$USERR1
 40
0.0
  9
$USERR2
 40
0.0
  9
$USERR3
 40
0.0
  9
$USERR4
 40
0.0
  9
$USERR5
 40
0.0
  9
$WORLDVIEW
 70
     1
  9
$SHADEDGE
 70
     3
  9
$SHADEDIF
 70
    70
  9
$TILEMODE
 70
     1
  9
$MAXACTVP
 70
    16
  9
$PINSBASE
 10
0.0
 20
0.0
 30
0.0
  9
$PLIMCHECK
 70
     0
  9
$PEXTMIN
 10
1.000000E+20
 20
1.000000E+20
 30
1.000000E+20
  9
$PEXTMAX
 10
-1.000000E+20
 20
-1.000000E+20
 30
-1.000000E+20
  9
$PLIMMIN
 10
0.0
 20
0.0
  9
$PLIMMAX
 10
12.0
 20
9.0
  9
$UNITMODE
 70
     0
  9
$VISRETAIN
 70
     0
  9
$PLINEGEN
 70
     0
  9
$PSLTSCALE
 70
     0
  9
$TREEDEPTH
 70
  3020
  9
$PICKSTYLE
 70
     0
  9
$CMLSTYLE
  2
STANDARD
  9
$CMLJUST
 70
     0
  9
$CMLSCALE
 40
1.0
  9
$PROXYGRAPHICS
 70
     1
  9
$MEASUREMENT
 70
     0
  0
ENDSEC
  0
SECTION
  2
CLASSES
  0
CLASS
  1
LWPOLYLINE
  2
AcDbPolyline
  3
"AutoCAD"
 90
        0
280
     0
281
     1
  0
CLASS
  1
DICTIONARYVAR
  2
AcDbDictionaryVar
  3
"AutoCAD"
 90
        0
280
     0
281
     0
  0
ENDSEC
  0
SECTION
  2
TABLES
  0
TABLE
  2
VPORT
  5
12
100
AcDbSymbolTable
 70
     2
  0
VPORT
  5
135
100
AcDbSymbolTableRecord
100
AcDbViewportTableRecord
  2
*ACTIVE
 70
     0
 10
0.0
 20
0.0
 11
1.0
 21
1.0
 12
870.010296
 22
-298.41211
 13
0.0
 23
0.0
 14
1.0
 24
1.0
 15
600.0
 25
600.0
 16
0.0
 26
0.0
 36
1.0
 17
0.0
 27
0.0
 37
0.0
 40
899.967094
 41
2.224444
 42
50.0
 43
0.0
 44
0.0
 50
0.0
 51
0.0
 71
     0
 72
   100
 73
     1
 74
     0
 75
     0
 76
     0
 77
     0
 78
     0
  0
ENDTAB
  0
TABLE
  2
LTYPE
  5
D
100
AcDbSymbolTable
 70
     1
  0
LTYPE
  5
E
100
AcDbSymbolTableRecord
100
AcDbLinetypeTableRecord
  2
BYBLOCK
 70
     0
  3

 72
    65
 73
     0
 40
0.0
  0
LTYPE
  5
F
100
AcDbSymbolTableRecord
100
AcDbLinetypeTableRecord
  2
BYLAYER
 70
     0
  3

 72
    65
 73
     0
 40
0.0
  0
LTYPE
  5
5
100
AcDbSymbolTableRecord
100
AcDbLinetypeTableRecord
  2
CONTINUOUS
 70
     0
  3
Solid line
 72
    65
 73
     0
 40
0.0
  0
ENDTAB
  0
TABLE
  2
LAYER
  5
A
100
AcDbSymbolTable
 70
     7
  0
LAYER
  5
4
100
AcDbSymbolTableRecord
100
AcDbLayerTableRecord
  2
0
 70
     0
 62
     7
  6
CONTINUOUS
  0
LAYER
  5
1B
100
AcDbSymbolTableRecord
100
AcDbLayerTableRecord
  2
KOTY-UPLNE
 70
     0
 62
     7
  6
CONTINUOUS
  0
LAYER
  5
4F
100
AcDbSymbolTableRecord
100
AcDbLayerTableRecord
  2
RAMEC
 70
     0
 62
     5
  6
CONTINUOUS
  0
LAYER
  5
97
100
AcDbSymbolTableRecord
100
AcDbLayerTableRecord
  2
POZICE
 70
     0
 62
     1
  6
CONTINUOUS
  0
LAYER
  5
B8
100
AcDbSymbolTableRecord
100
AcDbLayerTableRecord
  2
POPIS
 70
     0
 62
     1
  6
CONTINUOUS
  0
LAYER
  5
2A
100
AcDbSymbolTableRecord
100
AcDbLayerTableRecord
  2
DEFPOINTS
 70
     0
 62
     7
  6
CONTINUOUS
  0
LAYER
  5
4D
100
AcDbSymbolTableRecord
100
AcDbLayerTableRecord
  2
TRAPEZ-VELKY
 70
     0
 62
     7
  6
CONTINUOUS
  0
ENDTAB
  0
TABLE
  2
STYLE
  5
B
100
AcDbSymbolTable
 70
     2
  0
STYLE
  5
C
100
AcDbSymbolTableRecord
100
AcDbTextStyleTableRecord
  2
STANDARD
 70
     0
 40
0.0
 41
0.9
 50
0.0
 71
     0
 42
50.0
  3
simplex.shx
  4

  0
STYLE
  5
98
100
AcDbSymbolTableRecord
100
AcDbTextStyleTableRecord
  2
STYLE1
 70
     0
 40
0.0
 41
0.9
 50
0.0
 71
     0
 42
50.0
  3
simplex.shx
  4

  0
ENDTAB
  0
TABLE
  2
VIEW
  5
10
100
AcDbSymbolTable
 70
     0
  0
ENDTAB
  0
TABLE
  2
UCS
  5
11
100
AcDbSymbolTable
 70
     0
  0
ENDTAB
  0
TABLE
  2
APPID
  5
14
100
AcDbSymbolTable
 70
     1
  0
APPID
  5
15
100
AcDbSymbolTableRecord
100
AcDbRegAppTableRecord
  2
ACAD
 70
     0
  0
ENDTAB
  0
TABLE
  2
DIMSTYLE
  5
16
100
AcDbSymbolTable
 70
     1
  0
DIMSTYLE
105
1D
102
{ACAD_REACTORS
330
7A
330
3F
330
123
330
113
330
C7
330
103
330
F4
330
BA
330
2F
330
1E
330
E4
330
D4
330
6D
330
99
330
60
330
87
330
50
330
A6
102
}
100
AcDbSymbolTableRecord
100
AcDbDimStyleTableRecord
  2
UPLNE
 70
     0
  3

  4

  5

  6

  7

 40
5.0
 41
5.0
 42
1.0
 43
0.0
 44
2.0
 45
1.0
 46
1.0
 47
0.0
 48
0.0
140
6.44
141
1.0
142
0.0
143
25.4
144
1.0
145
0.0
146
1.0
147
1.0
 71
     0
 72
     0
 73
     0
 74
     0
 75
     0
 76
     0
 77
     3
 78
     0
170
     0
171
     2
172
     1
173
     0
174
     1
175
     0
176
   256
177
   256
178
     5
270
     2
271
     0
272
     0
273
     2
274
     2
340
C
275
     0
280
     0
281
     0
282
     0
283
     1
284
     0
285
     0
286
     0
287
     5
288
     0
  0
ENDTAB
  0
TABLE
  2
BLOCK_RECORD
  5
1
100
AcDbSymbolTable
 70
    18
  0
BLOCK_RECORD
  5
2
100
AcDbSymbolTableRecord
100
AcDbBlockTableRecord
  2
*MODEL_SPACE
  0
BLOCK_RECORD
  5
7
100
AcDbSymbolTableRecord
100
AcDbBlockTableRecord
  2
*PAPER_SPACE
  0
BLOCK_RECORD
  5
7B
100
AcDbSymbolTableRecord
100
AcDbBlockTableRecord
  2
*D0
  0
BLOCK_RECORD
  5
40
100
AcDbSymbolTableRecord
100
AcDbBlockTableRecord
  2
*D1
  0
BLOCK_RECORD
  5
124
100
AcDbSymbolTableRecord
100
AcDbBlockTableRecord
  2
*D2
  0
BLOCK_RECORD
  5
114
100
AcDbSymbolTableRecord
100
AcDbBlockTableRecord
  2
*D3
  0
BLOCK_RECORD
  5
C8
100
AcDbSymbolTableRecord
100
AcDbBlockTableRecord
  2
*D4
  0
BLOCK_RECORD
  5
104
100
AcDbSymbolTableRecord
100
AcDbBlockTableRecord
  2
*D5
  0
BLOCK_RECORD
  5
F5
100
AcDbSymbolTableRecord
100
AcDbBlockTableRecord
  2
*D6
  0
BLOCK_RECORD
  5
BB
100
AcDbSymbolTableRecord
100
AcDbBlockTableRecord
  2
*D7
  0
BLOCK_RECORD
  5
30
100
AcDbSymbolTableRecord
100
AcDbBlockTableRecord
  2
*D8
  0
BLOCK_RECORD
  5
1F
100
AcDbSymbolTableRecord
100
AcDbBlockTableRecord
  2
*D9
  0
BLOCK_RECORD
  5
E5
100
AcDbSymbolTableRecord
100
AcDbBlockTableRecord
  2
*D10
  0
BLOCK_RECORD
  5
D5
100
AcDbSymbolTableRecord
100
AcDbBlockTableRecord
  2
*D11
  0
BLOCK_RECORD
  5
6E
100
AcDbSymbolTableRecord
100
AcDbBlockTableRecord
  2
*D12
  0
BLOCK_RECORD
  5
9A
100
AcDbSymbolTableRecord
100
AcDbBlockTableRecord
  2
*D13
  0
BLOCK_RECORD
  5
61
100
AcDbSymbolTableRecord
100
AcDbBlockTableRecord
  2
*D14
  0
BLOCK_RECORD
  5
88
100
AcDbSymbolTableRecord
100
AcDbBlockTableRecord
  2
*D15
  0
BLOCK_RECORD
  5
51
100
AcDbSymbolTableRecord
100
AcDbBlockTableRecord
  2
*D16
  0
BLOCK_RECORD
  5
A7
100
AcDbSymbolTableRecord
100
AcDbBlockTableRecord
  2
*D17
  0
ENDTAB
  0
ENDSEC
  0
SECTION
  2
BLOCKS
  0
BLOCK
  5
3
100
AcDbEntity
  8
0
100
AcDbBlockBegin
  2
*MODEL_SPACE
 70
     0
 10
0.0
 20
0.0
 30
0.0
  3
*MODEL_SPACE
  1

  0
ENDBLK
  5
6
100
AcDbEntity
  8
0
100
AcDbBlockEnd
  0
BLOCK
  5
8
100
AcDbEntity
 67
     1
  8
0
100
AcDbBlockBegin
  2
*PAPER_SPACE
 70
     0
 10
0.0
 20
0.0
 30
0.0
  3
*PAPER_SPACE
  1

  0
ENDBLK
  5
9
100
AcDbEntity
 67
     1
  8
0
100
AcDbBlockEnd
  0
BLOCK
  5
85
100
AcDbEntity
  8
0
100
AcDbBlockBegin
  2
*D0
 70
     1
 10
0.0
 20
0.0
 30
0.0
  3
*D0
  1

  0
LINE
  5
7C
100
AcDbEntity
  8
0
  6
BYBLOCK
100
AcDbLine
 10
4096.182687
 20
-3268.542274
 30
0.0
 11
4096.182687
 21
-3331.542274
 31
0.0
  0
LINE
  5
7D
100
AcDbEntity
  8
0
  6
BYBLOCK
100
AcDbLine
 10
4376.182687
 20
-3268.542274
 30
0.0
 11
4376.182687
 21
-3331.542274
 31
0.0
  0
LINE
  5
7E
100
AcDbEntity
  8
0
  6
BYBLOCK
100
AcDbLine
 10
4111.182687
 20
-3325.542274
 30
0.0
 11
4361.182687
 21
-3325.542274
 31
0.0
  0
SOLID
  5
7F
100
AcDbEntity
  8
0
  6
BYBLOCK
100
AcDbTrace
 10
4111.182687
 20
-3323.042274
 30
0.0
 11
4111.182687
 21
-3328.042274
 31
0.0
 12
4096.182687
 22
-3325.542274
 32
0.0
 13
4096.182687
 23
-3325.542274
 33
0.0
  0
SOLID
  5
80
100
AcDbEntity
  8
0
  6
BYBLOCK
100
AcDbTrace
 10
4361.182687
 20
-3323.042274
 30
0.0
 11
4361.182687
 21
-3328.042274
 31
0.0
 12
4376.182687
 22
-3325.542274
 32
0.0
 13
4376.182687
 23
-3325.542274
 33
0.0
  0
MTEXT
  5
81
100
AcDbEntity
  8
0
  6
BYBLOCK
 62
     5
100
AcDbMText
 10
4236.182687
 20
-3309.882274
 30
0.0
 40
19.32
 41
0.0
 71
     5
 72
     1
  1
\A1;280
  0
POINT
  5
82
100
AcDbEntity
  8
DEFPOINTS
  6
BYBLOCK
 62
     0
100
AcDbPoint
 10
4096.182687
 20
-3265.542274
 30
0.0
  0
POINT
  5
83
100
AcDbEntity
  8
DEFPOINTS
  6
BYBLOCK
 62
     0
100
AcDbPoint
 10
4376.182687
 20
-3265.542274
 30
0.0
  0
POINT
  5
84
100
AcDbEntity
  8
DEFPOINTS
  6
BYBLOCK
 62
     0
100
AcDbPoint
 10
4376.182687
 20
-3325.542274
 30
0.0
  0
ENDBLK
  5
86
100
AcDbEntity
  8
0
100
AcDbBlockEnd
  0
BLOCK
  5
4A
100
AcDbEntity
  8
0
100
AcDbBlockBegin
  2
*D1
 70
     1
 10
0.0
 20
0.0
 30
0.0
  3
*D1
  1

  0
LINE
  5
41
100
AcDbEntity
  8
0
  6
BYBLOCK
100
AcDbLine
 10
4096.182687
 20
-3268.542274
 30
0.0
 11
4096.182687
 21
-3391.542274
 31
0.0
  0
LINE
  5
42
100
AcDbEntity
  8
0
  6
BYBLOCK
100
AcDbLine
 10
4936.182687
 20
-3268.542274
 30
0.0
 11
4936.182687
 21
-3391.542274
 31
0.0
  0
LINE
  5
43
100
AcDbEntity
  8
0
  6
BYBLOCK
100
AcDbLine
 10
4111.182687
 20
-3385.542274
 30
0.0
 11
4921.182687
 21
-3385.542274
 31
0.0
  0
SOLID
  5
44
100
AcDbEntity
  8
0
  6
BYBLOCK
100
AcDbTrace
 10
4111.182687
 20
-3383.042274
 30
0.0
 11
4111.182687
 21
-3388.042274
 31
0.0
 12
4096.182687
 22
-3385.542274
 32
0.0
 13
4096.182687
 23
-3385.542274
 33
0.0
  0
SOLID
  5
45
100
AcDbEntity
  8
0
  6
BYBLOCK
100
AcDbTrace
 10
4921.182687
 20
-3383.042274
 30
0.0
 11
4921.182687
 21
-3388.042274
 31
0.0
 12
4936.182687
 22
-3385.542274
 32
0.0
 13
4936.182687
 23
-3385.542274
 33
0.0
  0
MTEXT
  5
46
100
AcDbEntity
  8
0
  6
BYBLOCK
 62
     5
100
AcDbMText
 10
4516.182687
 20
-3369.882274
 30
0.0
 40
19.32
 41
0.0
 71
     5
 72
     1
  1
\A1;840
  0
POINT
  5
47
100
AcDbEntity
  8
DEFPOINTS
  6
BYBLOCK
 62
     0
100
AcDbPoint
 10
4096.182687
 20
-3265.542274
 30
0.0
  0
POINT
  5
48
100
AcDbEntity
  8
DEFPOINTS
  6
BYBLOCK
 62
     0
100
AcDbPoint
 10
4936.182687
 20
-3265.542274
 30
0.0
  0
POINT
  5
49
100
AcDbEntity
  8
DEFPOINTS
  6
BYBLOCK
 62
     0
100
AcDbPoint
 10
4936.182687
 20
-3385.542274
 30
0.0
  0
ENDBLK
  5
4B
100
AcDbEntity
  8
0
100
AcDbBlockEnd
  0
BLOCK
  5
130
100
AcDbEntity
  8
0
100
AcDbBlockBegin
  2
*D2
 70
     1
 10
0.0
 20
0.0
 30
0.0
  3
*D2
  1

  0
LINE
  5
125
100
AcDbEntity
  8
0
  6
BYBLOCK
100
AcDbLine
 10
4858.682687
 20
-3112.542274
 30
0.0
 11
5008.251916
 21
-3112.542274
 31
0.0
  0
LINE
  5
126
100
AcDbEntity
  8
0
  6
BYBLOCK
100
AcDbLine
 10
4866.482687
 20
-3148.542274
 30
0.0
 11
5008.251916
 21
-3148.542274
 31
0.0
  0
LINE
  5
127
100
AcDbEntity
  8
0
  6
BYBLOCK
100
AcDbLine
 10
5002.251916
 20
-3097.542274
 30
0.0
 11
5002.251916
 21
-3082.542274
 31
0.0
  0
LINE
  5
128
100
AcDbEntity
  8
0
  6
BYBLOCK
100
AcDbLine
 10
5002.251916
 20
-3163.542274
 30
0.0
 11
5002.251916
 21
-3178.542274
 31
0.0
  0
LINE
  5
129
100
AcDbEntity
  8
0
  6
BYBLOCK
100
AcDbLine
 10
5002.251916
 20
-3112.542274
 30
0.0
 11
5002.251916
 21
-3148.542274
 31
0.0
  0
SOLID
  5
12A
100
AcDbEntity
  8
0
  6
BYBLOCK
100
AcDbTrace
 10
4999.751916
 20
-3097.542274
 30
0.0
 11
5004.751916
 21
-3097.542274
 31
0.0
 12
5002.251916
 22
-3112.542274
 32
0.0
 13
5002.251916
 23
-3112.542274
 33
0.0
  0
SOLID
  5
12B
100
AcDbEntity
  8
0
  6
BYBLOCK
100
AcDbTrace
 10
4999.751916
 20
-3163.542274
 30
0.0
 11
5004.751916
 21
-3163.542274
 31
0.0
 12
5002.251916
 22
-3148.542274
 32
0.0
 13
5002.251916
 23
-3148.542274
 33
0.0
  0
MTEXT
  5
12C
100
AcDbEntity
  8
0
  6
BYBLOCK
 62
     5
100
AcDbMText
 10
4986.591916
 20
-3130.542274
 30
0.0
 40
19.32
 41
0.0
 71
     5
 72
     1
  1
\A1;36
 11
0.0
 21
1.0
 31
0.0
  0
POINT
  5
12D
100
AcDbEntity
  8
DEFPOINTS
  6
BYBLOCK
 62
     0
100
AcDbPoint
 10
4855.682687
 20
-3112.542274
 30
0.0
  0
POINT
  5
12E
100
AcDbEntity
  8
DEFPOINTS
  6
BYBLOCK
 62
     0
100
AcDbPoint
 10
4863.482687
 20
-3148.542274
 30
0.0
  0
POINT
  5
12F
100
AcDbEntity
  8
DEFPOINTS
  6
BYBLOCK
 62
     0
100
AcDbPoint
 10
5002.251916
 20
-3148.542274
 30
0.0
  0
ENDBLK
  5
131
100
AcDbEntity
  8
0
100
AcDbBlockEnd
  0
BLOCK
  5
121
100
AcDbEntity
  8
0
100
AcDbBlockBegin
  2
*D3
 70
     1
 10
0.0
 20
0.0
 30
0.0
  3
*D3
  1

  0
LINE
  5
115
100
AcDbEntity
  8
0
  6
BYBLOCK
100
AcDbLine
 10
4866.482687
 20
-3148.542274
 30
0.0
 11
5008.251916
 21
-3148.542274
 31
0.0
  0
LINE
  5
116
100
AcDbEntity
  8
0
  6
BYBLOCK
100
AcDbLine
 10
4876.982687
 20
-3159.542274
 30
0.0
 11
5008.251916
 21
-3159.542274
 31
0.0
  0
LINE
  5
117
100
AcDbEntity
  8
0
  6
BYBLOCK
100
AcDbLine
 10
5002.251916
 20
-3133.542274
 30
0.0
 11
5002.251916
 21
-3118.542274
 31
0.0
  0
LINE
  5
118
100
AcDbEntity
  8
0
  6
BYBLOCK
100
AcDbLine
 10
5002.251916
 20
-3174.542274
 30
0.0
 11
5002.251916
 21
-3189.542274
 31
0.0
  0
MTEXT
  5
119
100
AcDbEntity
  8
0
  6
BYBLOCK
 62
     5
100
AcDbMText
 10
5018.982541
 20
-3154.042274
 30
0.0
 40
19.32
 41
0.0
 71
     5
 72
     1
  1
\A1;11
 11
0.0
 21
1.0
 31
0.0
  0
LINE
  5
11A
100
AcDbEntity
  8
0
  6
BYBLOCK
100
AcDbLine
 10
5002.251916
 20
-3148.542274
 30
0.0
 11
5002.251916
 21
-3159.542274
 31
0.0
  0
LINE
  5
11B
100
AcDbEntity
  8
0
  6
BYBLOCK
100
AcDbLine
 10
5002.251916
 20
-3148.542274
 30
0.0
 11
5002.251916
 21
-3159.542274
 31
0.0
  0
SOLID
  5
11C
100
AcDbEntity
  8
0
  6
BYBLOCK
100
AcDbTrace
 10
4999.751916
 20
-3133.542274
 30
0.0
 11
5004.751916
 21
-3133.542274
 31
0.0
 12
5002.251916
 22
-3148.542274
 32
0.0
 13
5002.251916
 23
-3148.542274
 33
0.0
  0
SOLID
  5
11D
100
AcDbEntity
  8
0
  6
BYBLOCK
100
AcDbTrace
 10
4999.751916
 20
-3174.542274
 30
0.0
 11
5004.751916
 21
-3174.542274
 31
0.0
 12
5002.251916
 22
-3159.542274
 32
0.0
 13
5002.251916
 23
-3159.542274
 33
0.0
  0
POINT
  5
11E
100
AcDbEntity
  8
DEFPOINTS
  6
BYBLOCK
 62
     0
100
AcDbPoint
 10
4863.482687
 20
-3148.542274
 30
0.0
  0
POINT
  5
11F
100
AcDbEntity
  8
DEFPOINTS
  6
BYBLOCK
 62
     0
100
AcDbPoint
 10
4873.982687
 20
-3159.542274
 30
0.0
  0
POINT
  5
120
100
AcDbEntity
  8
DEFPOINTS
  6
BYBLOCK
 62
     0
100
AcDbPoint
 10
5002.251916
 20
-3159.542274
 30
0.0
  0
ENDBLK
  5
122
100
AcDbEntity
  8
0
100
AcDbBlockEnd
  0
BLOCK
  5
D2
100
AcDbEntity
  8
0
100
AcDbBlockBegin
  2
*D4
 70
     1
 10
0.0
 20
0.0
 30
0.0
  3
*D4
  1

  0
LINE
  5
C9
100
AcDbEntity
  8
0
  6
BYBLOCK
100
AcDbLine
 10
4876.982687
 20
-3159.542274
 30
0.0
 11
5008.251916
 21
-3159.542274
 31
0.0
  0
LINE
  5
CA
100
AcDbEntity
  8
0
  6
BYBLOCK
100
AcDbLine
 10
4901.382687
 20
-3224.542274
 30
0.0
 11
5008.251916
 21
-3224.542274
 31
0.0
  0
LINE
  5
CB
100
AcDbEntity
  8
0
  6
BYBLOCK
100
AcDbLine
 10
5002.251916
 20
-3174.542274
 30
0.0
 11
5002.251916
 21
-3209.542274
 31
0.0
  0
SOLID
  5
CC
100
AcDbEntity
  8
0
  6
BYBLOCK
100
AcDbTrace
 10
4999.751916
 20
-3174.542274
 30
0.0
 11
5004.751916
 21
-3174.542274
 31
0.0
 12
5002.251916
 22
-3159.542274
 32
0.0
 13
5002.251916
 23
-3159.542274
 33
0.0
  0
SOLID
  5
CD
100
AcDbEntity
  8
0
  6
BYBLOCK
100
AcDbTrace
 10
4999.751916
 20
-3209.542274
 30
0.0
 11
5004.751916
 21
-3209.542274
 31
0.0
 12
5002.251916
 22
-3224.542274
 32
0.0
 13
5002.251916
 23
-3224.542274
 33
0.0
  0
MTEXT
  5
CE
100
AcDbEntity
  8
0
  6
BYBLOCK
 62
     5
100
AcDbMText
 10
4986.591916
 20
-3192.042274
 30
0.0
 40
19.32
 41
0.0
 71
     5
 72
     1
  1
\A1;65
 11
0.0
 21
1.0
 31
0.0
  0
POINT
  5
CF
100
AcDbEntity
  8
DEFPOINTS
  6
BYBLOCK
 62
     0
100
AcDbPoint
 10
4873.982687
 20
-3159.542274
 30
0.0
  0
POINT
  5
D0
100
AcDbEntity
  8
DEFPOINTS
  6
BYBLOCK
 62
     0
100
AcDbPoint
 10
4898.382687
 20
-3224.542274
 30
0.0
  0
POINT
  5
D1
100
AcDbEntity
  8
DEFPOINTS
  6
BYBLOCK
 62
     0
100
AcDbPoint
 10
5002.251916
 20
-3224.542274
 30
0.0
  0
ENDBLK
  5
D3
100
AcDbEntity
  8
0
100
AcDbBlockEnd
  0
BLOCK
  5
111
100
AcDbEntity
  8
0
100
AcDbBlockBegin
  2
*D5
 70
     1
 10
0.0
 20
0.0
 30
0.0
  3
*D5
  1

  0
LINE
  5
105
100
AcDbEntity
  8
0
  6
BYBLOCK
100
AcDbLine
 10
4901.382687
 20
-3224.542274
 30
0.0
 11
5008.251916
 21
-3224.542274
 31
0.0
  0
LINE
  5
106
100
AcDbEntity
  8
0
  6
BYBLOCK
100
AcDbLine
 10
4912.182687
 20
-3235.542274
 30
0.0
 11
5008.251916
 21
-3235.542274
 31
0.0
  0
LINE
  5
107
100
AcDbEntity
  8
0
  6
BYBLOCK
100
AcDbLine
 10
5002.251916
 20
-3209.542274
 30
0.0
 11
5002.251916
 21
-3194.542274
 31
0.0
  0
LINE
  5
108
100
AcDbEntity
  8
0
  6
BYBLOCK
100
AcDbLine
 10
5002.251916
 20
-3250.542274
 30
0.0
 11
5002.251916
 21
-3265.542274
 31
0.0
  0
MTEXT
  5
109
100
AcDbEntity
  8
0
  6
BYBLOCK
 62
     5
100
AcDbMText
 10
5019.819064
 20
-3230.042274
 30
0.0
 40
19.32
 41
0.0
 71
     5
 72
     1
  1
\A1;11
 11
0.0
 21
1.0
 31
0.0
  0
LINE
  5
10A
100
AcDbEntity
  8
0
  6
BYBLOCK
100
AcDbLine
 10
5002.251916
 20
-3224.542274
 30
0.0
 11
5002.251916
 21
-3235.542274
 31
0.0
  0
LINE
  5
10B
100
AcDbEntity
  8
0
  6
BYBLOCK
100
AcDbLine
 10
5002.251916
 20
-3224.542274
 30
0.0
 11
5002.251916
 21
-3235.542274
 31
0.0
  0
SOLID
  5
10C
100
AcDbEntity
  8
0
  6
BYBLOCK
100
AcDbTrace
 10
4999.751916
 20
-3209.542274
 30
0.0
 11
5004.751916
 21
-3209.542274
 31
0.0
 12
5002.251916
 22
-3224.542274
 32
0.0
 13
5002.251916
 23
-3224.542274
 33
0.0
  0
SOLID
  5
10D
100
AcDbEntity
  8
0
  6
BYBLOCK
100
AcDbTrace
 10
4999.751916
 20
-3250.542274
 30
0.0
 11
5004.751916
 21
-3250.542274
 31
0.0
 12
5002.251916
 22
-3235.542274
 32
0.0
 13
5002.251916
 23
-3235.542274
 33
0.0
  0
POINT
  5
10E
100
AcDbEntity
  8
DEFPOINTS
  6
BYBLOCK
 62
     0
100
AcDbPoint
 10
4898.382687
 20
-3224.542274
 30
0.0
  0
POINT
  5
10F
100
AcDbEntity
  8
DEFPOINTS
  6
BYBLOCK
 62
     0
100
AcDbPoint
 10
4909.182687
 20
-3235.542274
 30
0.0
  0
POINT
  5
110
100
AcDbEntity
  8
DEFPOINTS
  6
BYBLOCK
 62
     0
100
AcDbPoint
 10
5002.251916
 20
-3235.542274
 30
0.0
  0
ENDBLK
  5
112
100
AcDbEntity
  8
0
100
AcDbBlockEnd
  0
BLOCK
  5
101
100
AcDbEntity
  8
0
100
AcDbBlockBegin
  2
*D6
 70
     1
 10
0.0
 20
0.0
 30
0.0
  3
*D6
  1

  0
LINE
  5
F6
100
AcDbEntity
  8
0
  6
BYBLOCK
100
AcDbLine
 10
4912.182687
 20
-3235.542274
 30
0.0
 11
5008.251916
 21
-3235.542274
 31
0.0
  0
LINE
  5
F7
100
AcDbEntity
  8
0
  6
BYBLOCK
100
AcDbLine
 10
4959.682687
 20
-3265.542274
 30
0.0
 11
5008.251916
 21
-3265.542274
 31
0.0
  0
LINE
  5
F8
100
AcDbEntity
  8
0
  6
BYBLOCK
100
AcDbLine
 10
5002.251916
 20
-3220.542274
 30
0.0
 11
5002.251916
 21
-3205.542274
 31
0.0
  0
LINE
  5
F9
100
AcDbEntity
  8
0
  6
BYBLOCK
100
AcDbLine
 10
5002.251916
 20
-3280.542274
 30
0.0
 11
5002.251916
 21
-3295.542274
 31
0.0
  0
LINE
  5
FA
100
AcDbEntity
  8
0
  6
BYBLOCK
100
AcDbLine
 10
5002.251916
 20
-3235.542274
 30
0.0
 11
5002.251916
 21
-3265.542274
 31
0.0
  0
SOLID
  5
FB
100
AcDbEntity
  8
0
  6
BYBLOCK
100
AcDbTrace
 10
4999.751916
 20
-3220.542274
 30
0.0
 11
5004.751916
 21
-3220.542274
 31
0.0
 12
5002.251916
 22
-3235.542274
 32
0.0
 13
5002.251916
 23
-3235.542274
 33
0.0
  0
SOLID
  5
FC
100
AcDbEntity
  8
0
  6
BYBLOCK
100
AcDbTrace
 10
4999.751916
 20
-3280.542274
 30
0.0
 11
5004.751916
 21
-3280.542274
 31
0.0
 12
5002.251916
 22
-3265.542274
 32
0.0
 13
5002.251916
 23
-3265.542274
 33
0.0
  0
MTEXT
  5
FD
100
AcDbEntity
  8
0
  6
BYBLOCK
 62
     5
100
AcDbMText
 10
4986.591916
 20
-3250.542274
 30
0.0
 40
19.32
 41
0.0
 71
     5
 72
     1
  1
\A1;30
 11
0.0
 21
1.0
 31
0.0
  0
POINT
  5
FE
100
AcDbEntity
  8
DEFPOINTS
  6
BYBLOCK
 62
     0
100
AcDbPoint
 10
4909.182687
 20
-3235.542274
 30
0.0
  0
POINT
  5
FF
100
AcDbEntity
  8
DEFPOINTS
  6
BYBLOCK
 62
     0
100
AcDbPoint
 10
4956.682687
 20
-3265.542274
 30
0.0
  0
POINT
  5
100
100
AcDbEntity
  8
DEFPOINTS
  6
BYBLOCK
 62
     0
100
AcDbPoint
 10
5002.251916
 20
-3265.542274
 30
0.0
  0
ENDBLK
  5
102
100
AcDbEntity
  8
0
100
AcDbBlockEnd
  0
BLOCK
  5
C5
100
AcDbEntity
  8
0
100
AcDbBlockBegin
  2
*D7
 70
     1
 10
0.0
 20
0.0
 30
0.0
  3
*D7
  1

  0
LINE
  5
BC
100
AcDbEntity
  8
0
  6
BYBLOCK
100
AcDbLine
 10
4858.682687
 20
-3112.542274
 30
0.0
 11
5069.318657
 21
-3112.542274
 31
0.0
  0
LINE
  5
BD
100
AcDbEntity
  8
0
  6
BYBLOCK
100
AcDbLine
 10
4959.682687
 20
-3265.542274
 30
0.0
 11
5069.318657
 21
-3265.542274
 31
0.0
  0
LINE
  5
BE
100
AcDbEntity
  8
0
  6
BYBLOCK
100
AcDbLine
 10
5063.318657
 20
-3127.542274
 30
0.0
 11
5063.318657
 21
-3250.542274
 31
0.0
  0
SOLID
  5
BF
100
AcDbEntity
  8
0
  6
BYBLOCK
100
AcDbTrace
 10
5060.818657
 20
-3127.542274
 30
0.0
 11
5065.818657
 21
-3127.542274
 31
0.0
 12
5063.318657
 22
-3112.542274
 32
0.0
 13
5063.318657
 23
-3112.542274
 33
0.0
  0
SOLID
  5
C0
100
AcDbEntity
  8
0
  6
BYBLOCK
100
AcDbTrace
 10
5060.818657
 20
-3250.542274
 30
0.0
 11
5065.818657
 21
-3250.542274
 31
0.0
 12
5063.318657
 22
-3265.542274
 32
0.0
 13
5063.318657
 23
-3265.542274
 33
0.0
  0
MTEXT
  5
C1
100
AcDbEntity
  8
0
  6
BYBLOCK
 62
     5
100
AcDbMText
 10
5047.658657
 20
-3189.042274
 30
0.0
 40
19.32
 41
0.0
 71
     5
 72
     1
  1
\A1;153
 11
0.0
 21
1.0
 31
0.0
  0
POINT
  5
C2
100
AcDbEntity
  8
DEFPOINTS
  6
BYBLOCK
 62
     0
100
AcDbPoint
 10
4855.682687
 20
-3112.542274
 30
0.0
  0
POINT
  5
C3
100
AcDbEntity
  8
DEFPOINTS
  6
BYBLOCK
 62
     0
100
AcDbPoint
 10
4956.682687
 20
-3265.542274
 30
0.0
  0
POINT
  5
C4
100
AcDbEntity
  8
DEFPOINTS
  6
BYBLOCK
 62
     0
100
AcDbPoint
 10
5063.318657
 20
-3265.542274
 30
0.0
  0
ENDBLK
  5
C6
100
AcDbEntity
  8
0
100
AcDbBlockEnd
  0
BLOCK
  5
3D
100
AcDbEntity
  8
0
100
AcDbBlockBegin
  2
*D8
 70
     1
 10
0.0
 20
0.0
 30
0.0
  3
*D8
  1

  0
LINE
  5
31
100
AcDbEntity
  8
0
  6
BYBLOCK
100
AcDbLine
 10
4855.682687
 20
-3109.542274
 30
0.0
 11
4855.682687
 21
-3067.730592
 31
0.0
  0
LINE
  5
32
100
AcDbEntity
  8
0
  6
BYBLOCK
100
AcDbLine
 10
4863.482687
 20
-3145.542274
 30
0.0
 11
4863.482687
 21
-3067.730592
 31
0.0
  0
LINE
  5
33
100
AcDbEntity
  8
0
  6
BYBLOCK
100
AcDbLine
 10
4840.682687
 20
-3073.730592
 30
0.0
 11
4825.682687
 21
-3073.730592
 31
0.0
  0
LINE
  5
34
100
AcDbEntity
  8
0
  6
BYBLOCK
100
AcDbLine
 10
4878.482687
 20
-3073.730592
 30
0.0
 11
4893.482687
 21
-3073.730592
 31
0.0
  0
MTEXT
  5
35
100
AcDbEntity
  8
0
  6
BYBLOCK
 62
     5
100
AcDbMText
 10
4832.54673
 20
-3056.409163
 30
0.0
 40
19.32
 41
0.0
 71
     5
 72
     1
  1
\A1;7,8
  0
LINE
  5
36
100
AcDbEntity
  8
0
  6
BYBLOCK
100
AcDbLine
 10
4855.682687
 20
-3073.730592
 30
0.0
 11
4863.482687
 21
-3073.730592
 31
0.0
  0
LINE
  5
37
100
AcDbEntity
  8
0
  6
BYBLOCK
100
AcDbLine
 10
4855.682687
 20
-3073.730592
 30
0.0
 11
4863.482687
 21
-3073.730592
 31
0.0
  0
SOLID
  5
38
100
AcDbEntity
  8
0
  6
BYBLOCK
100
AcDbTrace
 10
4840.682687
 20
-3071.230592
 30
0.0
 11
4840.682687
 21
-3076.230592
 31
0.0
 12
4855.682687
 22
-3073.730592
 32
0.0
 13
4855.682687
 23
-3073.730592
 33
0.0
  0
SOLID
  5
39
100
AcDbEntity
  8
0
  6
BYBLOCK
100
AcDbTrace
 10
4878.482687
 20
-3071.230592
 30
0.0
 11
4878.482687
 21
-3076.230592
 31
0.0
 12
4863.482687
 22
-3073.730592
 32
0.0
 13
4863.482687
 23
-3073.730592
 33
0.0
  0
POINT
  5
3A
100
AcDbEntity
  8
DEFPOINTS
  6
BYBLOCK
 62
     0
100
AcDbPoint
 10
4855.682687
 20
-3112.542274
 30
0.0
  0
POINT
  5
3B
100
AcDbEntity
  8
DEFPOINTS
  6
BYBLOCK
 62
     0
100
AcDbPoint
 10
4863.482687
 20
-3148.542274
 30
0.0
  0
POINT
  5
3C
100
AcDbEntity
  8
DEFPOINTS
  6
BYBLOCK
 62
     0
100
AcDbPoint
 10
4863.482687
 20
-3073.730592
 30
0.0
  0
ENDBLK
  5
3E
100
AcDbEntity
  8
0
100
AcDbBlockEnd
  0
BLOCK
  5
2D
100
AcDbEntity
  8
0
100
AcDbBlockBegin
  2
*D9
 70
     1
 10
0.0
 20
0.0
 30
0.0
  3
*D9
  1

  0
LINE
  5
20
100
AcDbEntity
  8
0
  6
BYBLOCK
100
AcDbLine
 10
4863.482687
 20
-3145.542274
 30
0.0
 11
4863.482687
 21
-3067.730592
 31
0.0
  0
LINE
  5
21
100
AcDbEntity
  8
0
  6
BYBLOCK
100
AcDbLine
 10
4876.982687
 20
-3156.542274
 30
0.0
 11
4876.982687
 21
-3067.730592
 31
0.0
  0
LINE
  5
22
100
AcDbEntity
  8
0
  6
BYBLOCK
100
AcDbLine
 10
4848.482687
 20
-3073.730592
 30
0.0
 11
4833.482687
 21
-3073.730592
 31
0.0
  0
LINE
  5
23
100
AcDbEntity
  8
0
  6
BYBLOCK
100
AcDbLine
 10
4891.982687
 20
-3073.730592
 30
0.0
 11
4906.982687
 21
-3073.730592
 31
0.0
  0
MTEXT
  5
24
100
AcDbEntity
  8
0
  6
BYBLOCK
 62
     5
100
AcDbMText
 10
4909.585999
 20
-3056.65684
 30
0.0
 40
19.32
 41
0.0
 71
     5
 72
     1
  1
\A1;10,5
  0
LINE
  5
25
100
AcDbEntity
  8
0
  6
BYBLOCK
100
AcDbLine
 10
4863.482687
 20
-3073.730592
 30
0.0
 11
4876.982687
 21
-3073.730592
 31
0.0
  0
LINE
  5
26
100
AcDbEntity
  8
0
  6
BYBLOCK
100
AcDbLine
 10
4863.482687
 20
-3073.730592
 30
0.0
 11
4876.982687
 21
-3073.730592
 31
0.0
  0
SOLID
  5
27
100
AcDbEntity
  8
0
  6
BYBLOCK
100
AcDbTrace
 10
4848.482687
 20
-3071.230592
 30
0.0
 11
4848.482687
 21
-3076.230592
 31
0.0
 12
4863.482687
 22
-3073.730592
 32
0.0
 13
4863.482687
 23
-3073.730592
 33
0.0
  0
SOLID
  5
28
100
AcDbEntity
  8
0
  6
BYBLOCK
100
AcDbTrace
 10
4891.982687
 20
-3071.230592
 30
0.0
 11
4891.982687
 21
-3076.230592
 31
0.0
 12
4876.982687
 22
-3073.730592
 32
0.0
 13
4876.982687
 23
-3073.730592
 33
0.0
  0
POINT
  5
29
100
AcDbEntity
  8
DEFPOINTS
  6
BYBLOCK
 62
     0
100
AcDbPoint
 10
4863.482687
 20
-3148.542274
 30
0.0
  0
POINT
  5
2B
100
AcDbEntity
  8
DEFPOINTS
  6
BYBLOCK
 62
     0
100
AcDbPoint
 10
4876.982687
 20
-3159.542274
 30
0.0
  0
POINT
  5
2C
100
AcDbEntity
  8
DEFPOINTS
  6
BYBLOCK
 62
     0
100
AcDbPoint
 10
4876.982687
 20
-3073.730592
 30
0.0
  0
ENDBLK
  5
2E
100
AcDbEntity
  8
0
100
AcDbBlockEnd
  0
BLOCK
  5
F2
100
AcDbEntity
  8
0
100
AcDbBlockBegin
  2
*D10
 70
     1
 10
0.0
 20
0.0
 30
0.0
  3
*D10
  1

  0
LINE
  5
E6
100
AcDbEntity
  8
0
  6
BYBLOCK
100
AcDbLine
 10
4898.382687
 20
-3227.542274
 30
0.0
 11
4898.382687
 21
-3331.542274
 31
0.0
  0
LINE
  5
E7
100
AcDbEntity
  8
0
  6
BYBLOCK
100
AcDbLine
 10
4909.182687
 20
-3238.542274
 30
0.0
 11
4909.182687
 21
-3331.542274
 31
0.0
  0
LINE
  5
E8
100
AcDbEntity
  8
0
  6
BYBLOCK
100
AcDbLine
 10
4883.382687
 20
-3325.542274
 30
0.0
 11
4868.382687
 21
-3325.542274
 31
0.0
  0
LINE
  5
E9
100
AcDbEntity
  8
0
  6
BYBLOCK
100
AcDbLine
 10
4924.182687
 20
-3325.542274
 30
0.0
 11
4939.182687
 21
-3325.542274
 31
0.0
  0
MTEXT
  5
EA
100
AcDbEntity
  8
0
  6
BYBLOCK
 62
     5
100
AcDbMText
 10
4867.906633
 20
-3309.792274
 30
0.0
 40
19.32
 41
0.0
 71
     5
 72
     1
  1
\A1;10,8
  0
LINE
  5
EB
100
AcDbEntity
  8
0
  6
BYBLOCK
100
AcDbLine
 10
4898.382687
 20
-3325.542274
 30
0.0
 11
4909.182687
 21
-3325.542274
 31
0.0
  0
LINE
  5
EC
100
AcDbEntity
  8
0
  6
BYBLOCK
100
AcDbLine
 10
4898.382687
 20
-3325.542274
 30
0.0
 11
4909.182687
 21
-3325.542274
 31
0.0
  0
SOLID
  5
ED
100
AcDbEntity
  8
0
  6
BYBLOCK
100
AcDbTrace
 10
4883.382687
 20
-3323.042274
 30
0.0
 11
4883.382687
 21
-3328.042274
 31
0.0
 12
4898.382687
 22
-3325.542274
 32
0.0
 13
4898.382687
 23
-3325.542274
 33
0.0
  0
SOLID
  5
EE
100
AcDbEntity
  8
0
  6
BYBLOCK
100
AcDbTrace
 10
4924.182687
 20
-3323.042274
 30
0.0
 11
4924.182687
 21
-3328.042274
 31
0.0
 12
4909.182687
 22
-3325.542274
 32
0.0
 13
4909.182687
 23
-3325.542274
 33
0.0
  0
POINT
  5
EF
100
AcDbEntity
  8
DEFPOINTS
  6
BYBLOCK
 62
     0
100
AcDbPoint
 10
4898.382687
 20
-3224.542274
 30
0.0
  0
POINT
  5
F0
100
AcDbEntity
  8
DEFPOINTS
  6
BYBLOCK
 62
     0
100
AcDbPoint
 10
4909.182687
 20
-3235.542274
 30
0.0
  0
POINT
  5
F1
100
AcDbEntity
  8
DEFPOINTS
  6
BYBLOCK
 62
     0
100
AcDbPoint
 10
4909.182687
 20
-3325.542274
 30
0.0
  0
ENDBLK
  5
F3
100
AcDbEntity
  8
0
100
AcDbBlockEnd
  0
BLOCK
  5
E2
100
AcDbEntity
  8
0
100
AcDbBlockBegin
  2
*D11
 70
     1
 10
0.0
 20
0.0
 30
0.0
  3
*D11
  1

  0
LINE
  5
D6
100
AcDbEntity
  8
0
  6
BYBLOCK
100
AcDbLine
 10
4909.182687
 20
-3238.542274
 30
0.0
 11
4909.182687
 21
-3331.542274
 31
0.0
  0
LINE
  5
D7
100
AcDbEntity
  8
0
  6
BYBLOCK
100
AcDbLine
 10
4915.682687
 20
-3268.542274
 30
0.0
 11
4915.682687
 21
-3331.542274
 31
0.0
  0
LINE
  5
D8
100
AcDbEntity
  8
0
  6
BYBLOCK
100
AcDbLine
 10
4894.182687
 20
-3325.542274
 30
0.0
 11
4879.182687
 21
-3325.542274
 31
0.0
  0
LINE
  5
D9
100
AcDbEntity
  8
0
  6
BYBLOCK
100
AcDbLine
 10
4930.682687
 20
-3325.542274
 30
0.0
 11
4945.682687
 21
-3325.542274
 31
0.0
  0
MTEXT
  5
DA
100
AcDbEntity
  8
0
  6
BYBLOCK
 62
     5
100
AcDbMText
 10
4939.68096
 20
-3309.792274
 30
0.0
 40
19.32
 41
0.0
 71
     5
 72
     1
  1
\A1;6,5
  0
LINE
  5
DB
100
AcDbEntity
  8
0
  6
BYBLOCK
100
AcDbLine
 10
4909.182687
 20
-3325.542274
 30
0.0
 11
4915.682687
 21
-3325.542274
 31
0.0
  0
LINE
  5
DC
100
AcDbEntity
  8
0
  6
BYBLOCK
100
AcDbLine
 10
4909.182687
 20
-3325.542274
 30
0.0
 11
4915.682687
 21
-3325.542274
 31
0.0
  0
SOLID
  5
DD
100
AcDbEntity
  8
0
  6
BYBLOCK
100
AcDbTrace
 10
4894.182687
 20
-3323.042274
 30
0.0
 11
4894.182687
 21
-3328.042274
 31
0.0
 12
4909.182687
 22
-3325.542274
 32
0.0
 13
4909.182687
 23
-3325.542274
 33
0.0
  0
SOLID
  5
DE
100
AcDbEntity
  8
0
  6
BYBLOCK
100
AcDbTrace
 10
4930.682687
 20
-3323.042274
 30
0.0
 11
4930.682687
 21
-3328.042274
 31
0.0
 12
4915.682687
 22
-3325.542274
 32
0.0
 13
4915.682687
 23
-3325.542274
 33
0.0
  0
POINT
  5
DF
100
AcDbEntity
  8
DEFPOINTS
  6
BYBLOCK
 62
     0
100
AcDbPoint
 10
4909.182687
 20
-3235.542274
 30
0.0
  0
POINT
  5
E0
100
AcDbEntity
  8
DEFPOINTS
  6
BYBLOCK
 62
     0
100
AcDbPoint
 10
4915.682687
 20
-3265.542274
 30
0.0
  0
POINT
  5
E1
100
AcDbEntity
  8
DEFPOINTS
  6
BYBLOCK
 62
     0
100
AcDbPoint
 10
4915.682687
 20
-3325.542274
 30
0.0
  0
ENDBLK
  5
E3
100
AcDbEntity
  8
0
100
AcDbBlockEnd
  0
BLOCK
  5
78
100
AcDbEntity
  8
0
100
AcDbBlockBegin
  2
*D12
 70
     1
 10
0.0
 20
0.0
 30
0.0
  3
*D12
  1

  0
LINE
  5
6F
100
AcDbEntity
  8
0
  6
BYBLOCK
100
AcDbLine
 10
4116.682687
 20
-3262.542274
 30
0.0
 11
4116.682687
 21
-3067.730592
 31
0.0
  0
LINE
  5
70
100
AcDbEntity
  8
0
  6
BYBLOCK
100
AcDbLine
 10
4176.682687
 20
-3109.542274
 30
0.0
 11
4176.682687
 21
-3067.730592
 31
0.0
  0
LINE
  5
71
100
AcDbEntity
  8
0
  6
BYBLOCK
100
AcDbLine
 10
4131.682687
 20
-3073.730592
 30
0.0
 11
4161.682687
 21
-3073.730592
 31
0.0
  0
SOLID
  5
72
100
AcDbEntity
  8
0
  6
BYBLOCK
100
AcDbTrace
 10
4131.682687
 20
-3071.230592
 30
0.0
 11
4131.682687
 21
-3076.230592
 31
0.0
 12
4116.682687
 22
-3073.730592
 32
0.0
 13
4116.682687
 23
-3073.730592
 33
0.0
  0
SOLID
  5
73
100
AcDbEntity
  8
0
  6
BYBLOCK
100
AcDbTrace
 10
4161.682687
 20
-3071.230592
 30
0.0
 11
4161.682687
 21
-3076.230592
 31
0.0
 12
4176.682687
 22
-3073.730592
 32
0.0
 13
4176.682687
 23
-3073.730592
 33
0.0
  0
MTEXT
  5
74
100
AcDbEntity
  8
0
  6
BYBLOCK
 62
     5
100
AcDbMText
 10
4146.682687
 20
-3058.070592
 30
0.0
 40
19.32
 41
0.0
 71
     5
 72
     1
  1
\A1;60
  0
POINT
  5
75
100
AcDbEntity
  8
DEFPOINTS
  6
BYBLOCK
 62
     0
100
AcDbPoint
 10
4116.682687
 20
-3265.542274
 30
0.0
  0
POINT
  5
76
100
AcDbEntity
  8
DEFPOINTS
  6
BYBLOCK
 62
     0
100
AcDbPoint
 10
4176.682687
 20
-3112.542274
 30
0.0
  0
POINT
  5
77
100
AcDbEntity
  8
DEFPOINTS
  6
BYBLOCK
 62
     0
100
AcDbPoint
 10
4176.682687
 20
-3073.730592
 30
0.0
  0
ENDBLK
  5
79
100
AcDbEntity
  8
0
100
AcDbBlockEnd
  0
BLOCK
  5
A4
100
AcDbEntity
  8
0
100
AcDbBlockBegin
  2
*D13
 70
     1
 10
0.0
 20
0.0
 30
0.0
  3
*D13
  1

  0
LINE
  5
9B
100
AcDbEntity
  8
0
  6
BYBLOCK
100
AcDbLine
 10
4176.682687
 20
-3109.542274
 30
0.0
 11
4176.682687
 21
-3067.730592
 31
0.0
  0
LINE
  5
9C
100
AcDbEntity
  8
0
  6
BYBLOCK
100
AcDbLine
 10
4295.682687
 20
-3109.542274
 30
0.0
 11
4295.682687
 21
-3067.730592
 31
0.0
  0
LINE
  5
9D
100
AcDbEntity
  8
0
  6
BYBLOCK
100
AcDbLine
 10
4191.682687
 20
-3073.730592
 30
0.0
 11
4280.682687
 21
-3073.730592
 31
0.0
  0
SOLID
  5
9E
100
AcDbEntity
  8
0
  6
BYBLOCK
100
AcDbTrace
 10
4191.682687
 20
-3071.230592
 30
0.0
 11
4191.682687
 21
-3076.230592
 31
0.0
 12
4176.682687
 22
-3073.730592
 32
0.0
 13
4176.682687
 23
-3073.730592
 33
0.0
  0
SOLID
  5
9F
100
AcDbEntity
  8
0
  6
BYBLOCK
100
AcDbTrace
 10
4280.682687
 20
-3071.230592
 30
0.0
 11
4280.682687
 21
-3076.230592
 31
0.0
 12
4295.682687
 22
-3073.730592
 32
0.0
 13
4295.682687
 23
-3073.730592
 33
0.0
  0
MTEXT
  5
A0
100
AcDbEntity
  8
0
  6
BYBLOCK
 62
     5
100
AcDbMText
 10
4236.182687
 20
-3058.070592
 30
0.0
 40
19.32
 41
0.0
 71
     5
 72
     1
  1
\A1;119
  0
POINT
  5
A1
100
AcDbEntity
  8
DEFPOINTS
  6
BYBLOCK
 62
     0
100
AcDbPoint
 10
4176.682687
 20
-3112.542274
 30
0.0
  0
POINT
  5
A2
100
AcDbEntity
  8
DEFPOINTS
  6
BYBLOCK
 62
     0
100
AcDbPoint
 10
4295.682687
 20
-3112.542274
 30
0.0
  0
POINT
  5
A3
100
AcDbEntity
  8
DEFPOINTS
  6
BYBLOCK
 62
     0
100
AcDbPoint
 10
4295.682687
 20
-3073.730592
 30
0.0
  0
ENDBLK
  5
A5
100
AcDbEntity
  8
0
100
AcDbBlockEnd
  0
BLOCK
  5
6B
100
AcDbEntity
  8
0
100
AcDbBlockBegin
  2
*D14
 70
     1
 10
0.0
 20
0.0
 30
0.0
  3
*D14
  1

  0
LINE
  5
62
100
AcDbEntity
  8
0
  6
BYBLOCK
100
AcDbLine
 10
4295.682687
 20
-3109.542274
 30
0.0
 11
4295.682687
 21
-3067.730592
 31
0.0
  0
LINE
  5
63
100
AcDbEntity
  8
0
  6
BYBLOCK
100
AcDbLine
 10
4355.682687
 20
-3262.542274
 30
0.0
 11
4355.682687
 21
-3067.730592
 31
0.0
  0
LINE
  5
64
100
AcDbEntity
  8
0
  6
BYBLOCK
100
AcDbLine
 10
4310.682687
 20
-3073.730592
 30
0.0
 11
4340.682687
 21
-3073.730592
 31
0.0
  0
SOLID
  5
65
100
AcDbEntity
  8
0
  6
BYBLOCK
100
AcDbTrace
 10
4310.682687
 20
-3071.230592
 30
0.0
 11
4310.682687
 21
-3076.230592
 31
0.0
 12
4295.682687
 22
-3073.730592
 32
0.0
 13
4295.682687
 23
-3073.730592
 33
0.0
  0
SOLID
  5
66
100
AcDbEntity
  8
0
  6
BYBLOCK
100
AcDbTrace
 10
4340.682687
 20
-3071.230592
 30
0.0
 11
4340.682687
 21
-3076.230592
 31
0.0
 12
4355.682687
 22
-3073.730592
 32
0.0
 13
4355.682687
 23
-3073.730592
 33
0.0
  0
MTEXT
  5
67
100
AcDbEntity
  8
0
  6
BYBLOCK
 62
     5
100
AcDbMText
 10
4325.682687
 20
-3058.070592
 30
0.0
 40
19.32
 41
0.0
 71
     5
 72
     1
  1
\A1;60
  0
POINT
  5
68
100
AcDbEntity
  8
DEFPOINTS
  6
BYBLOCK
 62
     0
100
AcDbPoint
 10
4295.682687
 20
-3112.542274
 30
0.0
  0
POINT
  5
69
100
AcDbEntity
  8
DEFPOINTS
  6
BYBLOCK
 62
     0
100
AcDbPoint
 10
4355.682687
 20
-3265.542274
 30
0.0
  0
POINT
  5
6A
100
AcDbEntity
  8
DEFPOINTS
  6
BYBLOCK
 62
     0
100
AcDbPoint
 10
4355.682687
 20
-3073.730592
 30
0.0
  0
ENDBLK
  5
6C
100
AcDbEntity
  8
0
100
AcDbBlockEnd
  0
BLOCK
  5
94
100
AcDbEntity
  8
0
100
AcDbBlockBegin
  2
*D15
 70
     1
 10
0.0
 20
0.0
 30
0.0
  3
*D15
  1

  0
LINE
  5
89
100
AcDbEntity
  8
0
  6
BYBLOCK
100
AcDbLine
 10
4676.682687
 20
-3268.542274
 30
0.0
 11
4676.682687
 21
-3331.542274
 31
0.0
  0
LINE
  5
8A
100
AcDbEntity
  8
0
  6
BYBLOCK
100
AcDbLine
 10
4635.682687
 20
-3268.542274
 30
0.0
 11
4635.682687
 21
-3331.542274
 31
0.0
  0
LINE
  5
8B
100
AcDbEntity
  8
0
  6
BYBLOCK
100
AcDbLine
 10
4691.682687
 20
-3325.542274
 30
0.0
 11
4706.682687
 21
-3325.542274
 31
0.0
  0
LINE
  5
8C
100
AcDbEntity
  8
0
  6
BYBLOCK
100
AcDbLine
 10
4620.682687
 20
-3325.542274
 30
0.0
 11
4605.682687
 21
-3325.542274
 31
0.0
  0
LINE
  5
8D
100
AcDbEntity
  8
0
  6
BYBLOCK
100
AcDbLine
 10
4676.682687
 20
-3325.542274
 30
0.0
 11
4635.682687
 21
-3325.542274
 31
0.0
  0
SOLID
  5
8E
100
AcDbEntity
  8
0
  6
BYBLOCK
100
AcDbTrace
 10
4691.682687
 20
-3323.042274
 30
0.0
 11
4691.682687
 21
-3328.042274
 31
0.0
 12
4676.682687
 22
-3325.542274
 32
0.0
 13
4676.682687
 23
-3325.542274
 33
0.0
  0
SOLID
  5
8F
100
AcDbEntity
  8
0
  6
BYBLOCK
100
AcDbTrace
 10
4620.682687
 20
-3323.042274
 30
0.0
 11
4620.682687
 21
-3328.042274
 31
0.0
 12
4635.682687
 22
-3325.542274
 32
0.0
 13
4635.682687
 23
-3325.542274
 33
0.0
  0
MTEXT
  5
90
100
AcDbEntity
  8
0
  6
BYBLOCK
 62
     5
100
AcDbMText
 10
4656.182687
 20
-3309.882274
 30
0.0
 40
19.32
 41
0.0
 71
     5
 72
     1
  1
\A1;41
  0
POINT
  5
91
100
AcDbEntity
  8
DEFPOINTS
  6
BYBLOCK
 62
     0
100
AcDbPoint
 10
4676.682687
 20
-3265.542274
 30
0.0
  0
POINT
  5
92
100
AcDbEntity
  8
DEFPOINTS
  6
BYBLOCK
 62
     0
100
AcDbPoint
 10
4635.682687
 20
-3265.542274
 30
0.0
  0
POINT
  5
93
100
AcDbEntity
  8
DEFPOINTS
  6
BYBLOCK
 62
     0
100
AcDbPoint
 10
4635.682687
 20
-3325.542274
 30
0.0
  0
ENDBLK
  5
95
100
AcDbEntity
  8
0
100
AcDbBlockEnd
  0
BLOCK
  5
5E
100
AcDbEntity
  8
0
100
AcDbBlockBegin
  2
*D16
 70
     1
 10
0.0
 20
0.0
 30
0.0
  3
*D16
  1

  0
LINE
  5
52
100
AcDbEntity
  8
0
  6
BYBLOCK
100
AcDbLine
 10
4225.682687
 20
-3115.542274
 30
0.0
 11
4225.682687
 21
-3271.542274
 31
0.0
  0
LINE
  5
53
100
AcDbEntity
  8
0
  6
BYBLOCK
100
AcDbLine
 10
4246.682687
 20
-3115.542274
 30
0.0
 11
4246.682687
 21
-3271.542274
 31
0.0
  0
LINE
  5
54
100
AcDbEntity
  8
0
  6
BYBLOCK
100
AcDbLine
 10
4210.682687
 20
-3265.542274
 30
0.0
 11
4195.682687
 21
-3265.542274
 31
0.0
  0
LINE
  5
55
100
AcDbEntity
  8
0
  6
BYBLOCK
100
AcDbLine
 10
4261.682687
 20
-3265.542274
 30
0.0
 11
4276.682687
 21
-3265.542274
 31
0.0
  0
MTEXT
  5
56
100
AcDbEntity
  8
0
  6
BYBLOCK
 62
     5
100
AcDbMText
 10
4267.006431
 20
-3249.792274
 30
0.0
 40
19.32
 41
0.0
 71
     5
 72
     1
  1
\A1;21
  0
LINE
  5
57
100
AcDbEntity
  8
0
  6
BYBLOCK
100
AcDbLine
 10
4225.682687
 20
-3265.542274
 30
0.0
 11
4246.682687
 21
-3265.542274
 31
0.0
  0
LINE
  5
58
100
AcDbEntity
  8
0
  6
BYBLOCK
100
AcDbLine
 10
4225.682687
 20
-3265.542274
 30
0.0
 11
4246.682687
 21
-3265.542274
 31
0.0
  0
SOLID
  5
59
100
AcDbEntity
  8
0
  6
BYBLOCK
100
AcDbTrace
 10
4210.682687
 20
-3263.042274
 30
0.0
 11
4210.682687
 21
-3268.042274
 31
0.0
 12
4225.682687
 22
-3265.542274
 32
0.0
 13
4225.682687
 23
-3265.542274
 33
0.0
  0
SOLID
  5
5A
100
AcDbEntity
  8
0
  6
BYBLOCK
100
AcDbTrace
 10
4261.682687
 20
-3263.042274
 30
0.0
 11
4261.682687
 21
-3268.042274
 31
0.0
 12
4246.682687
 22
-3265.542274
 32
0.0
 13
4246.682687
 23
-3265.542274
 33
0.0
  0
POINT
  5
5B
100
AcDbEntity
  8
DEFPOINTS
  6
BYBLOCK
 62
     0
100
AcDbPoint
 10
4225.682687
 20
-3112.542274
 30
0.0
  0
POINT
  5
5C
100
AcDbEntity
  8
DEFPOINTS
  6
BYBLOCK
 62
     0
100
AcDbPoint
 10
4246.682687
 20
-3112.542274
 30
0.0
  0
POINT
  5
5D
100
AcDbEntity
  8
DEFPOINTS
  6
BYBLOCK
 62
     0
100
AcDbPoint
 10
4246.682687
 20
-3265.542274
 30
0.0
  0
ENDBLK
  5
5F
100
AcDbEntity
  8
0
100
AcDbBlockEnd
  0
BLOCK
  5
B4
100
AcDbEntity
  8
0
100
AcDbBlockBegin
  2
*D17
 70
     1
 10
0.0
 20
0.0
 30
0.0
  3
*D17
  1

  0
LINE
  5
A8
100
AcDbEntity
  8
0
  6
BYBLOCK
100
AcDbLine
 10
4239.182687
 20
-3118.542274
 30
0.0
 11
4350.218208
 21
-3118.542274
 31
0.0
  0
LINE
  5
A9
100
AcDbEntity
  8
0
  6
BYBLOCK
100
AcDbLine
 10
4298.682687
 20
-3112.542274
 30
0.0
 11
4350.218208
 21
-3112.542274
 31
0.0
  0
LINE
  5
AA
100
AcDbEntity
  8
0
  6
BYBLOCK
100
AcDbLine
 10
4344.218208
 20
-3133.542274
 30
0.0
 11
4344.218208
 21
-3148.542274
 31
0.0
  0
LINE
  5
AB
100
AcDbEntity
  8
0
  6
BYBLOCK
100
AcDbLine
 10
4344.218208
 20
-3097.542274
 30
0.0
 11
4344.218208
 21
-3082.542274
 31
0.0
  0
MTEXT
  5
AC
100
AcDbEntity
  8
0
  6
BYBLOCK
 62
     5
100
AcDbMText
 10
4328.468208
 20
-3134.157697
 30
0.0
 40
19.32
 41
0.0
 71
     5
 72
     1
  1
\A1;6
 11
0.0
 21
1.0
 31
0.0
  0
LINE
  5
AD
100
AcDbEntity
  8
0
  6
BYBLOCK
100
AcDbLine
 10
4344.218208
 20
-3118.542274
 30
0.0
 11
4344.218208
 21
-3112.542274
 31
0.0
  0
LINE
  5
AE
100
AcDbEntity
  8
0
  6
BYBLOCK
100
AcDbLine
 10
4344.218208
 20
-3118.542274
 30
0.0
 11
4344.218208
 21
-3112.542274
 31
0.0
  0
SOLID
  5
AF
100
AcDbEntity
  8
0
  6
BYBLOCK
100
AcDbTrace
 10
4341.718208
 20
-3133.542274
 30
0.0
 11
4346.718208
 21
-3133.542274
 31
0.0
 12
4344.218208
 22
-3118.542274
 32
0.0
 13
4344.218208
 23
-3118.542274
 33
0.0
  0
SOLID
  5
B0
100
AcDbEntity
  8
0
  6
BYBLOCK
100
AcDbTrace
 10
4341.718208
 20
-3097.542274
 30
0.0
 11
4346.718208
 21
-3097.542274
 31
0.0
 12
4344.218208
 22
-3112.542274
 32
0.0
 13
4344.218208
 23
-3112.542274
 33
0.0
  0
POINT
  5
B1
100
AcDbEntity
  8
DEFPOINTS
  6
BYBLOCK
 62
     0
100
AcDbPoint
 10
4236.182687
 20
-3118.542274
 30
0.0
  0
POINT
  5
B2
100
AcDbEntity
  8
DEFPOINTS
  6
BYBLOCK
 62
     0
100
AcDbPoint
 10
4295.682687
 20
-3112.542274
 30
0.0
  0
POINT
  5
B3
100
AcDbEntity
  8
DEFPOINTS
  6
BYBLOCK
 62
     0
100
AcDbPoint
 10
4344.218208
 20
-3112.542274
 30
0.0
  0
ENDBLK
  5
B5
100
AcDbEntity
  8
0
100
AcDbBlockEnd
  0
ENDSEC
  0
SECTION
  2
ENTITIES
  0
DIMENSION
  5
1E
100
AcDbEntity
  8
KOTY-UPLNE
100
AcDbDimension
  2
*D9
 10
933.655297
 20
-111.073246
 30
0.0
 11
966.258609
 21
-93.999494
 31
0.0
 12
-3943.32739
 22
2962.657346
 32
0.0
 70
   128
  1
10,5
  3
UPLNE
100
AcDbAlignedDimension
 13
920.155297
 23
-185.884928
 33
0.0
 14
933.655297
 24
-196.884928
 34
0.0
100
AcDbRotatedDimension
1001
ACAD
1000
DSTYLE
1002
{
1070
    40
1040
3.0
1070
   147
1040
2.0
1002
}
  0
DIMENSION
  5
2F
100
AcDbEntity
  8
KOTY-UPLNE
100
AcDbDimension
  2
*D8
 10
920.155297
 20
-111.073246
 30
0.0
 11
889.21934
 21
-93.751817
 31
0.0
 12
-3943.32739
 22
2962.657346
 32
0.0
 70
   128
  1
7,8
  3
UPLNE
100
AcDbAlignedDimension
 13
912.355297
 23
-149.884928
 33
0.0
 14
920.155297
 24
-185.884928
 34
0.0
100
AcDbRotatedDimension
1001
ACAD
1000
DSTYLE
1002
{
1070
    40
1040
3.0
1070
   147
1040
2.0
1002
}
  0
DIMENSION
  5
3F
100
AcDbEntity
  8
KOTY-UPLNE
100
AcDbDimension
  2
*D1
 10
992.855297
 20
-422.884928
 30
0.0
 11
572.855297
 21
-407.224928
 31
0.0
 12
-3943.32739
 22
2962.657346
 32
0.0
  3
UPLNE
100
AcDbAlignedDimension
 13
152.855297
 23
-302.884928
 33
0.0
 14
992.855297
 24
-302.884928
 34
0.0
100
AcDbRotatedDimension
1001
ACAD
1000
DSTYLE
1002
{
1070
    40
1040
3.0
1070
   147
1040
2.0
1002
}
  0
LWPOLYLINE
  5
4C
100
AcDbEntity
  8
TRAPEZ-VELKY
100
AcDbPolyline
 90
      100
 70
     0
 43
5.0
 10
1019.66244
 20
-287.884928
 10
1016.708245
 20
-292.80492
 42
0.058862
 10
1016.130139
 20
-294.088549
 10
1014.67861
 20
-298.689964
 42
-0.327295
 10
1008.956561
 20
-302.884928
 10
992.855297
 20
-302.884928
 10
977.194515
 20
-302.884928
 42
-0.353013
 10
971.330577
 20
-298.155448
 10
966.222605
 20
-274.580197
 42
0.14165
 10
964.64005
 20
-271.647177
 10
955.944916
 20
-262.791021
 42
-0.104659
 10
954.609035
 20
-260.696115
 10
931.086075
 20
-198.032492
 42
0.101102
 10
929.808944
 20
-195.998272
 10
921.321465
 20
-187.106628
 42
-0.138062
 10
919.79766
 20
-184.234294
 10
913.380018
 20
-154.614408
 42
0.353013
 10
907.516079
 20
-149.884928
 10
865.229885
 20
-149.884928
 42
0.152579
 10
861.814132
 20
-150.952117
 10
856.27105
 20
-154.790455
 42
-0.312431
 10
849.439544
 20
-154.790455
 10
843.896462
 20
-150.952117
 42
0.152579
 10
840.480709
 20
-149.884928
 10
798.194515
 20
-149.884928
 42
0.353013
 10
792.330577
 20
-154.614408
 10
785.912935
 20
-184.234294
 42
-0.138062
 10
784.389129
 20
-187.106628
 10
775.90165
 20
-195.998272
 42
0.101102
 10
774.624519
 20
-198.032492
 10
751.101559
 20
-260.696115
 42
-0.104659
 10
749.765679
 20
-262.791021
 10
741.070544
 20
-271.647177
 42
0.14165
 10
739.487989
 20
-274.580197
 10
734.380018
 20
-298.155448
 42
-0.353013
 10
728.516079
 20
-302.884928
 10
712.855297
 20
-302.884928
 10
697.194515
 20
-302.884928
 42
-0.353013
 10
691.330577
 20
-298.155448
 10
686.222605
 20
-274.580197
 42
0.14165
 10
684.64005
 20
-271.647177
 10
675.944916
 20
-262.791021
 42
-0.104659
 10
674.609035
 20
-260.696115
 10
651.086075
 20
-198.032492
 42
0.101102
 10
649.808944
 20
-195.998272
 10
641.321465
 20
-187.106628
 42
-0.138062
 10
639.79766
 20
-184.234294
 10
633.380018
 20
-154.614408
 42
0.353013
 10
627.516079
 20
-149.884928
 10
585.229885
 20
-149.884928
 42
0.152579
 10
581.814132
 20
-150.952117
 10
576.27105
 20
-154.790455
 42
-0.312431
 10
569.439544
 20
-154.790455
 10
563.896462
 20
-150.952117
 42
0.152579
 10
560.480709
 20
-149.884928
 10
518.194515
 20
-149.884928
 42
0.353013
 10
512.330577
 20
-154.614408
 10
505.912935
 20
-184.234294
 42
-0.138062
 10
504.389129
 20
-187.106628
 10
495.90165
 20
-195.998272
 42
0.101102
 10
494.624519
 20
-198.032492
 10
471.101559
 20
-260.696115
 42
-0.104659
 10
469.765679
 20
-262.791021
 10
461.070544
 20
-271.647177
 42
0.14165
 10
459.487989
 20
-274.580197
 10
454.380018
 20
-298.155448
 42
-0.353013
 10
448.516079
 20
-302.884928
 10
432.855297
 20
-302.884928
 10
417.194515
 20
-302.884928
 42
-0.353013
 10
411.330577
 20
-298.155448
 10
406.222605
 20
-274.580197
 42
0.14165
 10
404.64005
 20
-271.647177
 10
395.944916
 20
-262.791021
 42
-0.104659
 10
394.609035
 20
-260.696115
 10
371.086075
 20
-198.032492
 42
0.101102
 10
369.808944
 20
-195.998272
 10
361.321465
 20
-187.106628
 42
-0.138062
 10
359.79766
 20
-184.234294
 10
353.380018
 20
-154.614408
 42
0.353013
 10
347.516079
 20
-149.884928
 10
305.229885
 20
-149.884928
 42
0.152579
 10
301.814132
 20
-150.952117
 10
296.27105
 20
-154.790455
 42
-0.312431
 10
289.439544
 20
-154.790455
 10
283.896462
 20
-150.952116
 42
0.152579
 10
280.480709
 20
-149.884928
 10
238.194515
 20
-149.884928
 42
0.353013
 10
232.330577
 20
-154.614408
 10
225.912935
 20
-184.234294
 42
-0.138062
 10
224.389129
 20
-187.106628
 10
215.90165
 20
-195.998272
 42
0.101102
 10
214.624519
 20
-198.032492
 10
191.101559
 20
-260.696115
 42
-0.104659
 10
189.765679
 20
-262.791021
 10
181.070544
 20
-271.647177
 42
0.14165
 10
179.487989
 20
-274.580197
 10
174.380018
 20
-298.155448
 42
-0.353013
 10
168.516079
 20
-302.884928
 10
152.855297
 20
-302.884928
 10
147.855297
 20
-302.884928
  0
LWPOLYLINE
  5
4E
100
AcDbEntity
  8
RAMEC
100
AcDbPolyline
 90
        4
 70
     1
 43
0.0
 10
0.0
 20
0.0
 10
0.0
 20
-532.001233
 10
1349.672502
 20
-532.001233
 10
1349.672502
 20
0.0
  0
DIMENSION
  5
50
100
AcDbEntity
  8
KOTY-UPLNE
100
AcDbDimension
  2
*D16
 10
303.355297
 20
-302.884928
 30
0.0
 11
323.679041
 21
-287.134928
 31
0.0
 12
-3943.32739
 22
2962.657346
 32
0.0
 70
   128
  3
UPLNE
100
AcDbAlignedDimension
 13
282.355297
 23
-149.884928
 33
0.0
 14
303.355297
 24
-149.884928
 34
0.0
100
AcDbRotatedDimension
1001
ACAD
1000
DSTYLE
1002
{
1070
    40
1040
3.0
1070
   147
1040
2.0
1002
}
  0
DIMENSION
  5
60
100
AcDbEntity
  8
KOTY-UPLNE
100
AcDbDimension
  2
*D14
 10
412.355297
 20
-111.073246
 30
0.0
 11
382.355297
 21
-95.413246
 31
0.0
 12
-3943.32739
 22
2962.657346
 32
0.0
  3
UPLNE
100
AcDbAlignedDimension
 13
352.355297
 23
-149.884928
 33
0.0
 14
412.355297
 24
-302.884928
 34
0.0
100
AcDbRotatedDimension
1001
ACAD
1000
DSTYLE
1002
{
1070
    40
1040
3.0
1070
   147
1040
2.0
1002
}
  0
DIMENSION
  5
6D
100
AcDbEntity
  8
KOTY-UPLNE
100
AcDbDimension
  2
*D12
 10
233.355297
 20
-111.073246
 30
0.0
 11
203.355297
 21
-95.413246
 31
0.0
 12
-3943.32739
 22
2962.657346
 32
0.0
  3
UPLNE
100
AcDbAlignedDimension
 13
173.355297
 23
-302.884928
 33
0.0
 14
233.355297
 24
-149.884928
 34
0.0
100
AcDbRotatedDimension
1001
ACAD
1000
DSTYLE
1002
{
1070
    40
1040
3.0
1070
   147
1040
2.0
1002
}
  0
DIMENSION
  5
7A
100
AcDbEntity
  8
KOTY-UPLNE
100
AcDbDimension
  2
*D0
 10
432.855297
 20
-362.884928
 30
0.0
 11
292.855297
 21
-347.224928
 31
0.0
 12
-3943.32739
 22
2962.657346
 32
0.0
  3
UPLNE
100
AcDbAlignedDimension
 13
152.855297
 23
-302.884928
 33
0.0
 14
432.855297
 24
-302.884928
 34
0.0
100
AcDbRotatedDimension
1001
ACAD
1000
DSTYLE
1002
{
1070
    40
1040
3.0
1070
   147
1040
2.0
1002
}
  0
DIMENSION
  5
87
100
AcDbEntity
  8
KOTY-UPLNE
100
AcDbDimension
  2
*D15
 10
692.355297
 20
-362.884928
 30
0.0
 11
712.855297
 21
-347.224928
 31
0.0
 12
-3943.32739
 22
2962.657346
 32
0.0
  3
UPLNE
100
AcDbAlignedDimension
 13
733.355297
 23
-302.884928
 33
0.0
 14
692.355297
 24
-302.884928
 34
0.0
100
AcDbRotatedDimension
1001
ACAD
1000
DSTYLE
1002
{
1070
    40
1040
3.0
1070
   147
1040
2.0
1002
}
  0
MTEXT
  5
96
100
AcDbEntity
  8
POZICE
100
AcDbMText
 10
815.555016
 20
-291.366939
 30
0.0
 40
41.73
 41
1.0
 71
     5
 72
     1
  1
B
  7
STYLE1
  0
DIMENSION
  5
99
100
AcDbEntity
  8
KOTY-UPLNE
100
AcDbDimension
  2
*D13
 10
352.355297
 20
-111.073246
 30
0.0
 11
292.855297
 21
-95.413246
 31
0.0
 12
-3943.32739
 22
2962.657346
 32
0.0
  3
UPLNE
100
AcDbAlignedDimension
 13
233.355297
 23
-149.884928
 33
0.0
 14
352.355297
 24
-149.884928
 34
0.0
100
AcDbRotatedDimension
1001
ACAD
1000
DSTYLE
1002
{
1070
    40
1040
3.0
1070
   147
1040
2.0
1002
}
  0
DIMENSION
  5
A6
100
AcDbEntity
  8
KOTY-UPLNE
100
AcDbDimension
  2
*D17
 10
400.890818
 20
-149.884928
 30
0.0
 11
385.140818
 21
-171.500351
 31
0.0
 12
-3943.32739
 22
2962.657346
 32
0.0
 70
   128
  3
UPLNE
100
AcDbAlignedDimension
 13
292.855297
 23
-155.884928
 33
0.0
 14
352.355297
 24
-149.884928
 34
0.0
 50
90.0
100
AcDbRotatedDimension
1001
ACAD
1000
DSTYLE
1002
{
1070
    40
1040
3.0
1070
   147
1040
2.0
1002
}
  0
MTEXT
  5
B6
100
AcDbEntity
  8
KOTY-UPLNE
  6
BYBLOCK
 62
     5
100
AcDbMText
 10
669.486575
 20
-85.198963
 30
0.0
 40
16.5
 41
0.0
 71
     5
 72
     1
  1
všechna zaoblení R=6
  0
MTEXT
  5
B7
100
AcDbEntity
  8
POPIS
100
AcDbMText
 10
661.730741
 20
-42.124031
 30
0.0
 40
40.0
 41
1.0
 71
     5
 72
     1
  1
TR 150/280
  7
STYLE1
  0
MTEXT
  5
B9
100
AcDbEntity
  8
POZICE
100
AcDbMText
 10
718.429548
 20
-157.512264
 30
0.0
 40
41.73
 41
1.0
 71
     5
 72
     1
  1
A
  7
STYLE1
  0
DIMENSION
  5
BA
100
AcDbEntity
  8
KOTY-UPLNE
100
AcDbDimension
  2
*D7
 10
1119.991267
 20
-302.884928
 30
0.0
 11
1104.331267
 21
-226.384928
 31
0.0
 12
-3943.32739
 22
2962.657346
 32
0.0
  3
UPLNE
100
AcDbAlignedDimension
 13
912.355297
 23
-149.884928
 33
0.0
 14
1013.355297
 24
-302.884928
 34
0.0
 50
90.0
100
AcDbRotatedDimension
1001
ACAD
1000
DSTYLE
1002
{
1070
    40
1040
3.0
1070
   147
1040
2.0
1002
}
  0
DIMENSION
  5
C7
100
AcDbEntity
  8
KOTY-UPLNE
100
AcDbDimension
  2
*D4
 10
1058.924526
 20
-261.884928
 30
0.0
 11
1043.264526
 21
-229.384928
 31
0.0
 12
-3943.32739
 22
2962.657346
 32
0.0
  3
UPLNE
100
AcDbAlignedDimension
 13
930.655297
 23
-196.884928
 33
0.0
 14
955.055297
 24
-261.884928
 34
0.0
 50
90.0
100
AcDbRotatedDimension
1001
ACAD
1000
DSTYLE
1002
{
1070
    40
1040
3.0
1070
   147
1040
2.0
1002
}
  0
DIMENSION
  5
D4
100
AcDbEntity
  8
KOTY-UPLNE
100
AcDbDimension
  2
*D11
 10
972.355297
 20
-362.884928
 30
0.0
 11
996.35357
 21
-347.134928
 31
0.0
 12
-3943.32739
 22
2962.657346
 32
0.0
 70
   128
  1
6,5
  3
UPLNE
100
AcDbAlignedDimension
 13
965.855297
 23
-272.884928
 33
0.0
 14
972.355297
 24
-302.884928
 34
0.0
100
AcDbRotatedDimension
1001
ACAD
1000
DSTYLE
1002
{
1070
    40
1040
3.0
1070
   147
1040
2.0
1002
}
  0
DIMENSION
  5
E4
100
AcDbEntity
  8
KOTY-UPLNE
100
AcDbDimension
  2
*D10
 10
965.855297
 20
-362.884928
 30
0.0
 11
924.579242
 21
-347.134928
 31
0.0
 12
-3943.32739
 22
2962.657346
 32
0.0
 70
   128
  1
10,8
  3
UPLNE
100
AcDbAlignedDimension
 13
955.055297
 23
-261.884928
 33
0.0
 14
965.855297
 24
-272.884928
 34
0.0
100
AcDbRotatedDimension
1001
ACAD
1000
DSTYLE
1002
{
1070
    40
1040
3.0
1070
   147
1040
2.0
1002
}
  0
DIMENSION
  5
F4
100
AcDbEntity
  8
KOTY-UPLNE
100
AcDbDimension
  2
*D6
 10
1058.924526
 20
-302.884928
 30
0.0
 11
1043.264526
 21
-287.884928
 31
0.0
 12
-3943.32739
 22
2962.657346
 32
0.0
  3
UPLNE
100
AcDbAlignedDimension
 13
965.855297
 23
-272.884928
 33
0.0
 14
1013.355297
 24
-302.884928
 34
0.0
 50
90.0
100
AcDbRotatedDimension
1001
ACAD
1000
DSTYLE
1002
{
1070
    40
1040
3.0
1070
   147
1040
2.0
1002
}
  0
DIMENSION
  5
103
100
AcDbEntity
  8
KOTY-UPLNE
100
AcDbDimension
  2
*D5
 10
1058.924526
 20
-272.884928
 30
0.0
 11
1076.491674
 21
-267.384928
 31
0.0
 12
-3943.32739
 22
2962.657346
 32
0.0
 70
   128
  3
UPLNE
100
AcDbAlignedDimension
 13
955.055297
 23
-261.884928
 33
0.0
 14
965.855297
 24
-272.884928
 34
0.0
 50
90.0
100
AcDbRotatedDimension
1001
ACAD
1000
DSTYLE
1002
{
1070
    40
1040
3.0
1070
   147
1040
2.0
1002
}
  0
DIMENSION
  5
113
100
AcDbEntity
  8
KOTY-UPLNE
100
AcDbDimension
  2
*D3
 10
1058.924526
 20
-196.884928
 30
0.0
 11
1075.655151
 21
-191.384928
 31
0.0
 12
-3943.32739
 22
2962.657346
 32
0.0
 70
   128
  3
UPLNE
100
AcDbAlignedDimension
 13
920.155297
 23
-185.884928
 33
0.0
 14
930.655297
 24
-196.884928
 34
0.0
 50
90.0
100
AcDbRotatedDimension
1001
ACAD
1000
DSTYLE
1002
{
1070
    40
1040
3.0
1070
   147
1040
2.0
1002
}
  0
DIMENSION
  5
123
100
AcDbEntity
  8
KOTY-UPLNE
100
AcDbDimension
  2
*D2
 10
1058.924526
 20
-185.884928
 30
0.0
 11
1043.264526
 21
-167.884928
 31
0.0
 12
-3943.32739
 22
2962.657346
 32
0.0
  3
UPLNE
100
AcDbAlignedDimension
 13
912.355297
 23
-149.884928
 33
0.0
 14
920.155297
 24
-185.884928
 34
0.0
 50
90.0
100
AcDbRotatedDimension
1001
ACAD
1000
DSTYLE
1002
{
1070
    40
1040
3.0
1070
   147
1040
2.0
1002
}
  0
ENDSEC
  0
SECTION
  2
OBJECTS
  0
DICTIONARY
  5
1A
100
AcDbDictionary
  3
ACAD_GROUP
350
18
  3
ACAD_MLINESTYLE
350
19
  0
DICTIONARY
  5
18
102
{ACAD_REACTORS
330
1A
102
}
100
AcDbDictionary
  0
DICTIONARY
  5
19
102
{ACAD_REACTORS
330
1A
102
}
100
AcDbDictionary
  3
STANDARD
350
1C
  0
MLINESTYLE
  5
1C
102
{ACAD_REACTORS
330
19
102
}
100
AcDbMlineStyle
  2
STANDARD
 70
     0
  3

 62
   256
 51
90.0
 52
90.0
 71
     2
 49
0.5
 62
   256
  6
BYLAYER
 49
-0.5
 62
   256
  6
BYLAYER
  0
ENDSEC
  0
EOF
