  0
SECTION
  2
HEADER
  9
$ACADVER
  1
AC1014
  9
$ACADMAINTVER
 70
     0
  9
$DWGCODEPAGE
  3
ANSI_1250
  9
$INSBASE
 10
0.0
 20
0.0
 30
0.0
  9
$EXTMIN
 10
0.0
 20
-456.001233
 30
0.0
  9
$EXTMAX
 10
1349.672502
 20
0.0
 30
0.0
  9
$LIMMIN
 10
-1000.0
 20
-1000.0
  9
$LIMMAX
 10
1000.0
 20
1000.0
  9
$ORTHOMODE
 70
     0
  9
$REGENMODE
 70
     1
  9
$FILLMODE
 70
     1
  9
$QTEXTMODE
 70
     0
  9
$MIRRTEXT
 70
     0
  9
$DRAGMODE
 70
     2
  9
$LTSCALE
 40
3.0
  9
$OSMODE
 70
    32
  9
$ATTMODE
 70
     1
  9
$TEXTSIZE
 40
50.0
  9
$TRACEWID
 40
0.05
  9
$TEXTSTYLE
  7
STANDARD
  9
$CLAYER
  8
KOTY-UPLNE
  9
$CELTYPE
  6
BYLAYER
  9
$CECOLOR
 62
   256
  9
$CELTSCALE
 40
1.0
  9
$DELOBJ
 70
     1
  9
$DISPSILH
 70
     0
  9
$DIMSCALE
 40
3.0
  9
$DIMASZ
 40
5.0
  9
$DIMEXO
 40
1.0
  9
$DIMDLI
 40
0.0
  9
$DIMRND
 40
1.0
  9
$DIMDLE
 40
1.0
  9
$DIMEXE
 40
2.0
  9
$DIMTP
 40
0.0
  9
$DIMTM
 40
0.0
  9
$DIMTXT
 40
6.44
  9
$DIMCEN
 40
1.0
  9
$DIMTSZ
 40
0.0
  9
$DIMTOL
 70
     0
  9
$DIMLIM
 70
     0
  9
$DIMTIH
 70
     0
  9
$DIMTOH
 70
     0
  9
$DIMSE1
 70
     0
  9
$DIMSE2
 70
     0
  9
$DIMTAD
 70
     3
  9
$DIMZIN
 70
     0
  9
$DIMBLK
  1

  9
$DIMASO
 70
     1
  9
$DIMSHO
 70
     0
  9
$DIMPOST
  1

  9
$DIMAPOST
  1

  9
$DIMALT
 70
     0
  9
$DIMALTD
 70
     2
  9
$DIMALTF
 40
25.4
  9
$DIMLFAC
 40
1.0
  9
$DIMTOFL
 70
     1
  9
$DIMTVP
 40
0.0
  9
$DIMTIX
 70
     1
  9
$DIMSOXD
 70
     0
  9
$DIMSAH
 70
     0
  9
$DIMBLK1
  1

  9
$DIMBLK2
  1

  9
$DIMSTYLE
  2
UPLNE
  9
$DIMCLRD
 70
   256
  9
$DIMCLRE
 70
   256
  9
$DIMCLRT
 70
     5
  9
$DIMTFAC
 40
1.0
  9
$DIMGAP
 40
2.0
  9
$DIMJUST
 70
     0
  9
$DIMSD1
 70
     0
  9
$DIMSD2
 70
     0
  9
$DIMTOLJ
 70
     1
  9
$DIMTZIN
 70
     0
  9
$DIMALTZ
 70
     0
  9
$DIMALTTZ
 70
     0
  9
$DIMFIT
 70
     5
  9
$DIMUPT
 70
     0
  9
$DIMUNIT
 70
     2
  9
$DIMDEC
 70
     0
  9
$DIMTDEC
 70
     0
  9
$DIMALTU
 70
     2
  9
$DIMALTTD
 70
     2
  9
$DIMTXSTY
  7
STANDARD
  9
$DIMAUNIT
 70
     0
  9
$LUNITS
 70
     2
  9
$LUPREC
 70
     2
  9
$SKETCHINC
 40
0.1
  9
$FILLETRAD
 40
5.0
  9
$AUNITS
 70
     0
  9
$AUPREC
 70
     2
  9
$MENU
  1
acad
  9
$ELEVATION
 40
0.0
  9
$PELEVATION
 40
0.0
  9
$THICKNESS
 40
0.0
  9
$LIMCHECK
 70
     0
  9
$BLIPMODE
 70
     1
  9
$CHAMFERA
 40
0.0
  9
$CHAMFERB
 40
0.0
  9
$CHAMFERC
 40
0.0
  9
$CHAMFERD
 40
0.0
  9
$SKPOLY
 70
     0
  9
$TDCREATE
 40
2448722.252204629
  9
$TDUPDATE
 40
2452465.898558796
  9
$TDINDWG
 40
2.5464430556
  9
$TDUSRTIMER
 40
2.5464430556
  9
$USRTIMER
 70
     1
  9
$ANGBASE
 50
0.0
  9
$ANGDIR
 70
     0
  9
$PDMODE
 70
     0
  9
$PDSIZE
 40
0.0
  9
$PLINEWID
 40
0.0
  9
$COORDS
 70
     2
  9
$SPLFRAME
 70
     0
  9
$SPLINETYPE
 70
     6
  9
$SPLINESEGS
 70
     8
  9
$ATTDIA
 70
     0
  9
$ATTREQ
 70
     1
  9
$HANDLING
 70
     1
  9
$HANDSEED
  5
15C
  9
$SURFTAB1
 70
     6
  9
$SURFTAB2
 70
     6
  9
$SURFTYPE
 70
     6
  9
$SURFU
 70
     6
  9
$SURFV
 70
     6
  9
$UCSNAME
  2

  9
$UCSORG
 10
0.0
 20
0.0
 30
0.0
  9
$UCSXDIR
 10
1.0
 20
0.0
 30
0.0
  9
$UCSYDIR
 10
0.0
 20
1.0
 30
0.0
  9
$PUCSNAME
  2

  9
$PUCSORG
 10
0.0
 20
0.0
 30
0.0
  9
$PUCSXDIR
 10
1.0
 20
0.0
 30
0.0
  9
$PUCSYDIR
 10
0.0
 20
1.0
 30
0.0
  9
$USERI1
 70
     1
  9
$USERI2
 70
     0
  9
$USERI3
 70
     0
  9
$USERI4
 70
     0
  9
$USERI5
 70
     0
  9
$USERR1
 40
0.0
  9
$USERR2
 40
0.0
  9
$USERR3
 40
0.0
  9
$USERR4
 40
0.0
  9
$USERR5
 40
0.0
  9
$WORLDVIEW
 70
     1
  9
$SHADEDGE
 70
     3
  9
$SHADEDIF
 70
    70
  9
$TILEMODE
 70
     1
  9
$MAXACTVP
 70
    16
  9
$PINSBASE
 10
0.0
 20
0.0
 30
0.0
  9
$PLIMCHECK
 70
     0
  9
$PEXTMIN
 10
1.000000E+20
 20
1.000000E+20
 30
1.000000E+20
  9
$PEXTMAX
 10
-1.000000E+20
 20
-1.000000E+20
 30
-1.000000E+20
  9
$PLIMMIN
 10
0.0
 20
0.0
  9
$PLIMMAX
 10
12.0
 20
9.0
  9
$UNITMODE
 70
     0
  9
$VISRETAIN
 70
     0
  9
$PLINEGEN
 70
     0
  9
$PSLTSCALE
 70
     0
  9
$TREEDEPTH
 70
  3020
  9
$PICKSTYLE
 70
     0
  9
$CMLSTYLE
  2
STANDARD
  9
$CMLJUST
 70
     0
  9
$CMLSCALE
 40
1.0
  9
$PROXYGRAPHICS
 70
     1
  9
$MEASUREMENT
 70
     0
  0
ENDSEC
  0
SECTION
  2
CLASSES
  0
CLASS
  1
LWPOLYLINE
  2
AcDbPolyline
  3
"AutoCAD"
 90
        0
280
     0
281
     1
  0
CLASS
  1
DICTIONARYVAR
  2
AcDbDictionaryVar
  3
"AutoCAD"
 90
        0
280
     0
281
     0
  0
ENDSEC
  0
SECTION
  2
TABLES
  0
TABLE
  2
VPORT
  5
12
100
AcDbSymbolTable
 70
     2
  0
VPORT
  5
15B
100
AcDbSymbolTableRecord
100
AcDbViewportTableRecord
  2
*ACTIVE
 70
     0
 10
0.0
 20
0.0
 11
1.0
 21
1.0
 12
807.315538
 22
-182.849575
 13
0.0
 23
0.0
 14
1.0
 24
1.0
 15
600.0
 25
600.0
 16
0.0
 26
0.0
 36
1.0
 17
0.0
 27
0.0
 37
0.0
 40
757.629819
 41
2.224444
 42
50.0
 43
0.0
 44
0.0
 50
0.0
 51
0.0
 71
     0
 72
   100
 73
     1
 74
     0
 75
     0
 76
     0
 77
     0
 78
     0
  0
ENDTAB
  0
TABLE
  2
LTYPE
  5
D
100
AcDbSymbolTable
 70
     1
  0
LTYPE
  5
E
100
AcDbSymbolTableRecord
100
AcDbLinetypeTableRecord
  2
BYBLOCK
 70
     0
  3

 72
    65
 73
     0
 40
0.0
  0
LTYPE
  5
F
100
AcDbSymbolTableRecord
100
AcDbLinetypeTableRecord
  2
BYLAYER
 70
     0
  3

 72
    65
 73
     0
 40
0.0
  0
LTYPE
  5
5
100
AcDbSymbolTableRecord
100
AcDbLinetypeTableRecord
  2
CONTINUOUS
 70
     0
  3
Solid line
 72
    65
 73
     0
 40
0.0
  0
ENDTAB
  0
TABLE
  2
LAYER
  5
A
100
AcDbSymbolTable
 70
     7
  0
LAYER
  5
4
100
AcDbSymbolTableRecord
100
AcDbLayerTableRecord
  2
0
 70
     0
 62
     7
  6
CONTINUOUS
  0
LAYER
  5
1B
100
AcDbSymbolTableRecord
100
AcDbLayerTableRecord
  2
KOTY-UPLNE
 70
     0
 62
     7
  6
CONTINUOUS
  0
LAYER
  5
87
100
AcDbSymbolTableRecord
100
AcDbLayerTableRecord
  2
RAMEC
 70
     0
 62
     5
  6
CONTINUOUS
  0
LAYER
  5
F9
100
AcDbSymbolTableRecord
100
AcDbLayerTableRecord
  2
POZICE
 70
     0
 62
     1
  6
CONTINUOUS
  0
LAYER
  5
157
100
AcDbSymbolTableRecord
100
AcDbLayerTableRecord
  2
POPIS
 70
     0
 62
     1
  6
CONTINUOUS
  0
LAYER
  5
29
100
AcDbSymbolTableRecord
100
AcDbLayerTableRecord
  2
DEFPOINTS
 70
     0
 62
     7
  6
CONTINUOUS
  0
LAYER
  5
96
100
AcDbSymbolTableRecord
100
AcDbLayerTableRecord
  2
TRAPEZ-VELKY
 70
     0
 62
     7
  6
CONTINUOUS
  0
ENDTAB
  0
TABLE
  2
STYLE
  5
B
100
AcDbSymbolTable
 70
     2
  0
STYLE
  5
C
100
AcDbSymbolTableRecord
100
AcDbTextStyleTableRecord
  2
STANDARD
 70
     0
 40
0.0
 41
0.9
 50
0.0
 71
     0
 42
50.0
  3
simplex.shx
  4

  0
STYLE
  5
FA
100
AcDbSymbolTableRecord
100
AcDbTextStyleTableRecord
  2
STYLE1
 70
     0
 40
0.0
 41
0.9
 50
0.0
 71
     0
 42
50.0
  3
simplex.shx
  4

  0
ENDTAB
  0
TABLE
  2
VIEW
  5
10
100
AcDbSymbolTable
 70
     0
  0
ENDTAB
  0
TABLE
  2
UCS
  5
11
100
AcDbSymbolTable
 70
     0
  0
ENDTAB
  0
TABLE
  2
APPID
  5
14
100
AcDbSymbolTable
 70
     1
  0
APPID
  5
15
100
AcDbSymbolTableRecord
100
AcDbRegAppTableRecord
  2
ACAD
 70
     0
  0
ENDTAB
  0
TABLE
  2
DIMSTYLE
  5
16
100
AcDbSymbolTable
 70
     1
  0
DIMSTYLE
105
1D
102
{ACAD_REACTORS
330
77
330
6A
330
5B
330
EB
330
C4
330
DE
330
D1
330
A4
330
B4
330
97
330
88
330
4B
330
145
330
135
330
125
330
118
330
10B
330
3C
330
FC
330
2E
330
1E
102
}
100
AcDbSymbolTableRecord
100
AcDbDimStyleTableRecord
  2
UPLNE
 70
     0
  3

  4

  5

  6

  7

 40
5.0
 41
5.0
 42
1.0
 43
0.0
 44
2.0
 45
1.0
 46
1.0
 47
0.0
 48
0.0
140
6.44
141
1.0
142
0.0
143
25.4
144
1.0
145
0.0
146
1.0
147
1.0
 71
     0
 72
     0
 73
     0
 74
     0
 75
     0
 76
     0
 77
     3
 78
     0
170
     0
171
     2
172
     1
173
     0
174
     1
175
     0
176
   256
177
   256
178
     5
270
     2
271
     0
272
     0
273
     2
274
     2
340
C
275
     0
280
     0
281
     0
282
     0
283
     1
284
     0
285
     0
286
     0
287
     5
288
     0
  0
ENDTAB
  0
TABLE
  2
BLOCK_RECORD
  5
1
100
AcDbSymbolTable
 70
    21
  0
BLOCK_RECORD
  5
2
100
AcDbSymbolTableRecord
100
AcDbBlockTableRecord
  2
*MODEL_SPACE
  0
BLOCK_RECORD
  5
7
100
AcDbSymbolTableRecord
100
AcDbBlockTableRecord
  2
*PAPER_SPACE
  0
BLOCK_RECORD
  5
78
100
AcDbSymbolTableRecord
100
AcDbBlockTableRecord
  2
*D0
  0
BLOCK_RECORD
  5
6B
100
AcDbSymbolTableRecord
100
AcDbBlockTableRecord
  2
*D1
  0
BLOCK_RECORD
  5
5C
100
AcDbSymbolTableRecord
100
AcDbBlockTableRecord
  2
*D2
  0
BLOCK_RECORD
  5
EC
100
AcDbSymbolTableRecord
100
AcDbBlockTableRecord
  2
*D3
  0
BLOCK_RECORD
  5
C5
100
AcDbSymbolTableRecord
100
AcDbBlockTableRecord
  2
*D4
  0
BLOCK_RECORD
  5
DF
100
AcDbSymbolTableRecord
100
AcDbBlockTableRecord
  2
*D5
  0
BLOCK_RECORD
  5
D2
100
AcDbSymbolTableRecord
100
AcDbBlockTableRecord
  2
*D6
  0
BLOCK_RECORD
  5
A5
100
AcDbSymbolTableRecord
100
AcDbBlockTableRecord
  2
*D7
  0
BLOCK_RECORD
  5
B5
100
AcDbSymbolTableRecord
100
AcDbBlockTableRecord
  2
*D8
  0
BLOCK_RECORD
  5
98
100
AcDbSymbolTableRecord
100
AcDbBlockTableRecord
  2
*D9
  0
BLOCK_RECORD
  5
89
100
AcDbSymbolTableRecord
100
AcDbBlockTableRecord
  2
*D10
  0
BLOCK_RECORD
  5
4C
100
AcDbSymbolTableRecord
100
AcDbBlockTableRecord
  2
*D11
  0
BLOCK_RECORD
  5
146
100
AcDbSymbolTableRecord
100
AcDbBlockTableRecord
  2
*D12
  0
BLOCK_RECORD
  5
136
100
AcDbSymbolTableRecord
100
AcDbBlockTableRecord
  2
*D13
  0
BLOCK_RECORD
  5
126
100
AcDbSymbolTableRecord
100
AcDbBlockTableRecord
  2
*D14
  0
BLOCK_RECORD
  5
119
100
AcDbSymbolTableRecord
100
AcDbBlockTableRecord
  2
*D15
  0
BLOCK_RECORD
  5
10C
100
AcDbSymbolTableRecord
100
AcDbBlockTableRecord
  2
*D16
  0
BLOCK_RECORD
  5
3D
100
AcDbSymbolTableRecord
100
AcDbBlockTableRecord
  2
*D17
  0
BLOCK_RECORD
  5
FD
100
AcDbSymbolTableRecord
100
AcDbBlockTableRecord
  2
*D18
  0
BLOCK_RECORD
  5
2F
100
AcDbSymbolTableRecord
100
AcDbBlockTableRecord
  2
*D19
  0
BLOCK_RECORD
  5
1F
100
AcDbSymbolTableRecord
100
AcDbBlockTableRecord
  2
*D20
  0
ENDTAB
  0
ENDSEC
  0
SECTION
  2
BLOCKS
  0
BLOCK
  5
3
100
AcDbEntity
  8
0
100
AcDbBlockBegin
  2
*MODEL_SPACE
 70
     0
 10
0.0
 20
0.0
 30
0.0
  3
*MODEL_SPACE
  1

  0
ENDBLK
  5
6
100
AcDbEntity
  8
0
100
AcDbBlockEnd
  0
BLOCK
  5
8
100
AcDbEntity
 67
     1
  8
0
100
AcDbBlockBegin
  2
*PAPER_SPACE
 70
     0
 10
0.0
 20
0.0
 30
0.0
  3
*PAPER_SPACE
  1

  0
ENDBLK
  5
9
100
AcDbEntity
 67
     1
  8
0
100
AcDbBlockEnd
  0
BLOCK
  5
84
100
AcDbEntity
  8
0
100
AcDbBlockBegin
  2
*D0
 70
     1
 10
0.0
 20
0.0
 30
0.0
  3
*D0
  1

  0
LINE
  5
79
100
AcDbEntity
  8
0
  6
BYBLOCK
100
AcDbLine
 10
4117.682687
 20
-1446.542274
 30
0.0
 11
4117.682687
 21
-1267.731824
 31
0.0
  0
LINE
  5
7A
100
AcDbEntity
  8
0
  6
BYBLOCK
100
AcDbLine
 10
4179.182687
 20
-1309.542274
 30
0.0
 11
4179.182687
 21
-1267.731824
 31
0.0
  0
LINE
  5
7B
100
AcDbEntity
  8
0
  6
BYBLOCK
100
AcDbLine
 10
4102.682687
 20
-1273.731824
 30
0.0
 11
4087.682687
 21
-1273.731824
 31
0.0
  0
LINE
  5
7C
100
AcDbEntity
  8
0
  6
BYBLOCK
100
AcDbLine
 10
4194.182687
 20
-1273.731824
 30
0.0
 11
4209.182687
 21
-1273.731824
 31
0.0
  0
LINE
  5
7D
100
AcDbEntity
  8
0
  6
BYBLOCK
100
AcDbLine
 10
4117.682687
 20
-1273.731824
 30
0.0
 11
4179.182687
 21
-1273.731824
 31
0.0
  0
SOLID
  5
7E
100
AcDbEntity
  8
0
  6
BYBLOCK
100
AcDbTrace
 10
4102.682687
 20
-1271.231824
 30
0.0
 11
4102.682687
 21
-1276.231824
 31
0.0
 12
4117.682687
 22
-1273.731824
 32
0.0
 13
4117.682687
 23
-1273.731824
 33
0.0
  0
SOLID
  5
7F
100
AcDbEntity
  8
0
  6
BYBLOCK
100
AcDbTrace
 10
4194.182687
 20
-1271.231824
 30
0.0
 11
4194.182687
 21
-1276.231824
 31
0.0
 12
4179.182687
 22
-1273.731824
 32
0.0
 13
4179.182687
 23
-1273.731824
 33
0.0
  0
MTEXT
  5
80
100
AcDbEntity
  8
0
  6
BYBLOCK
 62
     5
100
AcDbMText
 10
4148.432687
 20
-1256.231824
 30
0.0
 40
19.32
 41
0.0
 71
     5
 72
     1
  1
\A1;61,5
  0
POINT
  5
81
100
AcDbEntity
  8
DEFPOINTS
  6
BYBLOCK
 62
     0
100
AcDbPoint
 10
4117.682687
 20
-1449.542274
 30
0.0
  0
POINT
  5
82
100
AcDbEntity
  8
DEFPOINTS
  6
BYBLOCK
 62
     0
100
AcDbPoint
 10
4179.182687
 20
-1312.542274
 30
0.0
  0
POINT
  5
83
100
AcDbEntity
  8
DEFPOINTS
  6
BYBLOCK
 62
     0
100
AcDbPoint
 10
4179.182687
 20
-1273.731824
 30
0.0
  0
ENDBLK
  5
85
100
AcDbEntity
  8
0
100
AcDbBlockEnd
  0
BLOCK
  5
75
100
AcDbEntity
  8
0
100
AcDbBlockBegin
  2
*D1
 70
     1
 10
0.0
 20
0.0
 30
0.0
  3
*D1
  1

  0
LINE
  5
6C
100
AcDbEntity
  8
0
  6
BYBLOCK
100
AcDbLine
 10
4179.182687
 20
-1309.542274
 30
0.0
 11
4179.182687
 21
-1267.731824
 31
0.0
  0
LINE
  5
6D
100
AcDbEntity
  8
0
  6
BYBLOCK
100
AcDbLine
 10
4323.182687
 20
-1309.542274
 30
0.0
 11
4323.182687
 21
-1267.731824
 31
0.0
  0
LINE
  5
6E
100
AcDbEntity
  8
0
  6
BYBLOCK
100
AcDbLine
 10
4194.182687
 20
-1273.731824
 30
0.0
 11
4308.182687
 21
-1273.731824
 31
0.0
  0
SOLID
  5
6F
100
AcDbEntity
  8
0
  6
BYBLOCK
100
AcDbTrace
 10
4194.182687
 20
-1271.231824
 30
0.0
 11
4194.182687
 21
-1276.231824
 31
0.0
 12
4179.182687
 22
-1273.731824
 32
0.0
 13
4179.182687
 23
-1273.731824
 33
0.0
  0
SOLID
  5
70
100
AcDbEntity
  8
0
  6
BYBLOCK
100
AcDbTrace
 10
4308.182687
 20
-1271.231824
 30
0.0
 11
4308.182687
 21
-1276.231824
 31
0.0
 12
4323.182687
 22
-1273.731824
 32
0.0
 13
4323.182687
 23
-1273.731824
 33
0.0
  0
MTEXT
  5
71
100
AcDbEntity
  8
0
  6
BYBLOCK
 62
     5
100
AcDbMText
 10
4251.182687
 20
-1258.071824
 30
0.0
 40
19.32
 41
0.0
 71
     5
 72
     1
  1
\A1;144
  0
POINT
  5
72
100
AcDbEntity
  8
DEFPOINTS
  6
BYBLOCK
 62
     0
100
AcDbPoint
 10
4179.182687
 20
-1312.542274
 30
0.0
  0
POINT
  5
73
100
AcDbEntity
  8
DEFPOINTS
  6
BYBLOCK
 62
     0
100
AcDbPoint
 10
4323.182687
 20
-1312.542274
 30
0.0
  0
POINT
  5
74
100
AcDbEntity
  8
DEFPOINTS
  6
BYBLOCK
 62
     0
100
AcDbPoint
 10
4323.182687
 20
-1273.731824
 30
0.0
  0
ENDBLK
  5
76
100
AcDbEntity
  8
0
100
AcDbBlockEnd
  0
BLOCK
  5
68
100
AcDbEntity
  8
0
100
AcDbBlockBegin
  2
*D2
 70
     1
 10
0.0
 20
0.0
 30
0.0
  3
*D2
  1

  0
LINE
  5
5D
100
AcDbEntity
  8
0
  6
BYBLOCK
100
AcDbLine
 10
4323.182687
 20
-1309.542274
 30
0.0
 11
4323.182687
 21
-1267.731824
 31
0.0
  0
LINE
  5
5E
100
AcDbEntity
  8
0
  6
BYBLOCK
100
AcDbLine
 10
4384.682687
 20
-1446.542274
 30
0.0
 11
4384.682687
 21
-1267.731824
 31
0.0
  0
LINE
  5
5F
100
AcDbEntity
  8
0
  6
BYBLOCK
100
AcDbLine
 10
4308.182687
 20
-1273.731824
 30
0.0
 11
4293.182687
 21
-1273.731824
 31
0.0
  0
LINE
  5
60
100
AcDbEntity
  8
0
  6
BYBLOCK
100
AcDbLine
 10
4399.682687
 20
-1273.731824
 30
0.0
 11
4414.682687
 21
-1273.731824
 31
0.0
  0
LINE
  5
61
100
AcDbEntity
  8
0
  6
BYBLOCK
100
AcDbLine
 10
4323.182687
 20
-1273.731824
 30
0.0
 11
4384.682687
 21
-1273.731824
 31
0.0
  0
SOLID
  5
62
100
AcDbEntity
  8
0
  6
BYBLOCK
100
AcDbTrace
 10
4308.182687
 20
-1271.231824
 30
0.0
 11
4308.182687
 21
-1276.231824
 31
0.0
 12
4323.182687
 22
-1273.731824
 32
0.0
 13
4323.182687
 23
-1273.731824
 33
0.0
  0
SOLID
  5
63
100
AcDbEntity
  8
0
  6
BYBLOCK
100
AcDbTrace
 10
4399.682687
 20
-1271.231824
 30
0.0
 11
4399.682687
 21
-1276.231824
 31
0.0
 12
4384.682687
 22
-1273.731824
 32
0.0
 13
4384.682687
 23
-1273.731824
 33
0.0
  0
MTEXT
  5
64
100
AcDbEntity
  8
0
  6
BYBLOCK
 62
     5
100
AcDbMText
 10
4353.932687
 20
-1256.231824
 30
0.0
 40
19.32
 41
0.0
 71
     5
 72
     1
  1
\A1;61,5
  0
POINT
  5
65
100
AcDbEntity
  8
DEFPOINTS
  6
BYBLOCK
 62
     0
100
AcDbPoint
 10
4323.182687
 20
-1312.542274
 30
0.0
  0
POINT
  5
66
100
AcDbEntity
  8
DEFPOINTS
  6
BYBLOCK
 62
     0
100
AcDbPoint
 10
4384.682687
 20
-1449.542274
 30
0.0
  0
POINT
  5
67
100
AcDbEntity
  8
DEFPOINTS
  6
BYBLOCK
 62
     0
100
AcDbPoint
 10
4384.682687
 20
-1273.731824
 30
0.0
  0
ENDBLK
  5
69
100
AcDbEntity
  8
0
100
AcDbBlockEnd
  0
BLOCK
  5
F6
100
AcDbEntity
  8
0
100
AcDbBlockBegin
  2
*D3
 70
     1
 10
0.0
 20
0.0
 30
0.0
  3
*D3
  1

  0
LINE
  5
ED
100
AcDbEntity
  8
0
  6
BYBLOCK
100
AcDbLine
 10
4737.682687
 20
-1452.542274
 30
0.0
 11
4737.682687
 21
-1515.542274
 31
0.0
  0
LINE
  5
EE
100
AcDbEntity
  8
0
  6
BYBLOCK
100
AcDbLine
 10
4694.682687
 20
-1452.542274
 30
0.0
 11
4694.682687
 21
-1515.542274
 31
0.0
  0
LINE
  5
EF
100
AcDbEntity
  8
0
  6
BYBLOCK
100
AcDbLine
 10
4722.682687
 20
-1509.542274
 30
0.0
 11
4709.682687
 21
-1509.542274
 31
0.0
  0
SOLID
  5
F0
100
AcDbEntity
  8
0
  6
BYBLOCK
100
AcDbTrace
 10
4722.682687
 20
-1507.042274
 30
0.0
 11
4722.682687
 21
-1512.042274
 31
0.0
 12
4737.682687
 22
-1509.542274
 32
0.0
 13
4737.682687
 23
-1509.542274
 33
0.0
  0
SOLID
  5
F1
100
AcDbEntity
  8
0
  6
BYBLOCK
100
AcDbTrace
 10
4709.682687
 20
-1507.042274
 30
0.0
 11
4709.682687
 21
-1512.042274
 31
0.0
 12
4694.682687
 22
-1509.542274
 32
0.0
 13
4694.682687
 23
-1509.542274
 33
0.0
  0
MTEXT
  5
F2
100
AcDbEntity
  8
0
  6
BYBLOCK
 62
     5
100
AcDbMText
 10
4716.182687
 20
-1493.882274
 30
0.0
 40
19.32
 41
0.0
 71
     5
 72
     1
  1
\A1;43
  0
POINT
  5
F3
100
AcDbEntity
  8
DEFPOINTS
  6
BYBLOCK
 62
     0
100
AcDbPoint
 10
4737.682687
 20
-1449.542274
 30
0.0
  0
POINT
  5
F4
100
AcDbEntity
  8
DEFPOINTS
  6
BYBLOCK
 62
     0
100
AcDbPoint
 10
4694.682687
 20
-1449.542274
 30
0.0
  0
POINT
  5
F5
100
AcDbEntity
  8
DEFPOINTS
  6
BYBLOCK
 62
     0
100
AcDbPoint
 10
4694.682687
 20
-1509.542274
 30
0.0
  0
ENDBLK
  5
F7
100
AcDbEntity
  8
0
100
AcDbBlockEnd
  0
BLOCK
  5
CF
100
AcDbEntity
  8
0
100
AcDbBlockBegin
  2
*D4
 70
     1
 10
0.0
 20
0.0
 30
0.0
  3
*D4
  1

  0
LINE
  5
C6
100
AcDbEntity
  8
0
  6
BYBLOCK
100
AcDbLine
 10
4633.182687
 20
-1315.542274
 30
0.0
 11
4633.182687
 21
-1515.542274
 31
0.0
  0
LINE
  5
C7
100
AcDbEntity
  8
0
  6
BYBLOCK
100
AcDbLine
 10
4583.182687
 20
-1320.127198
 30
0.0
 11
4583.182687
 21
-1515.542274
 31
0.0
  0
LINE
  5
C8
100
AcDbEntity
  8
0
  6
BYBLOCK
100
AcDbLine
 10
4618.182687
 20
-1509.542274
 30
0.0
 11
4598.182687
 21
-1509.542274
 31
0.0
  0
SOLID
  5
C9
100
AcDbEntity
  8
0
  6
BYBLOCK
100
AcDbTrace
 10
4618.182687
 20
-1507.042274
 30
0.0
 11
4618.182687
 21
-1512.042274
 31
0.0
 12
4633.182687
 22
-1509.542274
 32
0.0
 13
4633.182687
 23
-1509.542274
 33
0.0
  0
SOLID
  5
CA
100
AcDbEntity
  8
0
  6
BYBLOCK
100
AcDbTrace
 10
4598.182687
 20
-1507.042274
 30
0.0
 11
4598.182687
 21
-1512.042274
 31
0.0
 12
4583.182687
 22
-1509.542274
 32
0.0
 13
4583.182687
 23
-1509.542274
 33
0.0
  0
MTEXT
  5
CB
100
AcDbEntity
  8
0
  6
BYBLOCK
 62
     5
100
AcDbMText
 10
4608.182687
 20
-1493.882274
 30
0.0
 40
19.32
 41
0.0
 71
     5
 72
     1
  1
\A1;50
  0
POINT
  5
CC
100
AcDbEntity
  8
DEFPOINTS
  6
BYBLOCK
 62
     0
100
AcDbPoint
 10
4633.182687
 20
-1312.542274
 30
0.0
  0
POINT
  5
CD
100
AcDbEntity
  8
DEFPOINTS
  6
BYBLOCK
 62
     0
100
AcDbPoint
 10
4583.182687
 20
-1317.127198
 30
0.0
  0
POINT
  5
CE
100
AcDbEntity
  8
DEFPOINTS
  6
BYBLOCK
 62
     0
100
AcDbPoint
 10
4583.182687
 20
-1509.542274
 30
0.0
  0
ENDBLK
  5
D0
100
AcDbEntity
  8
0
100
AcDbBlockEnd
  0
BLOCK
  5
E9
100
AcDbEntity
  8
0
100
AcDbBlockBegin
  2
*D5
 70
     1
 10
0.0
 20
0.0
 30
0.0
  3
*D5
  1

  0
LINE
  5
E0
100
AcDbEntity
  8
0
  6
BYBLOCK
100
AcDbLine
 10
4583.182687
 20
-1320.127198
 30
0.0
 11
4583.182687
 21
-1515.542274
 31
0.0
  0
LINE
  5
E1
100
AcDbEntity
  8
0
  6
BYBLOCK
100
AcDbLine
 10
4539.182687
 20
-1320.127198
 30
0.0
 11
4539.182687
 21
-1515.542274
 31
0.0
  0
LINE
  5
E2
100
AcDbEntity
  8
0
  6
BYBLOCK
100
AcDbLine
 10
4568.182687
 20
-1509.542274
 30
0.0
 11
4554.182687
 21
-1509.542274
 31
0.0
  0
SOLID
  5
E3
100
AcDbEntity
  8
0
  6
BYBLOCK
100
AcDbTrace
 10
4568.182687
 20
-1507.042274
 30
0.0
 11
4568.182687
 21
-1512.042274
 31
0.0
 12
4583.182687
 22
-1509.542274
 32
0.0
 13
4583.182687
 23
-1509.542274
 33
0.0
  0
SOLID
  5
E4
100
AcDbEntity
  8
0
  6
BYBLOCK
100
AcDbTrace
 10
4554.182687
 20
-1507.042274
 30
0.0
 11
4554.182687
 21
-1512.042274
 31
0.0
 12
4539.182687
 22
-1509.542274
 32
0.0
 13
4539.182687
 23
-1509.542274
 33
0.0
  0
MTEXT
  5
E5
100
AcDbEntity
  8
0
  6
BYBLOCK
 62
     5
100
AcDbMText
 10
4561.182687
 20
-1493.882274
 30
0.0
 40
19.32
 41
0.0
 71
     5
 72
     1
  1
\A1;44
  0
POINT
  5
E6
100
AcDbEntity
  8
DEFPOINTS
  6
BYBLOCK
 62
     0
100
AcDbPoint
 10
4583.182687
 20
-1317.127198
 30
0.0
  0
POINT
  5
E7
100
AcDbEntity
  8
DEFPOINTS
  6
BYBLOCK
 62
     0
100
AcDbPoint
 10
4539.182687
 20
-1317.127198
 30
0.0
  0
POINT
  5
E8
100
AcDbEntity
  8
DEFPOINTS
  6
BYBLOCK
 62
     0
100
AcDbPoint
 10
4539.182687
 20
-1509.542274
 30
0.0
  0
ENDBLK
  5
EA
100
AcDbEntity
  8
0
100
AcDbBlockEnd
  0
BLOCK
  5
DC
100
AcDbEntity
  8
0
100
AcDbBlockBegin
  2
*D6
 70
     1
 10
0.0
 20
0.0
 30
0.0
  3
*D6
  1

  0
LINE
  5
D3
100
AcDbEntity
  8
0
  6
BYBLOCK
100
AcDbLine
 10
4539.182687
 20
-1320.127198
 30
0.0
 11
4539.182687
 21
-1515.542274
 31
0.0
  0
LINE
  5
D4
100
AcDbEntity
  8
0
  6
BYBLOCK
100
AcDbLine
 10
4489.182687
 20
-1315.542274
 30
0.0
 11
4489.182687
 21
-1515.542274
 31
0.0
  0
LINE
  5
D5
100
AcDbEntity
  8
0
  6
BYBLOCK
100
AcDbLine
 10
4524.182687
 20
-1509.542274
 30
0.0
 11
4504.182687
 21
-1509.542274
 31
0.0
  0
SOLID
  5
D6
100
AcDbEntity
  8
0
  6
BYBLOCK
100
AcDbTrace
 10
4524.182687
 20
-1507.042274
 30
0.0
 11
4524.182687
 21
-1512.042274
 31
0.0
 12
4539.182687
 22
-1509.542274
 32
0.0
 13
4539.182687
 23
-1509.542274
 33
0.0
  0
SOLID
  5
D7
100
AcDbEntity
  8
0
  6
BYBLOCK
100
AcDbTrace
 10
4504.182687
 20
-1507.042274
 30
0.0
 11
4504.182687
 21
-1512.042274
 31
0.0
 12
4489.182687
 22
-1509.542274
 32
0.0
 13
4489.182687
 23
-1509.542274
 33
0.0
  0
MTEXT
  5
D8
100
AcDbEntity
  8
0
  6
BYBLOCK
 62
     5
100
AcDbMText
 10
4514.182687
 20
-1493.882274
 30
0.0
 40
19.32
 41
0.0
 71
     5
 72
     1
  1
\A1;50
  0
POINT
  5
D9
100
AcDbEntity
  8
DEFPOINTS
  6
BYBLOCK
 62
     0
100
AcDbPoint
 10
4539.182687
 20
-1317.127198
 30
0.0
  0
POINT
  5
DA
100
AcDbEntity
  8
DEFPOINTS
  6
BYBLOCK
 62
     0
100
AcDbPoint
 10
4489.182687
 20
-1312.542274
 30
0.0
  0
POINT
  5
DB
100
AcDbEntity
  8
DEFPOINTS
  6
BYBLOCK
 62
     0
100
AcDbPoint
 10
4489.182687
 20
-1509.542274
 30
0.0
  0
ENDBLK
  5
DD
100
AcDbEntity
  8
0
100
AcDbBlockEnd
  0
BLOCK
  5
B2
100
AcDbEntity
  8
0
100
AcDbBlockBegin
  2
*D7
 70
     1
 10
0.0
 20
0.0
 30
0.0
  3
*D7
  1

  0
LINE
  5
A6
100
AcDbEntity
  8
0
  6
BYBLOCK
100
AcDbLine
 10
4264.032687
 20
-1315.542274
 30
0.0
 11
4264.032687
 21
-1455.542274
 31
0.0
  0
LINE
  5
A7
100
AcDbEntity
  8
0
  6
BYBLOCK
100
AcDbLine
 10
4282.332687
 20
-1315.542274
 30
0.0
 11
4282.332687
 21
-1455.542274
 31
0.0
  0
LINE
  5
A8
100
AcDbEntity
  8
0
  6
BYBLOCK
100
AcDbLine
 10
4249.032687
 20
-1449.542274
 30
0.0
 11
4234.032687
 21
-1449.542274
 31
0.0
  0
LINE
  5
A9
100
AcDbEntity
  8
0
  6
BYBLOCK
100
AcDbLine
 10
4297.332687
 20
-1449.542274
 30
0.0
 11
4312.332687
 21
-1449.542274
 31
0.0
  0
MTEXT
  5
AA
100
AcDbEntity
  8
0
  6
BYBLOCK
 62
     5
100
AcDbMText
 10
4235.416942
 20
-1431.122019
 30
0.0
 40
19.32
 41
0.0
 71
     5
 72
     1
  1
\A1;18,3
  0
LINE
  5
AB
100
AcDbEntity
  8
0
  6
BYBLOCK
100
AcDbLine
 10
4264.032687
 20
-1449.542274
 30
0.0
 11
4282.332687
 21
-1449.542274
 31
0.0
  0
LINE
  5
AC
100
AcDbEntity
  8
0
  6
BYBLOCK
100
AcDbLine
 10
4264.032687
 20
-1449.542274
 30
0.0
 11
4282.332687
 21
-1449.542274
 31
0.0
  0
SOLID
  5
AD
100
AcDbEntity
  8
0
  6
BYBLOCK
100
AcDbTrace
 10
4249.032687
 20
-1447.042274
 30
0.0
 11
4249.032687
 21
-1452.042274
 31
0.0
 12
4264.032687
 22
-1449.542274
 32
0.0
 13
4264.032687
 23
-1449.542274
 33
0.0
  0
SOLID
  5
AE
100
AcDbEntity
  8
0
  6
BYBLOCK
100
AcDbTrace
 10
4297.332687
 20
-1447.042274
 30
0.0
 11
4297.332687
 21
-1452.042274
 31
0.0
 12
4282.332687
 22
-1449.542274
 32
0.0
 13
4282.332687
 23
-1449.542274
 33
0.0
  0
POINT
  5
AF
100
AcDbEntity
  8
DEFPOINTS
  6
BYBLOCK
 62
     0
100
AcDbPoint
 10
4264.032687
 20
-1312.542274
 30
0.0
  0
POINT
  5
B0
100
AcDbEntity
  8
DEFPOINTS
  6
BYBLOCK
 62
     0
100
AcDbPoint
 10
4282.332687
 20
-1312.542274
 30
0.0
  0
POINT
  5
B1
100
AcDbEntity
  8
DEFPOINTS
  6
BYBLOCK
 62
     0
100
AcDbPoint
 10
4282.332687
 20
-1449.542274
 30
0.0
  0
ENDBLK
  5
B3
100
AcDbEntity
  8
0
100
AcDbBlockEnd
  0
BLOCK
  5
C2
100
AcDbEntity
  8
0
100
AcDbBlockBegin
  2
*D8
 70
     1
 10
0.0
 20
0.0
 30
0.0
  3
*D8
  1

  0
LINE
  5
B6
100
AcDbEntity
  8
0
  6
BYBLOCK
100
AcDbLine
 10
4276.182687
 20
-1317.127198
 30
0.0
 11
4380.115231
 21
-1317.127198
 31
0.0
  0
LINE
  5
B7
100
AcDbEntity
  8
0
  6
BYBLOCK
100
AcDbLine
 10
4326.182687
 20
-1312.542274
 30
0.0
 11
4380.115231
 21
-1312.542274
 31
0.0
  0
LINE
  5
B8
100
AcDbEntity
  8
0
  6
BYBLOCK
100
AcDbLine
 10
4374.115231
 20
-1332.127198
 30
0.0
 11
4374.115231
 21
-1347.127198
 31
0.0
  0
LINE
  5
B9
100
AcDbEntity
  8
0
  6
BYBLOCK
100
AcDbLine
 10
4374.115231
 20
-1297.542274
 30
0.0
 11
4374.115231
 21
-1282.542274
 31
0.0
  0
MTEXT
  5
BA
100
AcDbEntity
  8
0
  6
BYBLOCK
 62
     5
100
AcDbMText
 10
4356.046182
 20
-1332.867554
 30
0.0
 40
19.32
 41
0.0
 71
     5
 72
     1
  1
\A1;4
 11
0.0
 21
1.0
 31
0.0
  0
LINE
  5
BB
100
AcDbEntity
  8
0
  6
BYBLOCK
100
AcDbLine
 10
4374.115231
 20
-1317.127198
 30
0.0
 11
4374.115231
 21
-1312.542274
 31
0.0
  0
LINE
  5
BC
100
AcDbEntity
  8
0
  6
BYBLOCK
100
AcDbLine
 10
4374.115231
 20
-1317.127198
 30
0.0
 11
4374.115231
 21
-1312.542274
 31
0.0
  0
SOLID
  5
BD
100
AcDbEntity
  8
0
  6
BYBLOCK
100
AcDbTrace
 10
4371.615231
 20
-1332.127198
 30
0.0
 11
4376.615231
 21
-1332.127198
 31
0.0
 12
4374.115231
 22
-1317.127198
 32
0.0
 13
4374.115231
 23
-1317.127198
 33
0.0
  0
SOLID
  5
BE
100
AcDbEntity
  8
0
  6
BYBLOCK
100
AcDbTrace
 10
4371.615231
 20
-1297.542274
 30
0.0
 11
4376.615231
 21
-1297.542274
 31
0.0
 12
4374.115231
 22
-1312.542274
 32
0.0
 13
4374.115231
 23
-1312.542274
 33
0.0
  0
POINT
  5
BF
100
AcDbEntity
  8
DEFPOINTS
  6
BYBLOCK
 62
     0
100
AcDbPoint
 10
4273.182687
 20
-1317.127198
 30
0.0
  0
POINT
  5
C0
100
AcDbEntity
  8
DEFPOINTS
  6
BYBLOCK
 62
     0
100
AcDbPoint
 10
4323.182687
 20
-1312.542274
 30
0.0
  0
POINT
  5
C1
100
AcDbEntity
  8
DEFPOINTS
  6
BYBLOCK
 62
     0
100
AcDbPoint
 10
4374.115231
 20
-1312.542274
 30
0.0
  0
ENDBLK
  5
C3
100
AcDbEntity
  8
0
100
AcDbBlockEnd
  0
BLOCK
  5
A2
100
AcDbEntity
  8
0
100
AcDbBlockBegin
  2
*D9
 70
     1
 10
0.0
 20
0.0
 30
0.0
  3
*D9
  1

  0
LINE
  5
99
100
AcDbEntity
  8
0
  6
BYBLOCK
100
AcDbLine
 10
4096.182687
 20
-1452.542274
 30
0.0
 11
4096.182687
 21
-1515.542274
 31
0.0
  0
LINE
  5
9A
100
AcDbEntity
  8
0
  6
BYBLOCK
100
AcDbLine
 10
4406.182687
 20
-1452.542274
 30
0.0
 11
4406.182687
 21
-1515.542274
 31
0.0
  0
LINE
  5
9B
100
AcDbEntity
  8
0
  6
BYBLOCK
100
AcDbLine
 10
4111.182687
 20
-1509.542274
 30
0.0
 11
4391.182687
 21
-1509.542274
 31
0.0
  0
SOLID
  5
9C
100
AcDbEntity
  8
0
  6
BYBLOCK
100
AcDbTrace
 10
4111.182687
 20
-1507.042274
 30
0.0
 11
4111.182687
 21
-1512.042274
 31
0.0
 12
4096.182687
 22
-1509.542274
 32
0.0
 13
4096.182687
 23
-1509.542274
 33
0.0
  0
SOLID
  5
9D
100
AcDbEntity
  8
0
  6
BYBLOCK
100
AcDbTrace
 10
4391.182687
 20
-1507.042274
 30
0.0
 11
4391.182687
 21
-1512.042274
 31
0.0
 12
4406.182687
 22
-1509.542274
 32
0.0
 13
4406.182687
 23
-1509.542274
 33
0.0
  0
MTEXT
  5
9E
100
AcDbEntity
  8
0
  6
BYBLOCK
 62
     5
100
AcDbMText
 10
4251.182687
 20
-1493.882274
 30
0.0
 40
19.32
 41
0.0
 71
     5
 72
     1
  1
\A1;310
  0
POINT
  5
9F
100
AcDbEntity
  8
DEFPOINTS
  6
BYBLOCK
 62
     0
100
AcDbPoint
 10
4096.182687
 20
-1449.542274
 30
0.0
  0
POINT
  5
A0
100
AcDbEntity
  8
DEFPOINTS
  6
BYBLOCK
 62
     0
100
AcDbPoint
 10
4406.182687
 20
-1449.542274
 30
0.0
  0
POINT
  5
A1
100
AcDbEntity
  8
DEFPOINTS
  6
BYBLOCK
 62
     0
100
AcDbPoint
 10
4406.182687
 20
-1509.542274
 30
0.0
  0
ENDBLK
  5
A3
100
AcDbEntity
  8
0
100
AcDbBlockEnd
  0
BLOCK
  5
93
100
AcDbEntity
  8
0
100
AcDbBlockBegin
  2
*D10
 70
     1
 10
0.0
 20
0.0
 30
0.0
  3
*D10
  1

  0
LINE
  5
8A
100
AcDbEntity
  8
0
  6
BYBLOCK
100
AcDbLine
 10
4096.182687
 20
-1452.542274
 30
0.0
 11
4096.182687
 21
-1575.542274
 31
0.0
  0
LINE
  5
8B
100
AcDbEntity
  8
0
  6
BYBLOCK
100
AcDbLine
 10
5026.182687
 20
-1452.542274
 30
0.0
 11
5026.182687
 21
-1575.542274
 31
0.0
  0
LINE
  5
8C
100
AcDbEntity
  8
0
  6
BYBLOCK
100
AcDbLine
 10
4111.182687
 20
-1569.542274
 30
0.0
 11
5011.182687
 21
-1569.542274
 31
0.0
  0
SOLID
  5
8D
100
AcDbEntity
  8
0
  6
BYBLOCK
100
AcDbTrace
 10
4111.182687
 20
-1567.042274
 30
0.0
 11
4111.182687
 21
-1572.042274
 31
0.0
 12
4096.182687
 22
-1569.542274
 32
0.0
 13
4096.182687
 23
-1569.542274
 33
0.0
  0
SOLID
  5
8E
100
AcDbEntity
  8
0
  6
BYBLOCK
100
AcDbTrace
 10
5011.182687
 20
-1567.042274
 30
0.0
 11
5011.182687
 21
-1572.042274
 31
0.0
 12
5026.182687
 22
-1569.542274
 32
0.0
 13
5026.182687
 23
-1569.542274
 33
0.0
  0
MTEXT
  5
8F
100
AcDbEntity
  8
0
  6
BYBLOCK
 62
     5
100
AcDbMText
 10
4561.182687
 20
-1553.882274
 30
0.0
 40
19.32
 41
0.0
 71
     5
 72
     1
  1
\A1;930
  0
POINT
  5
90
100
AcDbEntity
  8
DEFPOINTS
  6
BYBLOCK
 62
     0
100
AcDbPoint
 10
4096.182687
 20
-1449.542274
 30
0.0
  0
POINT
  5
91
100
AcDbEntity
  8
DEFPOINTS
  6
BYBLOCK
 62
     0
100
AcDbPoint
 10
5026.182687
 20
-1449.542274
 30
0.0
  0
POINT
  5
92
100
AcDbEntity
  8
DEFPOINTS
  6
BYBLOCK
 62
     0
100
AcDbPoint
 10
5026.182687
 20
-1569.542274
 30
0.0
  0
ENDBLK
  5
94
100
AcDbEntity
  8
0
100
AcDbBlockEnd
  0
BLOCK
  5
59
100
AcDbEntity
  8
0
100
AcDbBlockBegin
  2
*D11
 70
     1
 10
0.0
 20
0.0
 30
0.0
  3
*D11
  1

  0
LINE
  5
4D
100
AcDbEntity
  8
0
  6
BYBLOCK
100
AcDbLine
 10
4946.182687
 20
-1312.542274
 30
0.0
 11
5085.808094
 21
-1312.542274
 31
0.0
  0
LINE
  5
4E
100
AcDbEntity
  8
0
  6
BYBLOCK
100
AcDbLine
 10
4953.089662
 20
-1331.542274
 30
0.0
 11
5085.808094
 21
-1331.542274
 31
0.0
  0
LINE
  5
4F
100
AcDbEntity
  8
0
  6
BYBLOCK
100
AcDbLine
 10
5079.808094
 20
-1297.542274
 30
0.0
 11
5079.808094
 21
-1282.542274
 31
0.0
  0
LINE
  5
50
100
AcDbEntity
  8
0
  6
BYBLOCK
100
AcDbLine
 10
5079.808094
 20
-1346.542274
 30
0.0
 11
5079.808094
 21
-1361.542274
 31
0.0
  0
MTEXT
  5
51
100
AcDbEntity
  8
0
  6
BYBLOCK
 62
     5
100
AcDbMText
 10
5064.058094
 20
-1288.481778
 30
0.0
 40
19.32
 41
0.0
 71
     5
 72
     1
  1
\A1;19
 11
0.0
 21
1.0
 31
0.0
  0
LINE
  5
52
100
AcDbEntity
  8
0
  6
BYBLOCK
100
AcDbLine
 10
5079.808094
 20
-1312.542274
 30
0.0
 11
5079.808094
 21
-1331.542274
 31
0.0
  0
LINE
  5
53
100
AcDbEntity
  8
0
  6
BYBLOCK
100
AcDbLine
 10
5079.808094
 20
-1312.542274
 30
0.0
 11
5079.808094
 21
-1331.542274
 31
0.0
  0
SOLID
  5
54
100
AcDbEntity
  8
0
  6
BYBLOCK
100
AcDbTrace
 10
5077.308094
 20
-1297.542274
 30
0.0
 11
5082.308094
 21
-1297.542274
 31
0.0
 12
5079.808094
 22
-1312.542274
 32
0.0
 13
5079.808094
 23
-1312.542274
 33
0.0
  0
SOLID
  5
55
100
AcDbEntity
  8
0
  6
BYBLOCK
100
AcDbTrace
 10
5077.308094
 20
-1346.542274
 30
0.0
 11
5082.308094
 21
-1346.542274
 31
0.0
 12
5079.808094
 22
-1331.542274
 32
0.0
 13
5079.808094
 23
-1331.542274
 33
0.0
  0
POINT
  5
56
100
AcDbEntity
  8
DEFPOINTS
  6
BYBLOCK
 62
     0
100
AcDbPoint
 10
4943.182687
 20
-1312.542274
 30
0.0
  0
POINT
  5
57
100
AcDbEntity
  8
DEFPOINTS
  6
BYBLOCK
 62
     0
100
AcDbPoint
 10
4950.089662
 20
-1331.542274
 30
0.0
  0
POINT
  5
58
100
AcDbEntity
  8
DEFPOINTS
  6
BYBLOCK
 62
     0
100
AcDbPoint
 10
5079.808094
 20
-1331.542274
 30
0.0
  0
ENDBLK
  5
5A
100
AcDbEntity
  8
0
100
AcDbBlockEnd
  0
BLOCK
  5
153
100
AcDbEntity
  8
0
100
AcDbBlockBegin
  2
*D12
 70
     1
 10
0.0
 20
0.0
 30
0.0
  3
*D12
  1

  0
LINE
  5
147
100
AcDbEntity
  8
0
  6
BYBLOCK
100
AcDbLine
 10
4953.089662
 20
-1331.542274
 30
0.0
 11
5085.808094
 21
-1331.542274
 31
0.0
  0
LINE
  5
148
100
AcDbEntity
  8
0
  6
BYBLOCK
100
AcDbLine
 10
4964.02755
 20
-1345.542274
 30
0.0
 11
5085.808094
 21
-1345.542274
 31
0.0
  0
LINE
  5
149
100
AcDbEntity
  8
0
  6
BYBLOCK
100
AcDbLine
 10
5079.808094
 20
-1316.542274
 30
0.0
 11
5079.808094
 21
-1301.542274
 31
0.0
  0
LINE
  5
14A
100
AcDbEntity
  8
0
  6
BYBLOCK
100
AcDbLine
 10
5079.808094
 20
-1360.542274
 30
0.0
 11
5079.808094
 21
-1375.542274
 31
0.0
  0
MTEXT
  5
14B
100
AcDbEntity
  8
0
  6
BYBLOCK
 62
     5
100
AcDbMText
 10
5098.295421
 20
-1338.542274
 30
0.0
 40
19.32
 41
0.0
 71
     5
 72
     1
  1
\A1;14
 11
0.0
 21
1.0
 31
0.0
  0
LINE
  5
14C
100
AcDbEntity
  8
0
  6
BYBLOCK
100
AcDbLine
 10
5079.808094
 20
-1331.542274
 30
0.0
 11
5079.808094
 21
-1345.542274
 31
0.0
  0
LINE
  5
14D
100
AcDbEntity
  8
0
  6
BYBLOCK
100
AcDbLine
 10
5079.808094
 20
-1331.542274
 30
0.0
 11
5079.808094
 21
-1345.542274
 31
0.0
  0
SOLID
  5
14E
100
AcDbEntity
  8
0
  6
BYBLOCK
100
AcDbTrace
 10
5077.308094
 20
-1316.542274
 30
0.0
 11
5082.308094
 21
-1316.542274
 31
0.0
 12
5079.808094
 22
-1331.542274
 32
0.0
 13
5079.808094
 23
-1331.542274
 33
0.0
  0
SOLID
  5
14F
100
AcDbEntity
  8
0
  6
BYBLOCK
100
AcDbTrace
 10
5077.308094
 20
-1360.542274
 30
0.0
 11
5082.308094
 21
-1360.542274
 31
0.0
 12
5079.808094
 22
-1345.542274
 32
0.0
 13
5079.808094
 23
-1345.542274
 33
0.0
  0
POINT
  5
150
100
AcDbEntity
  8
DEFPOINTS
  6
BYBLOCK
 62
     0
100
AcDbPoint
 10
4950.089662
 20
-1331.542274
 30
0.0
  0
POINT
  5
151
100
AcDbEntity
  8
DEFPOINTS
  6
BYBLOCK
 62
     0
100
AcDbPoint
 10
4961.02755
 20
-1345.542274
 30
0.0
  0
POINT
  5
152
100
AcDbEntity
  8
DEFPOINTS
  6
BYBLOCK
 62
     0
100
AcDbPoint
 10
5079.808094
 20
-1345.542274
 30
0.0
  0
ENDBLK
  5
154
100
AcDbEntity
  8
0
100
AcDbBlockEnd
  0
BLOCK
  5
143
100
AcDbEntity
  8
0
100
AcDbBlockBegin
  2
*D13
 70
     1
 10
0.0
 20
0.0
 30
0.0
  3
*D13
  1

  0
LINE
  5
137
100
AcDbEntity
  8
0
  6
BYBLOCK
100
AcDbLine
 10
4989.837825
 20
-1416.542274
 30
0.0
 11
5085.808094
 21
-1416.542274
 31
0.0
  0
LINE
  5
138
100
AcDbEntity
  8
0
  6
BYBLOCK
100
AcDbLine
 10
5000.775712
 20
-1430.542274
 30
0.0
 11
5085.808094
 21
-1430.542274
 31
0.0
  0
LINE
  5
139
100
AcDbEntity
  8
0
  6
BYBLOCK
100
AcDbLine
 10
5079.808094
 20
-1401.542274
 30
0.0
 11
5079.808094
 21
-1386.542274
 31
0.0
  0
LINE
  5
13A
100
AcDbEntity
  8
0
  6
BYBLOCK
100
AcDbLine
 10
5079.808094
 20
-1445.542274
 30
0.0
 11
5079.808094
 21
-1460.542274
 31
0.0
  0
MTEXT
  5
13B
100
AcDbEntity
  8
0
  6
BYBLOCK
 62
     5
100
AcDbMText
 10
5099.006477
 20
-1423.542274
 30
0.0
 40
19.32
 41
0.0
 71
     5
 72
     1
  1
\A1;14
 11
0.0
 21
1.0
 31
0.0
  0
LINE
  5
13C
100
AcDbEntity
  8
0
  6
BYBLOCK
100
AcDbLine
 10
5079.808094
 20
-1416.542274
 30
0.0
 11
5079.808094
 21
-1430.542274
 31
0.0
  0
LINE
  5
13D
100
AcDbEntity
  8
0
  6
BYBLOCK
100
AcDbLine
 10
5079.808094
 20
-1416.542274
 30
0.0
 11
5079.808094
 21
-1430.542274
 31
0.0
  0
SOLID
  5
13E
100
AcDbEntity
  8
0
  6
BYBLOCK
100
AcDbTrace
 10
5077.308094
 20
-1401.542274
 30
0.0
 11
5082.308094
 21
-1401.542274
 31
0.0
 12
5079.808094
 22
-1416.542274
 32
0.0
 13
5079.808094
 23
-1416.542274
 33
0.0
  0
SOLID
  5
13F
100
AcDbEntity
  8
0
  6
BYBLOCK
100
AcDbTrace
 10
5077.308094
 20
-1445.542274
 30
0.0
 11
5082.308094
 21
-1445.542274
 31
0.0
 12
5079.808094
 22
-1430.542274
 32
0.0
 13
5079.808094
 23
-1430.542274
 33
0.0
  0
POINT
  5
140
100
AcDbEntity
  8
DEFPOINTS
  6
BYBLOCK
 62
     0
100
AcDbPoint
 10
4986.837825
 20
-1416.542274
 30
0.0
  0
POINT
  5
141
100
AcDbEntity
  8
DEFPOINTS
  6
BYBLOCK
 62
     0
100
AcDbPoint
 10
4997.775712
 20
-1430.542274
 30
0.0
  0
POINT
  5
142
100
AcDbEntity
  8
DEFPOINTS
  6
BYBLOCK
 62
     0
100
AcDbPoint
 10
5079.808094
 20
-1430.542274
 30
0.0
  0
ENDBLK
  5
144
100
AcDbEntity
  8
0
100
AcDbBlockEnd
  0
BLOCK
  5
133
100
AcDbEntity
  8
0
100
AcDbBlockBegin
  2
*D14
 70
     1
 10
0.0
 20
0.0
 30
0.0
  3
*D14
  1

  0
LINE
  5
127
100
AcDbEntity
  8
0
  6
BYBLOCK
100
AcDbLine
 10
5000.775712
 20
-1430.542274
 30
0.0
 11
5085.808094
 21
-1430.542274
 31
0.0
  0
LINE
  5
128
100
AcDbEntity
  8
0
  6
BYBLOCK
100
AcDbLine
 10
5050.682687
 20
-1449.542274
 30
0.0
 11
5085.808094
 21
-1449.542274
 31
0.0
  0
LINE
  5
129
100
AcDbEntity
  8
0
  6
BYBLOCK
100
AcDbLine
 10
5079.808094
 20
-1415.542274
 30
0.0
 11
5079.808094
 21
-1400.542274
 31
0.0
  0
LINE
  5
12A
100
AcDbEntity
  8
0
  6
BYBLOCK
100
AcDbLine
 10
5079.808094
 20
-1464.542274
 30
0.0
 11
5079.808094
 21
-1479.542274
 31
0.0
  0
MTEXT
  5
12B
100
AcDbEntity
  8
0
  6
BYBLOCK
 62
     5
100
AcDbMText
 10
5064.058094
 20
-1472.416497
 30
0.0
 40
19.32
 41
0.0
 71
     5
 72
     1
  1
\A1;19
 11
0.0
 21
1.0
 31
0.0
  0
LINE
  5
12C
100
AcDbEntity
  8
0
  6
BYBLOCK
100
AcDbLine
 10
5079.808094
 20
-1430.542274
 30
0.0
 11
5079.808094
 21
-1449.542274
 31
0.0
  0
LINE
  5
12D
100
AcDbEntity
  8
0
  6
BYBLOCK
100
AcDbLine
 10
5079.808094
 20
-1430.542274
 30
0.0
 11
5079.808094
 21
-1449.542274
 31
0.0
  0
SOLID
  5
12E
100
AcDbEntity
  8
0
  6
BYBLOCK
100
AcDbTrace
 10
5077.308094
 20
-1415.542274
 30
0.0
 11
5082.308094
 21
-1415.542274
 31
0.0
 12
5079.808094
 22
-1430.542274
 32
0.0
 13
5079.808094
 23
-1430.542274
 33
0.0
  0
SOLID
  5
12F
100
AcDbEntity
  8
0
  6
BYBLOCK
100
AcDbTrace
 10
5077.308094
 20
-1464.542274
 30
0.0
 11
5082.308094
 21
-1464.542274
 31
0.0
 12
5079.808094
 22
-1449.542274
 32
0.0
 13
5079.808094
 23
-1449.542274
 33
0.0
  0
POINT
  5
130
100
AcDbEntity
  8
DEFPOINTS
  6
BYBLOCK
 62
     0
100
AcDbPoint
 10
4997.775712
 20
-1430.542274
 30
0.0
  0
POINT
  5
131
100
AcDbEntity
  8
DEFPOINTS
  6
BYBLOCK
 62
     0
100
AcDbPoint
 10
5047.682687
 20
-1449.542274
 30
0.0
  0
POINT
  5
132
100
AcDbEntity
  8
DEFPOINTS
  6
BYBLOCK
 62
     0
100
AcDbPoint
 10
5079.808094
 20
-1449.542274
 30
0.0
  0
ENDBLK
  5
134
100
AcDbEntity
  8
0
100
AcDbBlockEnd
  0
BLOCK
  5
123
100
AcDbEntity
  8
0
100
AcDbBlockBegin
  2
*D15
 70
     1
 10
0.0
 20
0.0
 30
0.0
  3
*D15
  1

  0
LINE
  5
11A
100
AcDbEntity
  8
0
  6
BYBLOCK
100
AcDbLine
 10
4963.567232
 20
-1345.542274
 30
0.0
 11
5085.808094
 21
-1345.542274
 31
0.0
  0
LINE
  5
11B
100
AcDbEntity
  8
0
  6
BYBLOCK
100
AcDbLine
 10
4989.377507
 20
-1416.542274
 30
0.0
 11
5085.808094
 21
-1416.542274
 31
0.0
  0
LINE
  5
11C
100
AcDbEntity
  8
0
  6
BYBLOCK
100
AcDbLine
 10
5079.808094
 20
-1360.542274
 30
0.0
 11
5079.808094
 21
-1401.542274
 31
0.0
  0
SOLID
  5
11D
100
AcDbEntity
  8
0
  6
BYBLOCK
100
AcDbTrace
 10
5077.308094
 20
-1360.542274
 30
0.0
 11
5082.308094
 21
-1360.542274
 31
0.0
 12
5079.808094
 22
-1345.542274
 32
0.0
 13
5079.808094
 23
-1345.542274
 33
0.0
  0
SOLID
  5
11E
100
AcDbEntity
  8
0
  6
BYBLOCK
100
AcDbTrace
 10
5077.308094
 20
-1401.542274
 30
0.0
 11
5082.308094
 21
-1401.542274
 31
0.0
 12
5079.808094
 22
-1416.542274
 32
0.0
 13
5079.808094
 23
-1416.542274
 33
0.0
  0
MTEXT
  5
11F
100
AcDbEntity
  8
0
  6
BYBLOCK
 62
     5
100
AcDbMText
 10
5064.148094
 20
-1381.042274
 30
0.0
 40
19.32
 41
0.0
 71
     5
 72
     1
  1
\A1;71
 11
0.0
 21
1.0
 31
0.0
  0
POINT
  5
120
100
AcDbEntity
  8
DEFPOINTS
  6
BYBLOCK
 62
     0
100
AcDbPoint
 10
4960.567232
 20
-1345.542274
 30
0.0
  0
POINT
  5
121
100
AcDbEntity
  8
DEFPOINTS
  6
BYBLOCK
 62
     0
100
AcDbPoint
 10
4986.377507
 20
-1416.542274
 30
0.0
  0
POINT
  5
122
100
AcDbEntity
  8
DEFPOINTS
  6
BYBLOCK
 62
     0
100
AcDbPoint
 10
5079.808094
 20
-1416.542274
 30
0.0
  0
ENDBLK
  5
124
100
AcDbEntity
  8
0
100
AcDbBlockEnd
  0
BLOCK
  5
116
100
AcDbEntity
  8
0
100
AcDbBlockBegin
  2
*D16
 70
     1
 10
0.0
 20
0.0
 30
0.0
  3
*D16
  1

  0
LINE
  5
10D
100
AcDbEntity
  8
0
  6
BYBLOCK
100
AcDbLine
 10
4946.182687
 20
-1312.542274
 30
0.0
 11
5147.669547
 21
-1312.542274
 31
0.0
  0
LINE
  5
10E
100
AcDbEntity
  8
0
  6
BYBLOCK
100
AcDbLine
 10
5007.682687
 20
-1449.542274
 30
0.0
 11
5147.669547
 21
-1449.542274
 31
0.0
  0
LINE
  5
10F
100
AcDbEntity
  8
0
  6
BYBLOCK
100
AcDbLine
 10
5141.669547
 20
-1327.542274
 30
0.0
 11
5141.669547
 21
-1434.542274
 31
0.0
  0
SOLID
  5
110
100
AcDbEntity
  8
0
  6
BYBLOCK
100
AcDbTrace
 10
5139.169547
 20
-1327.542274
 30
0.0
 11
5144.169547
 21
-1327.542274
 31
0.0
 12
5141.669547
 22
-1312.542274
 32
0.0
 13
5141.669547
 23
-1312.542274
 33
0.0
  0
SOLID
  5
111
100
AcDbEntity
  8
0
  6
BYBLOCK
100
AcDbTrace
 10
5139.169547
 20
-1434.542274
 30
0.0
 11
5144.169547
 21
-1434.542274
 31
0.0
 12
5141.669547
 22
-1449.542274
 32
0.0
 13
5141.669547
 23
-1449.542274
 33
0.0
  0
MTEXT
  5
112
100
AcDbEntity
  8
0
  6
BYBLOCK
 62
     5
100
AcDbMText
 10
5126.009547
 20
-1381.042274
 30
0.0
 40
19.32
 41
0.0
 71
     5
 72
     1
  1
\A1;137
 11
0.0
 21
1.0
 31
0.0
  0
POINT
  5
113
100
AcDbEntity
  8
DEFPOINTS
  6
BYBLOCK
 62
     0
100
AcDbPoint
 10
4943.182687
 20
-1312.542274
 30
0.0
  0
POINT
  5
114
100
AcDbEntity
  8
DEFPOINTS
  6
BYBLOCK
 62
     0
100
AcDbPoint
 10
5004.682687
 20
-1449.542274
 30
0.0
  0
POINT
  5
115
100
AcDbEntity
  8
DEFPOINTS
  6
BYBLOCK
 62
     0
100
AcDbPoint
 10
5141.669547
 20
-1449.542274
 30
0.0
  0
ENDBLK
  5
117
100
AcDbEntity
  8
0
100
AcDbBlockEnd
  0
BLOCK
  5
49
100
AcDbEntity
  8
0
100
AcDbBlockBegin
  2
*D17
 70
     1
 10
0.0
 20
0.0
 30
0.0
  3
*D17
  1

  0
LINE
  5
3E
100
AcDbEntity
  8
0
  6
BYBLOCK
100
AcDbLine
 10
4740.682687
 20
-1449.542274
 30
0.0
 11
4922.524518
 21
-1449.542274
 31
0.0
  0
LINE
  5
3F
100
AcDbEntity
  8
0
  6
BYBLOCK
100
AcDbLine
 10
4745.614614
 20
-1427.722793
 30
0.0
 11
4800.834014
 21
-1275.822925
 31
0.0
  0
ARC
  5
40
100
AcDbEntity
  8
0
  6
BYBLOCK
100
AcDbCircle
 10
4737.682687
 20
-1449.542274
 30
0.0
 40
178.841831
100
AcDbArc
 50
4.806978
 51
65.215551
  0
SOLID
  5
41
100
AcDbEntity
  8
0
  6
BYBLOCK
100
AcDbTrace
 10
4918.393271
 20
-1434.450629
 30
0.0
 11
4913.39767
 21
-1434.660311
 31
0.0
 12
4916.524518
 22
-1449.542274
 32
0.0
 13
4916.524518
 23
-1449.542274
 33
0.0
  0
SOLID
  5
42
100
AcDbEntity
  8
0
  6
BYBLOCK
100
AcDbTrace
 10
4811.702292
 20
-1289.485016
 30
0.0
 11
4813.606108
 21
-1284.861652
 31
0.0
 12
4798.784111
 22
-1281.461887
 32
0.0
 13
4798.784111
 23
-1281.461887
 33
0.0
  0
MTEXT
  5
43
100
AcDbEntity
  8
0
  6
BYBLOCK
 62
     5
100
AcDbMText
 10
4916.609948
 20
-1366.517223
 30
0.0
 40
19.32
 41
0.0
 71
     5
 72
     1
  1
\A1;70,02°
 11
0.42091
 21
-0.907103
 31
0.0
  0
POINT
  5
44
100
AcDbEntity
  8
DEFPOINTS
  6
BYBLOCK
 62
     0
100
AcDbPoint
 10
4860.377294
 20
-1319.425273
 30
0.0
  0
POINT
  5
45
100
AcDbEntity
  8
DEFPOINTS
  6
BYBLOCK
 62
     0
100
AcDbPoint
 10
4744.589662
 20
-1430.542274
 30
0.0
  0
POINT
  5
46
100
AcDbEntity
  8
DEFPOINTS
  6
BYBLOCK
 62
     0
100
AcDbPoint
 10
4737.682687
 20
-1449.542274
 30
0.0
  0
POINT
  5
47
100
AcDbEntity
  8
DEFPOINTS
  6
BYBLOCK
 62
     0
100
AcDbPoint
 10
4716.182687
 20
-1449.542274
 30
0.0
  0
POINT
  5
48
100
AcDbEntity
  8
DEFPOINTS
  6
BYBLOCK
 62
     0
100
AcDbPoint
 10
4737.682687
 20
-1449.542274
 30
0.0
  0
ENDBLK
  5
4A
100
AcDbEntity
  8
0
100
AcDbBlockEnd
  0
BLOCK
  5
108
100
AcDbEntity
  8
0
100
AcDbBlockBegin
  2
*D18
 70
     1
 10
0.0
 20
0.0
 30
0.0
  3
*D18
  1

  0
LINE
  5
FE
100
AcDbEntity
  8
0
  6
BYBLOCK
100
AcDbLine
 10
4757.374522
 20
-1414.178233
 30
0.0
 11
4779.4389
 21
-1385.93683
 31
0.0
  0
ARC
  5
FF
100
AcDbEntity
  8
0
  6
BYBLOCK
100
AcDbCircle
 10
4744.589662
 20
-1430.542274
 30
0.0
 40
50.604902
100
AcDbArc
 50
17.046066
 51
34.954217
  0
SOLID
  5
100
100
AcDbEntity
  8
0
  6
BYBLOCK
100
AcDbTrace
 10
4795.443851
 20
-1415.337411
 30
0.0
 11
4790.499069
 21
-1416.078446
 31
0.0
 12
4795.194565
 22
-1430.542274
 32
0.0
 13
4795.194565
 23
-1430.542274
 33
0.0
  0
SOLID
  5
101
100
AcDbEntity
  8
0
  6
BYBLOCK
100
AcDbTrace
 10
4784.251833
 20
-1403.269794
 30
0.0
 11
4787.880071
 21
-1399.829461
 31
0.0
 12
4775.744954
 22
-1390.664913
 32
0.0
 13
4775.744954
 23
-1390.664913
 33
0.0
  0
MTEXT
  5
102
100
AcDbEntity
  8
0
  6
BYBLOCK
 62
     5
100
AcDbMText
 10
4804.14809
 20
-1401.493506
 30
0.0
 40
19.32
 41
0.0
 71
     5
 72
     1
  1
\A1;52°
 11
0.438373
 21
-0.898793
 31
0.0
  0
POINT
  5
103
100
AcDbEntity
  8
DEFPOINTS
  6
BYBLOCK
 62
     0
100
AcDbPoint
 10
4792.896452
 20
-1415.465462
 30
0.0
  0
POINT
  5
104
100
AcDbEntity
  8
DEFPOINTS
  6
BYBLOCK
 62
     0
100
AcDbPoint
 10
4755.52755
 20
-1416.542274
 30
0.0
  0
POINT
  5
105
100
AcDbEntity
  8
DEFPOINTS
  6
BYBLOCK
 62
     0
100
AcDbPoint
 10
4744.589662
 20
-1430.542274
 30
0.0
  0
POINT
  5
106
100
AcDbEntity
  8
DEFPOINTS
  6
BYBLOCK
 62
     0
100
AcDbPoint
 10
4798.031713
 20
-1430.542274
 30
0.0
  0
POINT
  5
107
100
AcDbEntity
  8
DEFPOINTS
  6
BYBLOCK
 62
     0
100
AcDbPoint
 10
4744.589662
 20
-1430.542274
 30
0.0
  0
ENDBLK
  5
109
100
AcDbEntity
  8
0
100
AcDbBlockEnd
  0
BLOCK
  5
3A
100
AcDbEntity
  8
0
100
AcDbBlockBegin
  2
*D19
 70
     1
 10
0.0
 20
0.0
 30
0.0
  3
*D19
  1

  0
LINE
  5
30
100
AcDbEntity
  8
0
  6
BYBLOCK
100
AcDbLine
 10
4490.207639
 20
-1309.722793
 30
0.0
 11
4500.036979
 21
-1282.683829
 31
0.0
  0
LINE
  5
31
100
AcDbEntity
  8
0
  6
BYBLOCK
100
AcDbLine
 10
4485.041773
 20
-1307.844872
 30
0.0
 11
4494.871113
 21
-1280.805908
 31
0.0
  0
LINE
  5
32
100
AcDbEntity
  8
0
  6
BYBLOCK
100
AcDbLine
 10
4512.08448
 20
-1293.447551
 30
0.0
 11
4526.181886
 21
-1298.57231
 31
0.0
  0
LINE
  5
33
100
AcDbEntity
  8
0
  6
BYBLOCK
100
AcDbLine
 10
4478.723804
 20
-1281.32011
 30
0.0
 11
4464.626398
 21
-1276.195351
 31
0.0
  0
LINE
  5
34
100
AcDbEntity
  8
0
  6
BYBLOCK
100
AcDbLine
 10
4497.987075
 20
-1288.322791
 30
0.0
 11
4492.821209
 21
-1286.44487
 31
0.0
  0
SOLID
  5
35
100
AcDbEntity
  8
0
  6
BYBLOCK
100
AcDbTrace
 10
4512.938607
 20
-1291.097983
 30
0.0
 11
4511.230354
 21
-1295.797118
 31
0.0
 12
4497.987075
 22
-1288.322791
 32
0.0
 13
4497.987075
 23
-1288.322791
 33
0.0
  0
SOLID
  5
36
100
AcDbEntity
  8
0
  6
BYBLOCK
100
AcDbTrace
 10
4479.57793
 20
-1278.970543
 30
0.0
 11
4477.869677
 21
-1283.669678
 31
0.0
 12
4492.821209
 22
-1286.44487
 32
0.0
 13
4492.821209
 23
-1286.44487
 33
0.0
  0
POINT
  5
37
100
AcDbEntity
  8
DEFPOINTS
  6
BYBLOCK
 62
     0
100
AcDbPoint
 10
4489.182687
 20
-1312.542274
 30
0.0
  0
POINT
  5
38
100
AcDbEntity
  8
DEFPOINTS
  6
BYBLOCK
 62
     0
100
AcDbPoint
 10
4484.016821
 20
-1310.664353
 30
0.0
  0
POINT
  5
39
100
AcDbEntity
  8
DEFPOINTS
  6
BYBLOCK
 62
     0
100
AcDbPoint
 10
4492.821209
 20
-1286.44487
 30
0.0
  0
ENDBLK
  5
3B
100
AcDbEntity
  8
0
100
AcDbBlockEnd
  0
BLOCK
  5
2C
100
AcDbEntity
  8
0
100
AcDbBlockBegin
  2
*D20
 70
     1
 10
0.0
 20
0.0
 30
0.0
  3
*D20
  1

  0
LINE
  5
20
100
AcDbEntity
  8
0
  6
BYBLOCK
100
AcDbLine
 10
4435.614614
 20
-1427.722793
 30
0.0
 11
4489.705247
 21
-1278.927986
 31
0.0
  0
LINE
  5
21
100
AcDbEntity
  8
0
  6
BYBLOCK
100
AcDbLine
 10
4440.78048
 20
-1429.600715
 30
0.0
 11
4494.871113
 21
-1280.805908
 31
0.0
  0
LINE
  5
22
100
AcDbEntity
  8
0
  6
BYBLOCK
100
AcDbLine
 10
4473.557938
 20
-1279.442189
 30
0.0
 11
4459.460532
 21
-1274.31743
 31
0.0
  0
LINE
  5
23
100
AcDbEntity
  8
0
  6
BYBLOCK
100
AcDbLine
 10
4506.918615
 20
-1291.569629
 30
0.0
 11
4521.01602
 21
-1296.694389
 31
0.0
  0
LINE
  5
24
100
AcDbEntity
  8
0
  6
BYBLOCK
100
AcDbLine
 10
4487.655343
 20
-1284.566948
 30
0.0
 11
4492.821209
 21
-1286.44487
 31
0.0
  0
SOLID
  5
25
100
AcDbEntity
  8
0
  6
BYBLOCK
100
AcDbTrace
 10
4474.412064
 20
-1277.092621
 30
0.0
 11
4472.703811
 21
-1281.791757
 31
0.0
 12
4487.655343
 22
-1284.566948
 32
0.0
 13
4487.655343
 23
-1284.566948
 33
0.0
  0
SOLID
  5
26
100
AcDbEntity
  8
0
  6
BYBLOCK
100
AcDbTrace
 10
4507.772741
 20
-1289.220062
 30
0.0
 11
4506.064488
 21
-1293.919197
 31
0.0
 12
4492.821209
 22
-1286.44487
 32
0.0
 13
4492.821209
 23
-1286.44487
 33
0.0
  0
MTEXT
  5
27
100
AcDbEntity
  8
0
  6
BYBLOCK
 62
     5
100
AcDbMText
 10
4496.217162
 20
-1269.058936
 30
0.0
 40
19.32
 41
0.0
 71
     5
 72
     1
  1
\A1;2x5,5
 11
0.939827
 21
-0.341651
 31
0.0
  0
POINT
  5
28
100
AcDbEntity
  8
DEFPOINTS
  6
BYBLOCK
 62
     0
100
AcDbPoint
 10
4434.589662
 20
-1430.542274
 30
0.0
  0
POINT
  5
2A
100
AcDbEntity
  8
DEFPOINTS
  6
BYBLOCK
 62
     0
100
AcDbPoint
 10
4439.755528
 20
-1432.420196
 30
0.0
  0
POINT
  5
2B
100
AcDbEntity
  8
DEFPOINTS
  6
BYBLOCK
 62
     0
100
AcDbPoint
 10
4492.821209
 20
-1286.44487
 30
0.0
  0
ENDBLK
  5
2D
100
AcDbEntity
  8
0
100
AcDbBlockEnd
  0
ENDSEC
  0
SECTION
  2
ENTITIES
  0
DIMENSION
  5
1E
100
AcDbEntity
  8
KOTY-UPLNE
100
AcDbDimension
  2
*D20
 10
549.493819
 20
-123.787524
 30
0.0
 11
552.889772
 21
-106.40159
 31
0.0
 12
-3943.32739
 22
1162.657346
 32
0.0
 70
     1
  1
2x5,5
  3
UPLNE
100
AcDbAlignedDimension
 13
491.262272
 23
-267.884928
 33
0.0
 14
496.428138
 24
-269.76285
 34
0.0
1001
ACAD
1000
DSTYLE
1002
{
1070
    40
1040
3.0
1070
   147
1040
2.0
1002
}
  0
DIMENSION
  5
2E
100
AcDbEntity
  8
KOTY-UPLNE
100
AcDbDimension
  2
*D19
 10
549.493819
 20
-123.787524
 30
0.0
 11
552.076752
 21
-124.726484
 31
0.0
 12
-3943.32739
 22
1162.657346
 32
0.0
 70
     1
  1
 
  3
UPLNE
100
AcDbAlignedDimension
 13
545.855297
 23
-149.884928
 33
0.0
 14
540.689431
 24
-148.007007
 34
0.0
1001
ACAD
1000
DSTYLE
1002
{
1070
    40
1040
3.0
1070
   147
1040
2.0
1002
}
  0
DIMENSION
  5
3C
100
AcDbEntity
  8
KOTY-UPLNE
100
AcDbDimension
  2
*D17
 10
794.355297
 20
-286.884928
 30
0.0
 11
973.282557
 21
-203.859877
 31
0.0
 12
-3943.32739
 22
1162.657346
 32
0.0
 70
   130
  1
70,02%%D
  3
UPLNE
100
AcDb2LineAngularDimension
 13
794.355297
 23
-286.884928
 33
0.0
 14
772.855297
 24
-286.884928
 34
0.0
 15
801.262272
 25
-267.884928
 35
0.0
 16
917.049904
 26
-156.767927
 36
0.0
1001
ACAD
1000
DSTYLE
1002
{
1070
    40
1040
3.0
1070
   147
1040
2.0
1002
}
  0
DIMENSION
  5
4B
100
AcDbEntity
  8
KOTY-UPLNE
100
AcDbDimension
  2
*D11
 10
1136.480704
 20
-168.884928
 30
0.0
 11
1120.730704
 21
-125.824432
 31
0.0
 12
-3943.32739
 22
1162.657346
 32
0.0
 70
   128
  3
UPLNE
100
AcDbAlignedDimension
 13
999.855297
 23
-149.884928
 33
0.0
 14
1006.762272
 24
-168.884928
 34
0.0
 50
90.0
100
AcDbRotatedDimension
1001
ACAD
1000
DSTYLE
1002
{
1070
    40
1040
3.0
1070
   147
1040
2.0
1002
}
  0
DIMENSION
  5
5B
100
AcDbEntity
  8
KOTY-UPLNE
100
AcDbDimension
  2
*D2
 10
441.355297
 20
-111.074478
 30
0.0
 11
410.605297
 21
-93.574478
 31
0.0
 12
-3943.32739
 22
1162.657346
 32
0.0
  1
61,5
  3
UPLNE
100
AcDbAlignedDimension
 13
379.855297
 23
-149.884928
 33
0.0
 14
441.355297
 24
-286.884928
 34
0.0
100
AcDbRotatedDimension
1001
ACAD
1000
DSTYLE
1002
{
1070
    40
1040
3.0
1070
   147
1040
2.0
1002
}
  0
DIMENSION
  5
6A
100
AcDbEntity
  8
KOTY-UPLNE
100
AcDbDimension
  2
*D1
 10
379.855297
 20
-111.074478
 30
0.0
 11
307.855297
 21
-95.414478
 31
0.0
 12
-3943.32739
 22
1162.657346
 32
0.0
  3
UPLNE
100
AcDbAlignedDimension
 13
235.855297
 23
-149.884928
 33
0.0
 14
379.855297
 24
-149.884928
 34
0.0
100
AcDbRotatedDimension
1001
ACAD
1000
DSTYLE
1002
{
1070
    40
1040
3.0
1070
   147
1040
2.0
1002
}
  0
DIMENSION
  5
77
100
AcDbEntity
  8
KOTY-UPLNE
100
AcDbDimension
  2
*D0
 10
235.855297
 20
-111.074478
 30
0.0
 11
205.105297
 21
-93.574478
 31
0.0
 12
-3943.32739
 22
1162.657346
 32
0.0
  1
61,5
  3
UPLNE
100
AcDbAlignedDimension
 13
174.355297
 23
-286.884928
 33
0.0
 14
235.855297
 24
-149.884928
 34
0.0
100
AcDbRotatedDimension
1001
ACAD
1000
DSTYLE
1002
{
1070
    40
1040
3.0
1070
   147
1040
2.0
1002
}
  0
LWPOLYLINE
  5
86
100
AcDbEntity
  8
RAMEC
100
AcDbPolyline
 90
        4
 70
     1
 43
0.0
 10
0.0
 20
0.0
 10
0.0
 20
-456.001233
 10
1349.672502
 20
-456.001233
 10
1349.672502
 20
0.0
  0
DIMENSION
  5
88
100
AcDbEntity
  8
KOTY-UPLNE
100
AcDbDimension
  2
*D10
 10
1082.855297
 20
-406.884928
 30
0.0
 11
617.855297
 21
-391.224928
 31
0.0
 12
-3943.32739
 22
1162.657346
 32
0.0
  3
UPLNE
100
AcDbAlignedDimension
 13
152.855297
 23
-286.884928
 33
0.0
 14
1082.855297
 24
-286.884928
 34
0.0
100
AcDbRotatedDimension
1001
ACAD
1000
DSTYLE
1002
{
1070
    40
1040
3.0
1070
   147
1040
2.0
1002
}
  0
LWPOLYLINE
  5
95
100
AcDbEntity
  8
TRAPEZ-VELKY
100
AcDbPolyline
 90
      118
 70
     0
 43
5.0
 10
1110.809981
 20
-275.608428
 10
1106.893108
 20
-280.621848
 42
0.078799
 10
1106.134041
 20
-281.991883
 10
1105.551929
 20
-283.593181
 42
-0.315407
 10
1100.852794
 20
-286.884928
 10
1082.855297
 20
-286.884928
 10
1064.8578
 20
-286.884928
 42
-0.315407
 10
1060.158665
 20
-283.593181
 10
1054.719223
 20
-268.630133
 42
0.078799
 10
1053.960157
 20
-267.260098
 10
1043.9986
 20
-254.509758
 42
-0.078799
 10
1043.239534
 20
-253.139723
 10
1017.97106
 20
-183.630133
 42
0.078799
 10
1017.211994
 20
-182.260098
 10
1007.250438
 20
-169.509758
 42
-0.078799
 10
1006.491372
 20
-168.139723
 10
1001.051929
 20
-153.176675
 42
0.315407
 10
996.352794
 20
-149.884928
 10
960.187926
 20
-149.884928
 42
0.116654
 10
957.947981
 20
-150.414733
 10
952.095243
 20
-153.34745
 42
-0.236526
 10
947.615351
 20
-153.34745
 10
941.762614
 20
-150.414733
 42
0.116654
 10
939.522668
 20
-149.884928
 10
916.187926
 20
-149.884928
 42
0.116654
 10
913.947981
 20
-150.414733
 10
908.095243
 20
-153.34745
 42
-0.236526
 10
903.615351
 20
-153.34745
 10
897.762614
 20
-150.414733
 42
0.116654
 10
895.522668
 20
-149.884928
 10
859.3578
 20
-149.884928
 42
0.315407
 10
854.658665
 20
-153.176675
 10
849.219223
 20
-168.139723
 42
-0.078799
 10
848.460157
 20
-169.509758
 10
838.4986
 20
-182.260098
 42
0.078799
 10
837.739534
 20
-183.630133
 10
812.47106
 20
-253.139723
 42
-0.078799
 10
811.711994
 20
-254.509758
 10
801.750438
 20
-267.260098
 42
0.078799
 10
800.991372
 20
-268.630133
 10
795.551929
 20
-283.593181
 42
-0.315407
 10
790.852794
 20
-286.884928
 10
772.855297
 20
-286.884928
 10
754.8578
 20
-286.884928
 42
-0.315407
 10
750.158665
 20
-283.593181
 10
744.719223
 20
-268.630133
 42
0.078799
 10
743.960157
 20
-267.260098
 10
733.9986
 20
-254.509758
 42
-0.078799
 10
733.239534
 20
-253.139723
 10
707.97106
 20
-183.630133
 42
0.078799
 10
707.211994
 20
-182.260098
 10
697.250438
 20
-169.509758
 42
-0.078799
 10
696.491372
 20
-168.139723
 10
691.051929
 20
-153.176675
 42
0.315407
 10
686.352794
 20
-149.884928
 10
650.187926
 20
-149.884928
 42
0.116654
 10
647.947981
 20
-150.414733
 10
642.095243
 20
-153.34745
 42
-0.236526
 10
637.615352
 20
-153.34745
 10
631.762614
 20
-150.414733
 42
0.116654
 10
629.522668
 20
-149.884928
 10
606.187926
 20
-149.884928
 42
0.116654
 10
603.947981
 20
-150.414733
 10
598.095243
 20
-153.34745
 42
-0.236526
 10
593.615352
 20
-153.34745
 10
587.762614
 20
-150.414733
 42
0.116654
 10
585.522668
 20
-149.884928
 10
549.3578
 20
-149.884928
 42
0.315407
 10
544.658665
 20
-153.176675
 10
539.219223
 20
-168.139723
 42
-0.078799
 10
538.460157
 20
-169.509758
 10
528.4986
 20
-182.260098
 42
0.078799
 10
527.739534
 20
-183.630133
 10
502.47106
 20
-253.139723
 42
-0.078799
 10
501.711994
 20
-254.509758
 10
491.750438
 20
-267.260098
 42
0.078799
 10
490.991372
 20
-268.630133
 10
485.551929
 20
-283.593181
 42
-0.315407
 10
480.852794
 20
-286.884928
 10
462.855297
 20
-286.884928
 10
444.8578
 20
-286.884928
 42
-0.315407
 10
440.158665
 20
-283.593181
 10
434.719223
 20
-268.630133
 42
0.078799
 10
433.960157
 20
-267.260098
 10
423.9986
 20
-254.509758
 42
-0.078799
 10
423.239534
 20
-253.139723
 10
397.97106
 20
-183.630133
 42
0.078799
 10
397.211994
 20
-182.260098
 10
387.250438
 20
-169.509758
 42
-0.078799
 10
386.491372
 20
-168.139723
 10
381.051929
 20
-153.176675
 42
0.315407
 10
376.352794
 20
-149.884928
 10
340.187926
 20
-149.884928
 42
0.116654
 10
337.947981
 20
-150.414733
 10
332.095243
 20
-153.34745
 42
-0.236526
 10
327.615351
 20
-153.34745
 10
321.762614
 20
-150.414733
 42
0.116654
 10
319.522668
 20
-149.884928
 10
296.187926
 20
-149.884928
 42
0.116654
 10
293.947981
 20
-150.414733
 10
288.095243
 20
-153.34745
 42
-0.236526
 10
283.615351
 20
-153.34745
 10
277.762614
 20
-150.414733
 42
0.116654
 10
275.522668
 20
-149.884928
 10
239.3578
 20
-149.884928
 42
0.315407
 10
234.658665
 20
-153.176675
 10
229.219223
 20
-168.139723
 42
-0.078799
 10
228.460157
 20
-169.509758
 10
218.4986
 20
-182.260098
 42
0.078799
 10
217.739534
 20
-183.630133
 10
192.47106
 20
-253.139723
 42
-0.078799
 10
191.711994
 20
-254.509758
 10
181.750438
 20
-267.260098
 42
0.078799
 10
180.991372
 20
-268.630133
 10
175.551929
 20
-283.593181
 42
-0.315407
 10
170.852794
 20
-286.884928
 10
152.855297
 20
-286.884928
 10
147.855297
 20
-286.884928
  0
DIMENSION
  5
97
100
AcDbEntity
  8
KOTY-UPLNE
100
AcDbDimension
  2
*D9
 10
462.855297
 20
-346.884928
 30
0.0
 11
307.855297
 21
-331.224928
 31
0.0
 12
-3943.32739
 22
1162.657346
 32
0.0
  3
UPLNE
100
AcDbAlignedDimension
 13
152.855297
 23
-286.884928
 33
0.0
 14
462.855297
 24
-286.884928
 34
0.0
100
AcDbRotatedDimension
1001
ACAD
1000
DSTYLE
1002
{
1070
    40
1040
3.0
1070
   147
1040
2.0
1002
}
  0
DIMENSION
  5
A4
100
AcDbEntity
  8
KOTY-UPLNE
100
AcDbDimension
  2
*D7
 10
339.005297
 20
-286.884928
 30
0.0
 11
292.089552
 21
-268.464672
 31
0.0
 12
-3943.32739
 22
1162.657346
 32
0.0
 70
   128
  1
18,3
  3
UPLNE
100
AcDbAlignedDimension
 13
320.705297
 23
-149.884928
 33
0.0
 14
339.005297
 24
-149.884928
 34
0.0
100
AcDbRotatedDimension
1001
ACAD
1000
DSTYLE
1002
{
1070
    40
1040
3.0
1070
   147
1040
2.0
1002
}
  0
DIMENSION
  5
B4
100
AcDbEntity
  8
KOTY-UPLNE
100
AcDbDimension
  2
*D8
 10
430.78784
 20
-149.884928
 30
0.0
 11
412.718792
 21
-170.210208
 31
0.0
 12
-3943.32739
 22
1162.657346
 32
0.0
 70
   128
  1
4
  3
UPLNE
100
AcDbAlignedDimension
 13
329.855297
 23
-154.469852
 33
0.0
 14
379.855297
 24
-149.884928
 34
0.0
 50
90.0
100
AcDbRotatedDimension
1001
ACAD
1000
DSTYLE
1002
{
1070
    40
1040
3.0
1070
   147
1040
2.0
1002
}
  0
DIMENSION
  5
C4
100
AcDbEntity
  8
KOTY-UPLNE
100
AcDbDimension
  2
*D4
 10
639.855297
 20
-346.884928
 30
0.0
 11
664.855297
 21
-331.224928
 31
0.0
 12
-3943.32739
 22
1162.657346
 32
0.0
  3
UPLNE
100
AcDbAlignedDimension
 13
689.855297
 23
-149.884928
 33
0.0
 14
639.855297
 24
-154.469852
 34
0.0
100
AcDbRotatedDimension
1001
ACAD
1000
DSTYLE
1002
{
1070
    40
1040
3.0
1070
   147
1040
2.0
1002
}
  0
DIMENSION
  5
D1
100
AcDbEntity
  8
KOTY-UPLNE
100
AcDbDimension
  2
*D6
 10
545.855297
 20
-346.884928
 30
0.0
 11
570.855297
 21
-331.224928
 31
0.0
 12
-3943.32739
 22
1162.657346
 32
0.0
  3
UPLNE
100
AcDbAlignedDimension
 13
595.855297
 23
-154.469852
 33
0.0
 14
545.855297
 24
-149.884928
 34
0.0
100
AcDbRotatedDimension
1001
ACAD
1000
DSTYLE
1002
{
1070
    40
1040
3.0
1070
   147
1040
2.0
1002
}
  0
DIMENSION
  5
DE
100
AcDbEntity
  8
KOTY-UPLNE
100
AcDbDimension
  2
*D5
 10
595.855297
 20
-346.884928
 30
0.0
 11
617.855297
 21
-331.224928
 31
0.0
 12
-3943.32739
 22
1162.657346
 32
0.0
  3
UPLNE
100
AcDbAlignedDimension
 13
639.855297
 23
-154.469852
 33
0.0
 14
595.855297
 24
-154.469852
 34
0.0
100
AcDbRotatedDimension
1001
ACAD
1000
DSTYLE
1002
{
1070
    40
1040
3.0
1070
   147
1040
2.0
1002
}
  0
DIMENSION
  5
EB
100
AcDbEntity
  8
KOTY-UPLNE
100
AcDbDimension
  2
*D3
 10
751.355297
 20
-346.884928
 30
0.0
 11
772.855297
 21
-331.224928
 31
0.0
 12
-3943.32739
 22
1162.657346
 32
0.0
  3
UPLNE
100
AcDbAlignedDimension
 13
794.355297
 23
-286.884928
 33
0.0
 14
751.355297
 24
-286.884928
 34
0.0
100
AcDbRotatedDimension
1001
ACAD
1000
DSTYLE
1002
{
1070
    40
1040
3.0
1070
   147
1040
2.0
1002
}
  0
MTEXT
  5
F8
100
AcDbEntity
  8
POZICE
100
AcDbMText
 10
870.190093
 20
-342.257753
 30
0.0
 40
41.73
 41
1.0
 71
     5
 72
     1
  1
B
  7
STYLE1
  0
MTEXT
  5
FB
100
AcDbEntity
  8
POZICE
100
AcDbMText
 10
774.619286
 20
-162.31225
 30
0.0
 40
41.73
 41
1.0
 71
     5
 72
     1
  1
A
  7
STYLE1
  0
DIMENSION
  5
FC
100
AcDbEntity
  8
KOTY-UPLNE
100
AcDbDimension
  2
*D18
 10
801.262272
 20
-267.884928
 30
0.0
 11
860.8207
 21
-238.83616
 31
0.0
 12
-3943.32739
 22
1162.657346
 32
0.0
 70
     2
  3
UPLNE
100
AcDb2LineAngularDimension
 13
801.262272
 23
-267.884928
 33
0.0
 14
854.704323
 24
-267.884928
 34
0.0
 15
812.20016
 25
-253.884928
 35
0.0
 16
849.569061
 26
-252.808116
 36
0.0
1001
ACAD
1000
DSTYLE
1002
{
1070
    40
1040
3.0
1070
   147
1040
2.0
1002
}
  0
LINE
  5
10A
100
AcDbEntity
  8
KOTY-UPLNE
100
AcDbLine
 10
801.262272
 20
-267.884928
 30
0.0
 11
854.704323
 21
-267.884928
 31
0.0
  0
DIMENSION
  5
10B
100
AcDbEntity
  8
KOTY-UPLNE
100
AcDbDimension
  2
*D16
 10
1198.342157
 20
-286.884928
 30
0.0
 11
1182.682157
 21
-218.384928
 31
0.0
 12
-3943.32739
 22
1162.657346
 32
0.0
  3
UPLNE
100
AcDbAlignedDimension
 13
999.855297
 23
-149.884928
 33
0.0
 14
1061.355297
 24
-286.884928
 34
0.0
 50
90.0
100
AcDbRotatedDimension
1001
ACAD
1000
DSTYLE
1002
{
1070
    40
1040
3.0
1070
   147
1040
2.0
1002
}
  0
DIMENSION
  5
118
100
AcDbEntity
  8
KOTY-UPLNE
100
AcDbDimension
  2
*D15
 10
1136.480704
 20
-253.884928
 30
0.0
 11
1120.820704
 21
-218.384928
 31
0.0
 12
-3943.32739
 22
1162.657346
 32
0.0
  3
UPLNE
100
AcDbAlignedDimension
 13
1017.239842
 23
-182.884928
 33
0.0
 14
1043.050117
 24
-253.884928
 34
0.0
 50
90.0
100
AcDbRotatedDimension
1001
ACAD
1000
DSTYLE
1002
{
1070
    40
1040
3.0
1070
   147
1040
2.0
1002
}
  0
DIMENSION
  5
125
100
AcDbEntity
  8
KOTY-UPLNE
100
AcDbDimension
  2
*D14
 10
1136.480704
 20
-286.884928
 30
0.0
 11
1120.730704
 21
-309.759151
 31
0.0
 12
-3943.32739
 22
1162.657346
 32
0.0
 70
   128
  3
UPLNE
100
AcDbAlignedDimension
 13
1054.448322
 23
-267.884928
 33
0.0
 14
1104.355297
 24
-286.884928
 34
0.0
 50
90.0
100
AcDbRotatedDimension
1001
ACAD
1000
DSTYLE
1002
{
1070
    40
1040
3.0
1070
   147
1040
2.0
1002
}
  0
DIMENSION
  5
135
100
AcDbEntity
  8
KOTY-UPLNE
100
AcDbDimension
  2
*D13
 10
1136.480704
 20
-267.884928
 30
0.0
 11
1155.679087
 21
-260.884928
 31
0.0
 12
-3943.32739
 22
1162.657346
 32
0.0
 70
   128
  3
UPLNE
100
AcDbAlignedDimension
 13
1043.510435
 23
-253.884928
 33
0.0
 14
1054.448322
 24
-267.884928
 34
0.0
 50
90.0
100
AcDbRotatedDimension
1001
ACAD
1000
DSTYLE
1002
{
1070
    40
1040
3.0
1070
   147
1040
2.0
1002
}
  0
DIMENSION
  5
145
100
AcDbEntity
  8
KOTY-UPLNE
100
AcDbDimension
  2
*D12
 10
1136.480704
 20
-182.884928
 30
0.0
 11
1154.968031
 21
-175.884928
 31
0.0
 12
-3943.32739
 22
1162.657346
 32
0.0
 70
   128
  3
UPLNE
100
AcDbAlignedDimension
 13
1006.762272
 23
-168.884928
 33
0.0
 14
1017.70016
 24
-182.884928
 34
0.0
 50
90.0
100
AcDbRotatedDimension
1001
ACAD
1000
DSTYLE
1002
{
1070
    40
1040
3.0
1070
   147
1040
2.0
1002
}
  0
MTEXT
  5
155
100
AcDbEntity
  8
KOTY-UPLNE
  6
BYBLOCK
 62
     5
100
AcDbMText
 10
728.372417
 20
-85.198963
 30
0.0
 40
16.5
 41
0.0
 71
     5
 72
     1
  1
všechna zaoblení R=5
  0
MTEXT
  5
156
100
AcDbEntity
  8
POPIS
100
AcDbMText
 10
661.730741
 20
-42.124031
 30
0.0
 40
40.0
 41
1.0
 71
     5
 72
     1
  1
TR 135/310
  7
STYLE1
  0
ENDSEC
  0
SECTION
  2
OBJECTS
  0
DICTIONARY
  5
1A
100
AcDbDictionary
  3
ACAD_GROUP
350
18
  3
ACAD_MLINESTYLE
350
19
  0
DICTIONARY
  5
18
102
{ACAD_REACTORS
330
1A
102
}
100
AcDbDictionary
  0
DICTIONARY
  5
19
102
{ACAD_REACTORS
330
1A
102
}
100
AcDbDictionary
  3
STANDARD
350
1C
  0
MLINESTYLE
  5
1C
102
{ACAD_REACTORS
330
19
102
}
100
AcDbMlineStyle
  2
STANDARD
 70
     0
  3

 62
   256
 51
90.0
 52
90.0
 71
     2
 49
0.5
 62
   256
  6
BYLAYER
 49
-0.5
 62
   256
  6
BYLAYER
  0
ENDSEC
  0
EOF
