  0
SECTION
  2
HEADER
  9
$ACADVER
  1
AC1014
  9
$ACADMAINTVER
 70
     0
  9
$DWGCODEPAGE
  3
ANSI_1250
  9
$INSBASE
 10
0.0
 20
0.0
 30
0.0
  9
$EXTMIN
 10
0.0
 20
-411.501233
 30
0.0
  9
$EXTMAX
 10
1349.672502
 20
0.0
 30
0.0
  9
$LIMMIN
 10
-1000.0
 20
-1000.0
  9
$LIMMAX
 10
1000.0
 20
1000.0
  9
$ORTHOMODE
 70
     0
  9
$REGENMODE
 70
     1
  9
$FILLMODE
 70
     1
  9
$QTEXTMODE
 70
     0
  9
$MIRRTEXT
 70
     0
  9
$DRAGMODE
 70
     2
  9
$LTSCALE
 40
3.0
  9
$OSMODE
 70
    32
  9
$ATTMODE
 70
     1
  9
$TEXTSIZE
 40
50.0
  9
$TRACEWID
 40
0.05
  9
$TEXTSTYLE
  7
STANDARD
  9
$CLAYER
  8
KOTY-UPLNE
  9
$CELTYPE
  6
BYLAYER
  9
$CECOLOR
 62
   256
  9
$CELTSCALE
 40
1.0
  9
$DELOBJ
 70
     1
  9
$DISPSILH
 70
     0
  9
$DIMSCALE
 40
3.0
  9
$DIMASZ
 40
5.0
  9
$DIMEXO
 40
1.0
  9
$DIMDLI
 40
0.0
  9
$DIMRND
 40
1.0
  9
$DIMDLE
 40
1.0
  9
$DIMEXE
 40
2.0
  9
$DIMTP
 40
0.0
  9
$DIMTM
 40
0.0
  9
$DIMTXT
 40
6.44
  9
$DIMCEN
 40
1.0
  9
$DIMTSZ
 40
0.0
  9
$DIMTOL
 70
     0
  9
$DIMLIM
 70
     0
  9
$DIMTIH
 70
     0
  9
$DIMTOH
 70
     0
  9
$DIMSE1
 70
     0
  9
$DIMSE2
 70
     0
  9
$DIMTAD
 70
     3
  9
$DIMZIN
 70
     0
  9
$DIMBLK
  1

  9
$DIMASO
 70
     1
  9
$DIMSHO
 70
     0
  9
$DIMPOST
  1

  9
$DIMAPOST
  1

  9
$DIMALT
 70
     0
  9
$DIMALTD
 70
     2
  9
$DIMALTF
 40
25.4
  9
$DIMLFAC
 40
1.0
  9
$DIMTOFL
 70
     1
  9
$DIMTVP
 40
0.0
  9
$DIMTIX
 70
     1
  9
$DIMSOXD
 70
     0
  9
$DIMSAH
 70
     0
  9
$DIMBLK1
  1

  9
$DIMBLK2
  1

  9
$DIMSTYLE
  2
UPLNE
  9
$DIMCLRD
 70
   256
  9
$DIMCLRE
 70
   256
  9
$DIMCLRT
 70
     5
  9
$DIMTFAC
 40
1.0
  9
$DIMGAP
 40
2.0
  9
$DIMJUST
 70
     0
  9
$DIMSD1
 70
     0
  9
$DIMSD2
 70
     0
  9
$DIMTOLJ
 70
     1
  9
$DIMTZIN
 70
     0
  9
$DIMALTZ
 70
     0
  9
$DIMALTTZ
 70
     0
  9
$DIMFIT
 70
     5
  9
$DIMUPT
 70
     0
  9
$DIMUNIT
 70
     2
  9
$DIMDEC
 70
     0
  9
$DIMTDEC
 70
     0
  9
$DIMALTU
 70
     2
  9
$DIMALTTD
 70
     2
  9
$DIMTXSTY
  7
STANDARD
  9
$DIMAUNIT
 70
     0
  9
$LUNITS
 70
     2
  9
$LUPREC
 70
     2
  9
$SKETCHINC
 40
0.1
  9
$FILLETRAD
 40
5.0
  9
$AUNITS
 70
     0
  9
$AUPREC
 70
     2
  9
$MENU
  1
acad
  9
$ELEVATION
 40
0.0
  9
$PELEVATION
 40
0.0
  9
$THICKNESS
 40
0.0
  9
$LIMCHECK
 70
     0
  9
$BLIPMODE
 70
     1
  9
$CHAMFERA
 40
0.0
  9
$CHAMFERB
 40
0.0
  9
$CHAMFERC
 40
0.0
  9
$CHAMFERD
 40
0.0
  9
$SKPOLY
 70
     0
  9
$TDCREATE
 40
2448722.252204629
  9
$TDUPDATE
 40
2452465.894663773
  9
$TDINDWG
 40
2.5235446759
  9
$TDUSRTIMER
 40
2.5235446759
  9
$USRTIMER
 70
     1
  9
$ANGBASE
 50
0.0
  9
$ANGDIR
 70
     0
  9
$PDMODE
 70
     0
  9
$PDSIZE
 40
0.0
  9
$PLINEWID
 40
0.0
  9
$COORDS
 70
     2
  9
$SPLFRAME
 70
     0
  9
$SPLINETYPE
 70
     6
  9
$SPLINESEGS
 70
     8
  9
$ATTDIA
 70
     0
  9
$ATTREQ
 70
     1
  9
$HANDLING
 70
     1
  9
$HANDSEED
  5
12F
  9
$SURFTAB1
 70
     6
  9
$SURFTAB2
 70
     6
  9
$SURFTYPE
 70
     6
  9
$SURFU
 70
     6
  9
$SURFV
 70
     6
  9
$UCSNAME
  2

  9
$UCSORG
 10
0.0
 20
0.0
 30
0.0
  9
$UCSXDIR
 10
1.0
 20
0.0
 30
0.0
  9
$UCSYDIR
 10
0.0
 20
1.0
 30
0.0
  9
$PUCSNAME
  2

  9
$PUCSORG
 10
0.0
 20
0.0
 30
0.0
  9
$PUCSXDIR
 10
1.0
 20
0.0
 30
0.0
  9
$PUCSYDIR
 10
0.0
 20
1.0
 30
0.0
  9
$USERI1
 70
     1
  9
$USERI2
 70
     0
  9
$USERI3
 70
     0
  9
$USERI4
 70
     0
  9
$USERI5
 70
     0
  9
$USERR1
 40
0.0
  9
$USERR2
 40
0.0
  9
$USERR3
 40
0.0
  9
$USERR4
 40
0.0
  9
$USERR5
 40
0.0
  9
$WORLDVIEW
 70
     1
  9
$SHADEDGE
 70
     3
  9
$SHADEDIF
 70
    70
  9
$TILEMODE
 70
     1
  9
$MAXACTVP
 70
    16
  9
$PINSBASE
 10
0.0
 20
0.0
 30
0.0
  9
$PLIMCHECK
 70
     0
  9
$PEXTMIN
 10
1.000000E+20
 20
1.000000E+20
 30
1.000000E+20
  9
$PEXTMAX
 10
-1.000000E+20
 20
-1.000000E+20
 30
-1.000000E+20
  9
$PLIMMIN
 10
0.0
 20
0.0
  9
$PLIMMAX
 10
12.0
 20
9.0
  9
$UNITMODE
 70
     0
  9
$VISRETAIN
 70
     0
  9
$PLINEGEN
 70
     0
  9
$PSLTSCALE
 70
     0
  9
$TREEDEPTH
 70
  3020
  9
$PICKSTYLE
 70
     0
  9
$CMLSTYLE
  2
STANDARD
  9
$CMLJUST
 70
     0
  9
$CMLSCALE
 40
1.0
  9
$PROXYGRAPHICS
 70
     1
  9
$MEASUREMENT
 70
     0
  0
ENDSEC
  0
SECTION
  2
CLASSES
  0
CLASS
  1
LWPOLYLINE
  2
AcDbPolyline
  3
"AutoCAD"
 90
        0
280
     0
281
     1
  0
CLASS
  1
DICTIONARYVAR
  2
AcDbDictionaryVar
  3
"AutoCAD"
 90
        0
280
     0
281
     0
  0
ENDSEC
  0
SECTION
  2
TABLES
  0
TABLE
  2
VPORT
  5
12
100
AcDbSymbolTable
 70
     2
  0
VPORT
  5
12E
100
AcDbSymbolTableRecord
100
AcDbViewportTableRecord
  2
*ACTIVE
 70
     0
 10
0.0
 20
0.0
 11
1.0
 21
1.0
 12
705.162157
 22
-177.130738
 13
0.0
 23
0.0
 14
1.0
 24
1.0
 15
600.0
 25
600.0
 16
0.0
 26
0.0
 36
1.0
 17
0.0
 27
0.0
 37
0.0
 40
729.751977
 41
2.224444
 42
50.0
 43
0.0
 44
0.0
 50
0.0
 51
0.0
 71
     0
 72
   100
 73
     1
 74
     0
 75
     0
 76
     0
 77
     0
 78
     0
  0
ENDTAB
  0
TABLE
  2
LTYPE
  5
D
100
AcDbSymbolTable
 70
     1
  0
LTYPE
  5
E
100
AcDbSymbolTableRecord
100
AcDbLinetypeTableRecord
  2
BYBLOCK
 70
     0
  3

 72
    65
 73
     0
 40
0.0
  0
LTYPE
  5
F
100
AcDbSymbolTableRecord
100
AcDbLinetypeTableRecord
  2
BYLAYER
 70
     0
  3

 72
    65
 73
     0
 40
0.0
  0
LTYPE
  5
5
100
AcDbSymbolTableRecord
100
AcDbLinetypeTableRecord
  2
CONTINUOUS
 70
     0
  3
Solid line
 72
    65
 73
     0
 40
0.0
  0
ENDTAB
  0
TABLE
  2
LAYER
  5
A
100
AcDbSymbolTable
 70
     7
  0
LAYER
  5
4
100
AcDbSymbolTableRecord
100
AcDbLayerTableRecord
  2
0
 70
     0
 62
     7
  6
CONTINUOUS
  0
LAYER
  5
1B
100
AcDbSymbolTableRecord
100
AcDbLayerTableRecord
  2
KOTY-UPLNE
 70
     0
 62
     7
  6
CONTINUOUS
  0
LAYER
  5
60
100
AcDbSymbolTableRecord
100
AcDbLayerTableRecord
  2
RAMEC
 70
     0
 62
     5
  6
CONTINUOUS
  0
LAYER
  5
B9
100
AcDbSymbolTableRecord
100
AcDbLayerTableRecord
  2
POZICE
 70
     0
 62
     1
  6
CONTINUOUS
  0
LAYER
  5
5D
100
AcDbSymbolTableRecord
100
AcDbLayerTableRecord
  2
POPIS
 70
     0
 62
     1
  6
CONTINUOUS
  0
LAYER
  5
29
100
AcDbSymbolTableRecord
100
AcDbLayerTableRecord
  2
DEFPOINTS
 70
     0
 62
     7
  6
CONTINUOUS
  0
LAYER
  5
5B
100
AcDbSymbolTableRecord
100
AcDbLayerTableRecord
  2
TRAPEZ-VELKY
 70
     0
 62
     7
  6
CONTINUOUS
  0
ENDTAB
  0
TABLE
  2
STYLE
  5
B
100
AcDbSymbolTable
 70
     2
  0
STYLE
  5
C
100
AcDbSymbolTableRecord
100
AcDbTextStyleTableRecord
  2
STANDARD
 70
     0
 40
0.0
 41
0.9
 50
0.0
 71
     0
 42
50.0
  3
simplex.shx
  4

  0
STYLE
  5
5E
100
AcDbSymbolTableRecord
100
AcDbTextStyleTableRecord
  2
STYLE1
 70
     0
 40
0.0
 41
0.9
 50
0.0
 71
     0
 42
50.0
  3
simplex.shx
  4

  0
ENDTAB
  0
TABLE
  2
VIEW
  5
10
100
AcDbSymbolTable
 70
     0
  0
ENDTAB
  0
TABLE
  2
UCS
  5
11
100
AcDbSymbolTable
 70
     0
  0
ENDTAB
  0
TABLE
  2
APPID
  5
14
100
AcDbSymbolTable
 70
     1
  0
APPID
  5
15
100
AcDbSymbolTableRecord
100
AcDbRegAppTableRecord
  2
ACAD
 70
     0
  0
ENDTAB
  0
TABLE
  2
DIMSTYLE
  5
16
100
AcDbSymbolTable
 70
     1
  0
DIMSTYLE
105
1D
102
{ACAD_REACTORS
330
A9
330
D4
330
9A
330
BA
330
4C
330
8D
330
C7
330
80
330
FD
330
11A
330
10A
330
F0
330
71
330
E1
330
3D
330
2E
330
1E
330
61
102
}
100
AcDbSymbolTableRecord
100
AcDbDimStyleTableRecord
  2
UPLNE
 70
     0
  3

  4

  5

  6

  7

 40
5.0
 41
5.0
 42
1.0
 43
0.0
 44
2.0
 45
1.0
 46
1.0
 47
0.0
 48
0.0
140
6.44
141
1.0
142
0.0
143
25.4
144
1.0
145
0.0
146
1.0
147
1.0
 71
     0
 72
     0
 73
     0
 74
     0
 75
     0
 76
     0
 77
     3
 78
     0
170
     0
171
     2
172
     1
173
     0
174
     1
175
     0
176
   256
177
   256
178
     5
270
     2
271
     0
272
     0
273
     2
274
     2
340
C
275
     0
280
     0
281
     0
282
     0
283
     1
284
     0
285
     0
286
     0
287
     5
288
     0
  0
ENDTAB
  0
TABLE
  2
BLOCK_RECORD
  5
1
100
AcDbSymbolTable
 70
    18
  0
BLOCK_RECORD
  5
2
100
AcDbSymbolTableRecord
100
AcDbBlockTableRecord
  2
*MODEL_SPACE
  0
BLOCK_RECORD
  5
7
100
AcDbSymbolTableRecord
100
AcDbBlockTableRecord
  2
*PAPER_SPACE
  0
BLOCK_RECORD
  5
AA
100
AcDbSymbolTableRecord
100
AcDbBlockTableRecord
  2
*D0
  0
BLOCK_RECORD
  5
D5
100
AcDbSymbolTableRecord
100
AcDbBlockTableRecord
  2
*D1
  0
BLOCK_RECORD
  5
9B
100
AcDbSymbolTableRecord
100
AcDbBlockTableRecord
  2
*D2
  0
BLOCK_RECORD
  5
BB
100
AcDbSymbolTableRecord
100
AcDbBlockTableRecord
  2
*D3
  0
BLOCK_RECORD
  5
4D
100
AcDbSymbolTableRecord
100
AcDbBlockTableRecord
  2
*D4
  0
BLOCK_RECORD
  5
8E
100
AcDbSymbolTableRecord
100
AcDbBlockTableRecord
  2
*D5
  0
BLOCK_RECORD
  5
C8
100
AcDbSymbolTableRecord
100
AcDbBlockTableRecord
  2
*D6
  0
BLOCK_RECORD
  5
81
100
AcDbSymbolTableRecord
100
AcDbBlockTableRecord
  2
*D7
  0
BLOCK_RECORD
  5
FE
100
AcDbSymbolTableRecord
100
AcDbBlockTableRecord
  2
*D8
  0
BLOCK_RECORD
  5
11B
100
AcDbSymbolTableRecord
100
AcDbBlockTableRecord
  2
*D9
  0
BLOCK_RECORD
  5
10B
100
AcDbSymbolTableRecord
100
AcDbBlockTableRecord
  2
*D10
  0
BLOCK_RECORD
  5
F1
100
AcDbSymbolTableRecord
100
AcDbBlockTableRecord
  2
*D11
  0
BLOCK_RECORD
  5
72
100
AcDbSymbolTableRecord
100
AcDbBlockTableRecord
  2
*D12
  0
BLOCK_RECORD
  5
E2
100
AcDbSymbolTableRecord
100
AcDbBlockTableRecord
  2
*D13
  0
BLOCK_RECORD
  5
3E
100
AcDbSymbolTableRecord
100
AcDbBlockTableRecord
  2
*D14
  0
BLOCK_RECORD
  5
2F
100
AcDbSymbolTableRecord
100
AcDbBlockTableRecord
  2
*D15
  0
BLOCK_RECORD
  5
1F
100
AcDbSymbolTableRecord
100
AcDbBlockTableRecord
  2
*D16
  0
BLOCK_RECORD
  5
62
100
AcDbSymbolTableRecord
100
AcDbBlockTableRecord
  2
*D17
  0
ENDTAB
  0
ENDSEC
  0
SECTION
  2
BLOCKS
  0
BLOCK
  5
3
100
AcDbEntity
  8
0
100
AcDbBlockBegin
  2
*MODEL_SPACE
 70
     0
 10
0.0
 20
0.0
 30
0.0
  3
*MODEL_SPACE
  1

  0
ENDBLK
  5
6
100
AcDbEntity
  8
0
100
AcDbBlockEnd
  0
BLOCK
  5
8
100
AcDbEntity
 67
     1
  8
0
100
AcDbBlockBegin
  2
*PAPER_SPACE
 70
     0
 10
0.0
 20
0.0
 30
0.0
  3
*PAPER_SPACE
  1

  0
ENDBLK
  5
9
100
AcDbEntity
 67
     1
  8
0
100
AcDbBlockEnd
  0
BLOCK
  5
B6
100
AcDbEntity
  8
0
100
AcDbBlockBegin
  2
*D0
 70
     1
 10
0.0
 20
0.0
 30
0.0
  3
*D0
  1

  0
LINE
  5
AB
100
AcDbEntity
  8
0
  6
BYBLOCK
100
AcDbLine
 10
2616.182687
 20
-2002.042274
 30
0.0
 11
2616.182687
 21
-1867.731824
 31
0.0
  0
LINE
  5
AC
100
AcDbEntity
  8
0
  6
BYBLOCK
100
AcDbLine
 10
2653.680685
 20
-1909.542274
 30
0.0
 11
2653.680685
 21
-1867.731824
 31
0.0
  0
LINE
  5
AD
100
AcDbEntity
  8
0
  6
BYBLOCK
100
AcDbLine
 10
2601.182687
 20
-1873.731824
 30
0.0
 11
2586.182687
 21
-1873.731824
 31
0.0
  0
LINE
  5
AE
100
AcDbEntity
  8
0
  6
BYBLOCK
100
AcDbLine
 10
2668.680685
 20
-1873.731824
 30
0.0
 11
2683.680685
 21
-1873.731824
 31
0.0
  0
LINE
  5
AF
100
AcDbEntity
  8
0
  6
BYBLOCK
100
AcDbLine
 10
2616.182687
 20
-1873.731824
 30
0.0
 11
2653.680685
 21
-1873.731824
 31
0.0
  0
SOLID
  5
B0
100
AcDbEntity
  8
0
  6
BYBLOCK
100
AcDbTrace
 10
2601.182687
 20
-1871.231824
 30
0.0
 11
2601.182687
 21
-1876.231824
 31
0.0
 12
2616.182687
 22
-1873.731824
 32
0.0
 13
2616.182687
 23
-1873.731824
 33
0.0
  0
SOLID
  5
B1
100
AcDbEntity
  8
0
  6
BYBLOCK
100
AcDbTrace
 10
2668.680685
 20
-1871.231824
 30
0.0
 11
2668.680685
 21
-1876.231824
 31
0.0
 12
2653.680685
 22
-1873.731824
 32
0.0
 13
2653.680685
 23
-1873.731824
 33
0.0
  0
MTEXT
  5
B2
100
AcDbEntity
  8
0
  6
BYBLOCK
 62
     5
100
AcDbMText
 10
2634.931686
 20
-1856.231824
 30
0.0
 40
19.32
 41
0.0
 71
     5
 72
     1
  1
\A1;37,5
  0
POINT
  5
B3
100
AcDbEntity
  8
DEFPOINTS
  6
BYBLOCK
 62
     0
100
AcDbPoint
 10
2616.182687
 20
-2005.042274
 30
0.0
  0
POINT
  5
B4
100
AcDbEntity
  8
DEFPOINTS
  6
BYBLOCK
 62
     0
100
AcDbPoint
 10
2653.680685
 20
-1912.542274
 30
0.0
  0
POINT
  5
B5
100
AcDbEntity
  8
DEFPOINTS
  6
BYBLOCK
 62
     0
100
AcDbPoint
 10
2653.680685
 20
-1873.731824
 30
0.0
  0
ENDBLK
  5
B7
100
AcDbEntity
  8
0
100
AcDbBlockEnd
  0
BLOCK
  5
DF
100
AcDbEntity
  8
0
100
AcDbBlockBegin
  2
*D1
 70
     1
 10
0.0
 20
0.0
 30
0.0
  3
*D1
  1

  0
LINE
  5
D6
100
AcDbEntity
  8
0
  6
BYBLOCK
100
AcDbLine
 10
2653.680685
 20
-1909.542274
 30
0.0
 11
2653.680685
 21
-1867.731824
 31
0.0
  0
LINE
  5
D7
100
AcDbEntity
  8
0
  6
BYBLOCK
100
AcDbLine
 10
2813.680685
 20
-1909.542274
 30
0.0
 11
2813.680685
 21
-1867.731824
 31
0.0
  0
LINE
  5
D8
100
AcDbEntity
  8
0
  6
BYBLOCK
100
AcDbLine
 10
2668.680685
 20
-1873.731824
 30
0.0
 11
2798.680685
 21
-1873.731824
 31
0.0
  0
SOLID
  5
D9
100
AcDbEntity
  8
0
  6
BYBLOCK
100
AcDbTrace
 10
2668.680685
 20
-1871.231824
 30
0.0
 11
2668.680685
 21
-1876.231824
 31
0.0
 12
2653.680685
 22
-1873.731824
 32
0.0
 13
2653.680685
 23
-1873.731824
 33
0.0
  0
SOLID
  5
DA
100
AcDbEntity
  8
0
  6
BYBLOCK
100
AcDbTrace
 10
2798.680685
 20
-1871.231824
 30
0.0
 11
2798.680685
 21
-1876.231824
 31
0.0
 12
2813.680685
 22
-1873.731824
 32
0.0
 13
2813.680685
 23
-1873.731824
 33
0.0
  0
MTEXT
  5
DB
100
AcDbEntity
  8
0
  6
BYBLOCK
 62
     5
100
AcDbMText
 10
2733.680685
 20
-1858.071824
 30
0.0
 40
19.32
 41
0.0
 71
     5
 72
     1
  1
\A1;160
  0
POINT
  5
DC
100
AcDbEntity
  8
DEFPOINTS
  6
BYBLOCK
 62
     0
100
AcDbPoint
 10
2653.680685
 20
-1912.542274
 30
0.0
  0
POINT
  5
DD
100
AcDbEntity
  8
DEFPOINTS
  6
BYBLOCK
 62
     0
100
AcDbPoint
 10
2813.680685
 20
-1912.542274
 30
0.0
  0
POINT
  5
DE
100
AcDbEntity
  8
DEFPOINTS
  6
BYBLOCK
 62
     0
100
AcDbPoint
 10
2813.680685
 20
-1873.731824
 30
0.0
  0
ENDBLK
  5
E0
100
AcDbEntity
  8
0
100
AcDbBlockEnd
  0
BLOCK
  5
A7
100
AcDbEntity
  8
0
100
AcDbBlockBegin
  2
*D2
 70
     1
 10
0.0
 20
0.0
 30
0.0
  3
*D2
  1

  0
LINE
  5
9C
100
AcDbEntity
  8
0
  6
BYBLOCK
100
AcDbLine
 10
2813.680685
 20
-1909.542274
 30
0.0
 11
2813.680685
 21
-1867.731824
 31
0.0
  0
LINE
  5
9D
100
AcDbEntity
  8
0
  6
BYBLOCK
100
AcDbLine
 10
2851.178682
 20
-2002.042274
 30
0.0
 11
2851.178682
 21
-1867.731824
 31
0.0
  0
LINE
  5
9E
100
AcDbEntity
  8
0
  6
BYBLOCK
100
AcDbLine
 10
2798.680685
 20
-1873.731824
 30
0.0
 11
2783.680685
 21
-1873.731824
 31
0.0
  0
LINE
  5
9F
100
AcDbEntity
  8
0
  6
BYBLOCK
100
AcDbLine
 10
2866.178682
 20
-1873.731824
 30
0.0
 11
2881.178682
 21
-1873.731824
 31
0.0
  0
LINE
  5
A0
100
AcDbEntity
  8
0
  6
BYBLOCK
100
AcDbLine
 10
2813.680685
 20
-1873.731824
 30
0.0
 11
2851.178682
 21
-1873.731824
 31
0.0
  0
SOLID
  5
A1
100
AcDbEntity
  8
0
  6
BYBLOCK
100
AcDbTrace
 10
2798.680685
 20
-1871.231824
 30
0.0
 11
2798.680685
 21
-1876.231824
 31
0.0
 12
2813.680685
 22
-1873.731824
 32
0.0
 13
2813.680685
 23
-1873.731824
 33
0.0
  0
SOLID
  5
A2
100
AcDbEntity
  8
0
  6
BYBLOCK
100
AcDbTrace
 10
2866.178682
 20
-1871.231824
 30
0.0
 11
2866.178682
 21
-1876.231824
 31
0.0
 12
2851.178682
 22
-1873.731824
 32
0.0
 13
2851.178682
 23
-1873.731824
 33
0.0
  0
MTEXT
  5
A3
100
AcDbEntity
  8
0
  6
BYBLOCK
 62
     5
100
AcDbMText
 10
2832.429683
 20
-1856.231824
 30
0.0
 40
19.32
 41
0.0
 71
     5
 72
     1
  1
\A1;37,5
  0
POINT
  5
A4
100
AcDbEntity
  8
DEFPOINTS
  6
BYBLOCK
 62
     0
100
AcDbPoint
 10
2813.680685
 20
-1912.542274
 30
0.0
  0
POINT
  5
A5
100
AcDbEntity
  8
DEFPOINTS
  6
BYBLOCK
 62
     0
100
AcDbPoint
 10
2851.178682
 20
-2005.042274
 30
0.0
  0
POINT
  5
A6
100
AcDbEntity
  8
DEFPOINTS
  6
BYBLOCK
 62
     0
100
AcDbPoint
 10
2851.178682
 20
-1873.731824
 30
0.0
  0
ENDBLK
  5
A8
100
AcDbEntity
  8
0
100
AcDbBlockEnd
  0
BLOCK
  5
C5
100
AcDbEntity
  8
0
100
AcDbBlockBegin
  2
*D3
 70
     1
 10
0.0
 20
0.0
 30
0.0
  3
*D3
  1

  0
LINE
  5
BC
100
AcDbEntity
  8
0
  6
BYBLOCK
100
AcDbLine
 10
2596.182687
 20
-2008.042274
 30
0.0
 11
2596.182687
 21
-2071.042274
 31
0.0
  0
LINE
  5
BD
100
AcDbEntity
  8
0
  6
BYBLOCK
100
AcDbLine
 10
2871.178682
 20
-2008.042274
 30
0.0
 11
2871.178682
 21
-2071.042274
 31
0.0
  0
LINE
  5
BE
100
AcDbEntity
  8
0
  6
BYBLOCK
100
AcDbLine
 10
2611.182687
 20
-2065.042274
 30
0.0
 11
2856.178682
 21
-2065.042274
 31
0.0
  0
SOLID
  5
BF
100
AcDbEntity
  8
0
  6
BYBLOCK
100
AcDbTrace
 10
2611.182687
 20
-2062.542274
 30
0.0
 11
2611.182687
 21
-2067.542274
 31
0.0
 12
2596.182687
 22
-2065.042274
 32
0.0
 13
2596.182687
 23
-2065.042274
 33
0.0
  0
SOLID
  5
C0
100
AcDbEntity
  8
0
  6
BYBLOCK
100
AcDbTrace
 10
2856.178682
 20
-2062.542274
 30
0.0
 11
2856.178682
 21
-2067.542274
 31
0.0
 12
2871.178682
 22
-2065.042274
 32
0.0
 13
2871.178682
 23
-2065.042274
 33
0.0
  0
MTEXT
  5
C1
100
AcDbEntity
  8
0
  6
BYBLOCK
 62
     5
100
AcDbMText
 10
2733.680685
 20
-2049.382274
 30
0.0
 40
19.32
 41
0.0
 71
     5
 72
     1
  1
\A1;275
  0
POINT
  5
C2
100
AcDbEntity
  8
DEFPOINTS
  6
BYBLOCK
 62
     0
100
AcDbPoint
 10
2596.182687
 20
-2005.042274
 30
0.0
  0
POINT
  5
C3
100
AcDbEntity
  8
DEFPOINTS
  6
BYBLOCK
 62
     0
100
AcDbPoint
 10
2871.178682
 20
-2005.042274
 30
0.0
  0
POINT
  5
C4
100
AcDbEntity
  8
DEFPOINTS
  6
BYBLOCK
 62
     0
100
AcDbPoint
 10
2871.178682
 20
-2065.042274
 30
0.0
  0
ENDBLK
  5
C6
100
AcDbEntity
  8
0
100
AcDbBlockEnd
  0
BLOCK
  5
57
100
AcDbEntity
  8
0
100
AcDbBlockBegin
  2
*D4
 70
     1
 10
0.0
 20
0.0
 30
0.0
  3
*D4
  1

  0
LINE
  5
4E
100
AcDbEntity
  8
0
  6
BYBLOCK
100
AcDbLine
 10
2596.182687
 20
-2011.042274
 30
0.0
 11
2596.182687
 21
-2131.042274
 31
0.0
  0
LINE
  5
4F
100
AcDbEntity
  8
0
  6
BYBLOCK
100
AcDbLine
 10
3421.170671
 20
-2008.042274
 30
0.0
 11
3421.170671
 21
-2131.042274
 31
0.0
  0
LINE
  5
50
100
AcDbEntity
  8
0
  6
BYBLOCK
100
AcDbLine
 10
2611.182687
 20
-2125.042274
 30
0.0
 11
3406.170671
 21
-2125.042274
 31
0.0
  0
SOLID
  5
51
100
AcDbEntity
  8
0
  6
BYBLOCK
100
AcDbTrace
 10
2611.182687
 20
-2122.542274
 30
0.0
 11
2611.182687
 21
-2127.542274
 31
0.0
 12
2596.182687
 22
-2125.042274
 32
0.0
 13
2596.182687
 23
-2125.042274
 33
0.0
  0
SOLID
  5
52
100
AcDbEntity
  8
0
  6
BYBLOCK
100
AcDbTrace
 10
3406.170671
 20
-2122.542274
 30
0.0
 11
3406.170671
 21
-2127.542274
 31
0.0
 12
3421.170671
 22
-2125.042274
 32
0.0
 13
3421.170671
 23
-2125.042274
 33
0.0
  0
MTEXT
  5
53
100
AcDbEntity
  8
0
  6
BYBLOCK
 62
     5
100
AcDbMText
 10
3008.676679
 20
-2109.382274
 30
0.0
 40
19.32
 41
0.0
 71
     5
 72
     1
  1
\A1;825
  0
POINT
  5
54
100
AcDbEntity
  8
DEFPOINTS
  6
BYBLOCK
 62
     0
100
AcDbPoint
 10
2596.182687
 20
-2008.042274
 30
0.0
  0
POINT
  5
55
100
AcDbEntity
  8
DEFPOINTS
  6
BYBLOCK
 62
     0
100
AcDbPoint
 10
3421.170671
 20
-2005.042274
 30
0.0
  0
POINT
  5
56
100
AcDbEntity
  8
DEFPOINTS
  6
BYBLOCK
 62
     0
100
AcDbPoint
 10
3421.170671
 20
-2125.042274
 30
0.0
  0
ENDBLK
  5
58
100
AcDbEntity
  8
0
100
AcDbBlockEnd
  0
BLOCK
  5
98
100
AcDbEntity
  8
0
100
AcDbBlockBegin
  2
*D5
 70
     1
 10
0.0
 20
0.0
 30
0.0
  3
*D5
  1

  0
LINE
  5
8F
100
AcDbEntity
  8
0
  6
BYBLOCK
100
AcDbLine
 10
2928.676679
 20
-1915.542274
 30
0.0
 11
2928.676679
 21
-2071.042274
 31
0.0
  0
LINE
  5
90
100
AcDbEntity
  8
0
  6
BYBLOCK
100
AcDbLine
 10
2973.676679
 20
-1921.042274
 30
0.0
 11
2973.676679
 21
-2071.042274
 31
0.0
  0
LINE
  5
91
100
AcDbEntity
  8
0
  6
BYBLOCK
100
AcDbLine
 10
2943.676679
 20
-2065.042274
 30
0.0
 11
2958.676679
 21
-2065.042274
 31
0.0
  0
SOLID
  5
92
100
AcDbEntity
  8
0
  6
BYBLOCK
100
AcDbTrace
 10
2943.676679
 20
-2062.542274
 30
0.0
 11
2943.676679
 21
-2067.542274
 31
0.0
 12
2928.676679
 22
-2065.042274
 32
0.0
 13
2928.676679
 23
-2065.042274
 33
0.0
  0
SOLID
  5
93
100
AcDbEntity
  8
0
  6
BYBLOCK
100
AcDbTrace
 10
2958.676679
 20
-2062.542274
 30
0.0
 11
2958.676679
 21
-2067.542274
 31
0.0
 12
2973.676679
 22
-2065.042274
 32
0.0
 13
2973.676679
 23
-2065.042274
 33
0.0
  0
MTEXT
  5
94
100
AcDbEntity
  8
0
  6
BYBLOCK
 62
     5
100
AcDbMText
 10
2951.176679
 20
-2049.382274
 30
0.0
 40
19.32
 41
0.0
 71
     5
 72
     1
  1
\A1;45
  0
POINT
  5
95
100
AcDbEntity
  8
DEFPOINTS
  6
BYBLOCK
 62
     0
100
AcDbPoint
 10
2928.676679
 20
-1912.542274
 30
0.0
  0
POINT
  5
96
100
AcDbEntity
  8
DEFPOINTS
  6
BYBLOCK
 62
     0
100
AcDbPoint
 10
2973.676679
 20
-1918.042274
 30
0.0
  0
POINT
  5
97
100
AcDbEntity
  8
DEFPOINTS
  6
BYBLOCK
 62
     0
100
AcDbPoint
 10
2973.676679
 20
-2065.042274
 30
0.0
  0
ENDBLK
  5
99
100
AcDbEntity
  8
0
100
AcDbBlockEnd
  0
BLOCK
  5
D2
100
AcDbEntity
  8
0
100
AcDbBlockBegin
  2
*D6
 70
     1
 10
0.0
 20
0.0
 30
0.0
  3
*D6
  1

  0
LINE
  5
C9
100
AcDbEntity
  8
0
  6
BYBLOCK
100
AcDbLine
 10
2973.676679
 20
-1921.042274
 30
0.0
 11
2973.676679
 21
-2071.042274
 31
0.0
  0
LINE
  5
CA
100
AcDbEntity
  8
0
  6
BYBLOCK
100
AcDbLine
 10
3043.676679
 20
-1921.042274
 30
0.0
 11
3043.676679
 21
-2071.042274
 31
0.0
  0
LINE
  5
CB
100
AcDbEntity
  8
0
  6
BYBLOCK
100
AcDbLine
 10
2988.676679
 20
-2065.042274
 30
0.0
 11
3028.676679
 21
-2065.042274
 31
0.0
  0
SOLID
  5
CC
100
AcDbEntity
  8
0
  6
BYBLOCK
100
AcDbTrace
 10
2988.676679
 20
-2062.542274
 30
0.0
 11
2988.676679
 21
-2067.542274
 31
0.0
 12
2973.676679
 22
-2065.042274
 32
0.0
 13
2973.676679
 23
-2065.042274
 33
0.0
  0
SOLID
  5
CD
100
AcDbEntity
  8
0
  6
BYBLOCK
100
AcDbTrace
 10
3028.676679
 20
-2062.542274
 30
0.0
 11
3028.676679
 21
-2067.542274
 31
0.0
 12
3043.676679
 22
-2065.042274
 32
0.0
 13
3043.676679
 23
-2065.042274
 33
0.0
  0
MTEXT
  5
CE
100
AcDbEntity
  8
0
  6
BYBLOCK
 62
     5
100
AcDbMText
 10
3008.676679
 20
-2049.382274
 30
0.0
 40
19.32
 41
0.0
 71
     5
 72
     1
  1
\A1;70
  0
POINT
  5
CF
100
AcDbEntity
  8
DEFPOINTS
  6
BYBLOCK
 62
     0
100
AcDbPoint
 10
2973.676679
 20
-1918.042274
 30
0.0
  0
POINT
  5
D0
100
AcDbEntity
  8
DEFPOINTS
  6
BYBLOCK
 62
     0
100
AcDbPoint
 10
3043.676679
 20
-1918.042274
 30
0.0
  0
POINT
  5
D1
100
AcDbEntity
  8
DEFPOINTS
  6
BYBLOCK
 62
     0
100
AcDbPoint
 10
3043.676679
 20
-2065.042274
 30
0.0
  0
ENDBLK
  5
D3
100
AcDbEntity
  8
0
100
AcDbBlockEnd
  0
BLOCK
  5
8B
100
AcDbEntity
  8
0
100
AcDbBlockBegin
  2
*D7
 70
     1
 10
0.0
 20
0.0
 30
0.0
  3
*D7
  1

  0
LINE
  5
82
100
AcDbEntity
  8
0
  6
BYBLOCK
100
AcDbLine
 10
3043.676679
 20
-1921.042274
 30
0.0
 11
3043.676679
 21
-2071.042274
 31
0.0
  0
LINE
  5
83
100
AcDbEntity
  8
0
  6
BYBLOCK
100
AcDbLine
 10
3088.676679
 20
-1915.542274
 30
0.0
 11
3088.676679
 21
-2071.042274
 31
0.0
  0
LINE
  5
84
100
AcDbEntity
  8
0
  6
BYBLOCK
100
AcDbLine
 10
3058.676679
 20
-2065.042274
 30
0.0
 11
3073.676679
 21
-2065.042274
 31
0.0
  0
SOLID
  5
85
100
AcDbEntity
  8
0
  6
BYBLOCK
100
AcDbTrace
 10
3058.676679
 20
-2062.542274
 30
0.0
 11
3058.676679
 21
-2067.542274
 31
0.0
 12
3043.676679
 22
-2065.042274
 32
0.0
 13
3043.676679
 23
-2065.042274
 33
0.0
  0
SOLID
  5
86
100
AcDbEntity
  8
0
  6
BYBLOCK
100
AcDbTrace
 10
3073.676679
 20
-2062.542274
 30
0.0
 11
3073.676679
 21
-2067.542274
 31
0.0
 12
3088.676679
 22
-2065.042274
 32
0.0
 13
3088.676679
 23
-2065.042274
 33
0.0
  0
MTEXT
  5
87
100
AcDbEntity
  8
0
  6
BYBLOCK
 62
     5
100
AcDbMText
 10
3066.176679
 20
-2049.382274
 30
0.0
 40
19.32
 41
0.0
 71
     5
 72
     1
  1
\A1;45
  0
POINT
  5
88
100
AcDbEntity
  8
DEFPOINTS
  6
BYBLOCK
 62
     0
100
AcDbPoint
 10
3043.676679
 20
-1918.042274
 30
0.0
  0
POINT
  5
89
100
AcDbEntity
  8
DEFPOINTS
  6
BYBLOCK
 62
     0
100
AcDbPoint
 10
3088.676679
 20
-1912.542274
 30
0.0
  0
POINT
  5
8A
100
AcDbEntity
  8
DEFPOINTS
  6
BYBLOCK
 62
     0
100
AcDbPoint
 10
3088.676679
 20
-2065.042274
 30
0.0
  0
ENDBLK
  5
8C
100
AcDbEntity
  8
0
100
AcDbBlockEnd
  0
BLOCK
  5
108
100
AcDbEntity
  8
0
100
AcDbBlockBegin
  2
*D8
 70
     1
 10
0.0
 20
0.0
 30
0.0
  3
*D8
  1

  0
LINE
  5
FF
100
AcDbEntity
  8
0
  6
BYBLOCK
100
AcDbLine
 10
3366.672674
 20
-1912.542274
 30
0.0
 11
3486.968436
 21
-1912.542274
 31
0.0
  0
LINE
  5
100
100
AcDbEntity
  8
0
  6
BYBLOCK
100
AcDbLine
 10
3387.882155
 20
-1975.492274
 30
0.0
 11
3486.968436
 21
-1975.492274
 31
0.0
  0
LINE
  5
101
100
AcDbEntity
  8
0
  6
BYBLOCK
100
AcDbLine
 10
3480.968436
 20
-1927.542274
 30
0.0
 11
3480.968436
 21
-1960.492274
 31
0.0
  0
SOLID
  5
102
100
AcDbEntity
  8
0
  6
BYBLOCK
100
AcDbTrace
 10
3478.468436
 20
-1927.542274
 30
0.0
 11
3483.468436
 21
-1927.542274
 31
0.0
 12
3480.968436
 22
-1912.542274
 32
0.0
 13
3480.968436
 23
-1912.542274
 33
0.0
  0
SOLID
  5
103
100
AcDbEntity
  8
0
  6
BYBLOCK
100
AcDbTrace
 10
3478.468436
 20
-1960.492274
 30
0.0
 11
3483.468436
 21
-1960.492274
 31
0.0
 12
3480.968436
 22
-1975.492274
 32
0.0
 13
3480.968436
 23
-1975.492274
 33
0.0
  0
MTEXT
  5
104
100
AcDbEntity
  8
0
  6
BYBLOCK
 62
     5
100
AcDbMText
 10
3465.308436
 20
-1944.017274
 30
0.0
 40
19.32
 41
0.0
 71
     5
 72
     1
  1
\A1;63
 11
0.0
 21
1.0
 31
0.0
  0
POINT
  5
105
100
AcDbEntity
  8
DEFPOINTS
  6
BYBLOCK
 62
     0
100
AcDbPoint
 10
3363.672674
 20
-1912.542274
 30
0.0
  0
POINT
  5
106
100
AcDbEntity
  8
DEFPOINTS
  6
BYBLOCK
 62
     0
100
AcDbPoint
 10
3384.882155
 20
-1975.492274
 30
0.0
  0
POINT
  5
107
100
AcDbEntity
  8
DEFPOINTS
  6
BYBLOCK
 62
     0
100
AcDbPoint
 10
3480.968436
 20
-1975.492274
 30
0.0
  0
ENDBLK
  5
109
100
AcDbEntity
  8
0
100
AcDbBlockEnd
  0
BLOCK
  5
128
100
AcDbEntity
  8
0
100
AcDbBlockBegin
  2
*D9
 70
     1
 10
0.0
 20
0.0
 30
0.0
  3
*D9
  1

  0
LINE
  5
11C
100
AcDbEntity
  8
0
  6
BYBLOCK
100
AcDbLine
 10
3387.882155
 20
-1975.492274
 30
0.0
 11
3486.968436
 21
-1975.492274
 31
0.0
  0
LINE
  5
11D
100
AcDbEntity
  8
0
  6
BYBLOCK
100
AcDbLine
 10
3397.432155
 20
-1985.042274
 30
0.0
 11
3486.968436
 21
-1985.042274
 31
0.0
  0
LINE
  5
11E
100
AcDbEntity
  8
0
  6
BYBLOCK
100
AcDbLine
 10
3480.968436
 20
-1960.492274
 30
0.0
 11
3480.968436
 21
-1945.492274
 31
0.0
  0
LINE
  5
11F
100
AcDbEntity
  8
0
  6
BYBLOCK
100
AcDbLine
 10
3480.968436
 20
-2000.042274
 30
0.0
 11
3480.968436
 21
-2015.042274
 31
0.0
  0
MTEXT
  5
120
100
AcDbEntity
  8
0
  6
BYBLOCK
 62
     5
100
AcDbMText
 10
3500.146998
 20
-1980.267274
 30
0.0
 40
19.32
 41
0.0
 71
     5
 72
     1
  1
\A1;9,5
 11
0.0
 21
1.0
 31
0.0
  0
LINE
  5
121
100
AcDbEntity
  8
0
  6
BYBLOCK
100
AcDbLine
 10
3480.968436
 20
-1975.492274
 30
0.0
 11
3480.968436
 21
-1985.042274
 31
0.0
  0
LINE
  5
122
100
AcDbEntity
  8
0
  6
BYBLOCK
100
AcDbLine
 10
3480.968436
 20
-1975.492274
 30
0.0
 11
3480.968436
 21
-1985.042274
 31
0.0
  0
SOLID
  5
123
100
AcDbEntity
  8
0
  6
BYBLOCK
100
AcDbTrace
 10
3478.468436
 20
-1960.492274
 30
0.0
 11
3483.468436
 21
-1960.492274
 31
0.0
 12
3480.968436
 22
-1975.492274
 32
0.0
 13
3480.968436
 23
-1975.492274
 33
0.0
  0
SOLID
  5
124
100
AcDbEntity
  8
0
  6
BYBLOCK
100
AcDbTrace
 10
3478.468436
 20
-2000.042274
 30
0.0
 11
3483.468436
 21
-2000.042274
 31
0.0
 12
3480.968436
 22
-1985.042274
 32
0.0
 13
3480.968436
 23
-1985.042274
 33
0.0
  0
POINT
  5
125
100
AcDbEntity
  8
DEFPOINTS
  6
BYBLOCK
 62
     0
100
AcDbPoint
 10
3384.882155
 20
-1975.492274
 30
0.0
  0
POINT
  5
126
100
AcDbEntity
  8
DEFPOINTS
  6
BYBLOCK
 62
     0
100
AcDbPoint
 10
3394.432155
 20
-1985.042274
 30
0.0
  0
POINT
  5
127
100
AcDbEntity
  8
DEFPOINTS
  6
BYBLOCK
 62
     0
100
AcDbPoint
 10
3480.968436
 20
-1985.042274
 30
0.0
  0
ENDBLK
  5
129
100
AcDbEntity
  8
0
100
AcDbBlockEnd
  0
BLOCK
  5
118
100
AcDbEntity
  8
0
100
AcDbBlockBegin
  2
*D10
 70
     1
 10
0.0
 20
0.0
 30
0.0
  3
*D10
  1

  0
LINE
  5
10C
100
AcDbEntity
  8
0
  6
BYBLOCK
100
AcDbLine
 10
3397.432155
 20
-1985.042274
 30
0.0
 11
3486.968436
 21
-1985.042274
 31
0.0
  0
LINE
  5
10D
100
AcDbEntity
  8
0
  6
BYBLOCK
100
AcDbLine
 10
3444.170671
 20
-2005.042274
 30
0.0
 11
3486.968436
 21
-2005.042274
 31
0.0
  0
LINE
  5
10E
100
AcDbEntity
  8
0
  6
BYBLOCK
100
AcDbLine
 10
3480.968436
 20
-1970.042274
 30
0.0
 11
3480.968436
 21
-1955.042274
 31
0.0
  0
LINE
  5
10F
100
AcDbEntity
  8
0
  6
BYBLOCK
100
AcDbLine
 10
3480.968436
 20
-2020.042274
 30
0.0
 11
3480.968436
 21
-2035.042274
 31
0.0
  0
MTEXT
  5
110
100
AcDbEntity
  8
0
  6
BYBLOCK
 62
     5
100
AcDbMText
 10
3465.218436
 20
-2031.618785
 30
0.0
 40
19.32
 41
0.0
 71
     5
 72
     1
  1
\A1;20
 11
0.0
 21
1.0
 31
0.0
  0
LINE
  5
111
100
AcDbEntity
  8
0
  6
BYBLOCK
100
AcDbLine
 10
3480.968436
 20
-1985.042274
 30
0.0
 11
3480.968436
 21
-2005.042274
 31
0.0
  0
LINE
  5
112
100
AcDbEntity
  8
0
  6
BYBLOCK
100
AcDbLine
 10
3480.968436
 20
-1985.042274
 30
0.0
 11
3480.968436
 21
-2005.042274
 31
0.0
  0
SOLID
  5
113
100
AcDbEntity
  8
0
  6
BYBLOCK
100
AcDbTrace
 10
3478.468436
 20
-1970.042274
 30
0.0
 11
3483.468436
 21
-1970.042274
 31
0.0
 12
3480.968436
 22
-1985.042274
 32
0.0
 13
3480.968436
 23
-1985.042274
 33
0.0
  0
SOLID
  5
114
100
AcDbEntity
  8
0
  6
BYBLOCK
100
AcDbTrace
 10
3478.468436
 20
-2020.042274
 30
0.0
 11
3483.468436
 21
-2020.042274
 31
0.0
 12
3480.968436
 22
-2005.042274
 32
0.0
 13
3480.968436
 23
-2005.042274
 33
0.0
  0
POINT
  5
115
100
AcDbEntity
  8
DEFPOINTS
  6
BYBLOCK
 62
     0
100
AcDbPoint
 10
3394.432155
 20
-1985.042274
 30
0.0
  0
POINT
  5
116
100
AcDbEntity
  8
DEFPOINTS
  6
BYBLOCK
 62
     0
100
AcDbPoint
 10
3441.170671
 20
-2005.042274
 30
0.0
  0
POINT
  5
117
100
AcDbEntity
  8
DEFPOINTS
  6
BYBLOCK
 62
     0
100
AcDbPoint
 10
3480.968436
 20
-2005.042274
 30
0.0
  0
ENDBLK
  5
119
100
AcDbEntity
  8
0
100
AcDbBlockEnd
  0
BLOCK
  5
FB
100
AcDbEntity
  8
0
100
AcDbBlockBegin
  2
*D11
 70
     1
 10
0.0
 20
0.0
 30
0.0
  3
*D11
  1

  0
LINE
  5
F2
100
AcDbEntity
  8
0
  6
BYBLOCK
100
AcDbLine
 10
3366.672674
 20
-1912.542274
 30
0.0
 11
3562.569614
 21
-1912.542274
 31
0.0
  0
LINE
  5
F3
100
AcDbEntity
  8
0
  6
BYBLOCK
100
AcDbLine
 10
3444.170671
 20
-2005.042274
 30
0.0
 11
3562.569614
 21
-2005.042274
 31
0.0
  0
LINE
  5
F4
100
AcDbEntity
  8
0
  6
BYBLOCK
100
AcDbLine
 10
3556.569614
 20
-1927.542274
 30
0.0
 11
3556.569614
 21
-1990.042274
 31
0.0
  0
SOLID
  5
F5
100
AcDbEntity
  8
0
  6
BYBLOCK
100
AcDbTrace
 10
3554.069614
 20
-1927.542274
 30
0.0
 11
3559.069614
 21
-1927.542274
 31
0.0
 12
3556.569614
 22
-1912.542274
 32
0.0
 13
3556.569614
 23
-1912.542274
 33
0.0
  0
SOLID
  5
F6
100
AcDbEntity
  8
0
  6
BYBLOCK
100
AcDbTrace
 10
3554.069614
 20
-1990.042274
 30
0.0
 11
3559.069614
 21
-1990.042274
 31
0.0
 12
3556.569614
 22
-2005.042274
 32
0.0
 13
3556.569614
 23
-2005.042274
 33
0.0
  0
MTEXT
  5
F7
100
AcDbEntity
  8
0
  6
BYBLOCK
 62
     5
100
AcDbMText
 10
3539.069614
 20
-1958.792274
 30
0.0
 40
19.32
 41
0.0
 71
     5
 72
     1
  1
\A1;92,5
 11
0.0
 21
1.0
 31
0.0
  0
POINT
  5
F8
100
AcDbEntity
  8
DEFPOINTS
  6
BYBLOCK
 62
     0
100
AcDbPoint
 10
3363.672674
 20
-1912.542274
 30
0.0
  0
POINT
  5
F9
100
AcDbEntity
  8
DEFPOINTS
  6
BYBLOCK
 62
     0
100
AcDbPoint
 10
3441.170671
 20
-2005.042274
 30
0.0
  0
POINT
  5
FA
100
AcDbEntity
  8
DEFPOINTS
  6
BYBLOCK
 62
     0
100
AcDbPoint
 10
3556.569614
 20
-2005.042274
 30
0.0
  0
ENDBLK
  5
FC
100
AcDbEntity
  8
0
100
AcDbBlockEnd
  0
BLOCK
  5
7E
100
AcDbEntity
  8
0
100
AcDbBlockBegin
  2
*D12
 70
     1
 10
0.0
 20
0.0
 30
0.0
  3
*D12
  1

  0
LINE
  5
73
100
AcDbEntity
  8
0
  6
BYBLOCK
100
AcDbLine
 10
2908.425069
 20
-1972.649303
 30
0.0
 11
2941.971789
 21
-1873.082226
 31
0.0
  0
LINE
  5
74
100
AcDbEntity
  8
0
  6
BYBLOCK
100
AcDbLine
 10
2902.73827
 20
-1970.733274
 30
0.0
 11
2936.28499
 21
-1871.166197
 31
0.0
  0
LINE
  5
75
100
AcDbEntity
  8
0
  6
BYBLOCK
100
AcDbLine
 10
2954.270903
 20
-1883.55752
 30
0.0
 11
2968.485758
 21
-1888.346872
 31
0.0
  0
LINE
  5
76
100
AcDbEntity
  8
0
  6
BYBLOCK
100
AcDbLine
 10
2920.154394
 20
-1872.062787
 30
0.0
 11
2905.939539
 21
-1867.273435
 31
0.0
  0
LINE
  5
77
100
AcDbEntity
  8
0
  6
BYBLOCK
100
AcDbLine
 10
2940.056048
 20
-1878.768168
 30
0.0
 11
2934.369249
 21
-1876.852139
 31
0.0
  0
SOLID
  5
78
100
AcDbEntity
  8
0
  6
BYBLOCK
100
AcDbTrace
 10
2955.069129
 20
-1881.188377
 30
0.0
 11
2953.472678
 21
-1885.926663
 31
0.0
 12
2940.056048
 22
-1878.768168
 32
0.0
 13
2940.056048
 23
-1878.768168
 33
0.0
  0
SOLID
  5
79
100
AcDbEntity
  8
0
  6
BYBLOCK
100
AcDbTrace
 10
2920.95262
 20
-1869.693644
 30
0.0
 11
2919.356169
 21
-1874.431929
 31
0.0
 12
2934.369249
 22
-1876.852139
 32
0.0
 13
2934.369249
 23
-1876.852139
 33
0.0
  0
MTEXT
  5
7A
100
AcDbEntity
  8
0
  6
BYBLOCK
 62
     5
100
AcDbMText
 10
2942.212732
 20
-1862.969845
 30
0.0
 40
19.32
 41
0.0
 71
     5
 72
     1
  1
\A1;6
 11
0.947657
 21
-0.31929
 31
0.0
  0
POINT
  5
7B
100
AcDbEntity
  8
DEFPOINTS
  6
BYBLOCK
 62
     0
100
AcDbPoint
 10
2907.467199
 20
-1975.492274
 30
0.0
  0
POINT
  5
7C
100
AcDbEntity
  8
DEFPOINTS
  6
BYBLOCK
 62
     0
100
AcDbPoint
 10
2901.7804
 20
-1973.576245
 30
0.0
  0
POINT
  5
7D
100
AcDbEntity
  8
DEFPOINTS
  6
BYBLOCK
 62
     0
100
AcDbPoint
 10
2934.369249
 20
-1876.852139
 30
0.0
  0
ENDBLK
  5
7F
100
AcDbEntity
  8
0
100
AcDbBlockEnd
  0
BLOCK
  5
EE
100
AcDbEntity
  8
0
100
AcDbBlockBegin
  2
*D13
 70
     1
 10
0.0
 20
0.0
 30
0.0
  3
*D13
  1

  0
LINE
  5
E3
100
AcDbEntity
  8
0
  6
BYBLOCK
100
AcDbLine
 10
3366.672674
 20
-1912.542274
 30
0.0
 11
3419.113667
 21
-1912.542274
 31
0.0
  0
LINE
  5
E4
100
AcDbEntity
  8
0
  6
BYBLOCK
100
AcDbLine
 10
3331.734852
 20
-1911.042274
 30
0.0
 11
3407.059049
 21
-1867.553828
 31
0.0
  0
ARC
  5
E5
100
AcDbEntity
  8
0
  6
BYBLOCK
100
AcDbCircle
 10
3329.136776
 20
-1912.542274
 30
0.0
 40
83.976891
100
AcDbArc
 50
10.247859
 51
19.752141
  0
SOLID
  5
E6
100
AcDbEntity
  8
0
  6
BYBLOCK
100
AcDbTrace
 10
3414.264023
 20
-1897.378941
 30
0.0
 11
3409.284003
 21
-1897.825492
 31
0.0
 12
3413.113667
 22
-1912.542274
 32
0.0
 13
3413.113667
 23
-1912.542274
 33
0.0
  0
SOLID
  5
E7
100
AcDbEntity
  8
0
  6
BYBLOCK
100
AcDbTrace
 10
3405.904702
 20
-1885.213768
 30
0.0
 11
3410.440801
 21
-1883.110483
 31
0.0
 12
3401.862897
 22
-1870.553828
 32
0.0
 13
3401.862897
 23
-1870.553828
 33
0.0
  0
MTEXT
  5
E8
100
AcDbEntity
  8
0
  6
BYBLOCK
 62
     5
100
AcDbMText
 10
3425.378622
 20
-1886.754349
 30
0.0
 40
19.32
 41
0.0
 71
     5
 72
     1
  1
\A1;30°
 11
0.258819
 21
-0.965926
 31
0.0
  0
POINT
  5
E9
100
AcDbEntity
  8
DEFPOINTS
  6
BYBLOCK
 62
     0
100
AcDbPoint
 10
3411.837869
 20
-1897.95984
 30
0.0
  0
POINT
  5
EA
100
AcDbEntity
  8
DEFPOINTS
  6
BYBLOCK
 62
     0
100
AcDbPoint
 10
3329.136776
 20
-1912.542274
 30
0.0
  0
POINT
  5
EB
100
AcDbEntity
  8
DEFPOINTS
  6
BYBLOCK
 62
     0
100
AcDbPoint
 10
3363.672674
 20
-1912.542274
 30
0.0
  0
POINT
  5
EC
100
AcDbEntity
  8
DEFPOINTS
  6
BYBLOCK
 62
     0
100
AcDbPoint
 10
3329.136776
 20
-1912.542274
 30
0.0
  0
POINT
  5
ED
100
AcDbEntity
  8
DEFPOINTS
  6
BYBLOCK
 62
     0
100
AcDbPoint
 10
3320.422674
 20
-1917.573363
 30
0.0
  0
ENDBLK
  5
EF
100
AcDbEntity
  8
0
100
AcDbBlockEnd
  0
BLOCK
  5
4A
100
AcDbEntity
  8
0
100
AcDbBlockBegin
  2
*D14
 70
     1
 10
0.0
 20
0.0
 30
0.0
  3
*D14
  1

  0
LINE
  5
3F
100
AcDbEntity
  8
0
  6
BYBLOCK
100
AcDbLine
 10
3169.174677
 20
-2005.042274
 30
0.0
 11
3317.457245
 21
-2005.042274
 31
0.0
  0
LINE
  5
40
100
AcDbEntity
  8
0
  6
BYBLOCK
100
AcDbLine
 10
3173.871064
 20
-1982.199303
 30
0.0
 11
3214.477707
 21
-1861.678287
 31
0.0
  0
ARC
  5
41
100
AcDbEntity
  8
0
  6
BYBLOCK
100
AcDbCircle
 10
3166.174677
 20
-2005.042274
 30
0.0
 40
145.282568
100
AcDbArc
 50
5.918252
 51
65.461748
  0
SOLID
  5
42
100
AcDbEntity
  8
0
  6
BYBLOCK
100
AcDbTrace
 10
3313.179559
 20
-1989.933216
 30
0.0
 11
3308.186226
 21
-1990.191334
 31
0.0
 12
3311.457245
 22
-2005.042274
 32
0.0
 13
3311.457245
 23
-2005.042274
 33
0.0
  0
SOLID
  5
43
100
AcDbEntity
  8
0
  6
BYBLOCK
100
AcDbTrace
 10
3225.59116
 20
-1875.205792
 30
0.0
 11
3227.430089
 21
-1870.55624
 31
0.0
 12
3212.561966
 22
-1867.364229
 32
0.0
 13
3212.561966
 23
-1867.364229
 33
0.0
  0
MTEXT
  5
44
100
AcDbEntity
  8
0
  6
BYBLOCK
 62
     5
100
AcDbMText
 10
3328.601519
 20
-1965.982998
 30
0.0
 40
19.32
 41
0.0
 71
     5
 72
     1
  1
\A1;71,38°
 11
0.233808
 21
-0.972283
 31
0.0
  0
POINT
  5
45
100
AcDbEntity
  8
DEFPOINTS
  6
BYBLOCK
 62
     0
100
AcDbPoint
 10
3264.164023
 20
-1897.780386
 30
0.0
  0
POINT
  5
46
100
AcDbEntity
  8
DEFPOINTS
  6
BYBLOCK
 62
     0
100
AcDbPoint
 10
3172.913193
 20
-1985.042274
 30
0.0
  0
POINT
  5
47
100
AcDbEntity
  8
DEFPOINTS
  6
BYBLOCK
 62
     0
100
AcDbPoint
 10
3166.174677
 20
-2005.042274
 30
0.0
  0
POINT
  5
48
100
AcDbEntity
  8
DEFPOINTS
  6
BYBLOCK
 62
     0
100
AcDbPoint
 10
3146.174677
 20
-2005.042274
 30
0.0
  0
POINT
  5
49
100
AcDbEntity
  8
DEFPOINTS
  6
BYBLOCK
 62
     0
100
AcDbPoint
 10
3166.174677
 20
-2005.042274
 30
0.0
  0
ENDBLK
  5
4B
100
AcDbEntity
  8
0
100
AcDbBlockEnd
  0
BLOCK
  5
3A
100
AcDbEntity
  8
0
100
AcDbBlockBegin
  2
*D15
 70
     1
 10
0.0
 20
0.0
 30
0.0
  3
*D15
  1

  0
LINE
  5
30
100
AcDbEntity
  8
0
  6
BYBLOCK
100
AcDbLine
 10
3184.584514
 20
-1973.370954
 30
0.0
 11
3221.507857
 21
-1936.447611
 31
0.0
  0
ARC
  5
31
100
AcDbEntity
  8
0
  6
BYBLOCK
100
AcDbCircle
 10
3172.913193
 20
-1985.042274
 30
0.0
 40
62.723232
100
AcDbArc
 50
13.73491
 51
31.26509
  0
SOLID
  5
32
100
AcDbEntity
  8
0
  6
BYBLOCK
100
AcDbTrace
 10
3236.324895
 20
-1969.850961
 30
0.0
 11
3231.360768
 21
-1970.448825
 31
0.0
 12
3235.636426
 22
-1985.042274
 32
0.0
 13
3235.636426
 23
-1985.042274
 33
0.0
  0
SOLID
  5
33
100
AcDbEntity
  8
0
  6
BYBLOCK
100
AcDbTrace
 10
3224.560997
 20
-1954.032724
 30
0.0
 11
3228.493919
 21
-1950.945311
 31
0.0
 12
3217.265216
 22
-1940.690251
 32
0.0
 13
3217.265216
 23
-1940.690251
 33
0.0
  0
MTEXT
  5
34
100
AcDbEntity
  8
0
  6
BYBLOCK
 62
     5
100
AcDbMText
 10
3245.329857
 20
-1955.04631
 30
0.0
 40
19.32
 41
0.0
 71
     5
 72
     1
  1
\A1;45°
 11
0.382683
 21
-0.92388
 31
0.0
  0
POINT
  5
35
100
AcDbEntity
  8
DEFPOINTS
  6
BYBLOCK
 62
     0
100
AcDbPoint
 10
3233.499183
 20
-1968.808307
 30
0.0
  0
POINT
  5
36
100
AcDbEntity
  8
DEFPOINTS
  6
BYBLOCK
 62
     0
100
AcDbPoint
 10
3172.913193
 20
-1985.042274
 30
0.0
  0
POINT
  5
37
100
AcDbEntity
  8
DEFPOINTS
  6
BYBLOCK
 62
     0
100
AcDbPoint
 10
3182.463193
 20
-1975.492274
 30
0.0
  0
POINT
  5
38
100
AcDbEntity
  8
DEFPOINTS
  6
BYBLOCK
 62
     0
100
AcDbPoint
 10
3172.913193
 20
-1985.042274
 30
0.0
  0
POINT
  5
39
100
AcDbEntity
  8
DEFPOINTS
  6
BYBLOCK
 62
     0
100
AcDbPoint
 10
3238.402425
 20
-1985.042274
 30
0.0
  0
ENDBLK
  5
3B
100
AcDbEntity
  8
0
100
AcDbBlockEnd
  0
BLOCK
  5
2C
100
AcDbEntity
  8
0
100
AcDbBlockBegin
  2
*D16
 70
     1
 10
0.0
 20
0.0
 30
0.0
  3
*D16
  1

  0
LINE
  5
20
100
AcDbEntity
  8
0
  6
BYBLOCK
100
AcDbLine
 10
3126.174677
 20
-2008.042274
 30
0.0
 11
3126.174677
 21
-2071.042274
 31
0.0
  0
LINE
  5
21
100
AcDbEntity
  8
0
  6
BYBLOCK
100
AcDbLine
 10
3166.174677
 20
-2008.042274
 30
0.0
 11
3166.174677
 21
-2071.042274
 31
0.0
  0
LINE
  5
22
100
AcDbEntity
  8
0
  6
BYBLOCK
100
AcDbLine
 10
3111.174677
 20
-2065.042274
 30
0.0
 11
3096.174677
 21
-2065.042274
 31
0.0
  0
LINE
  5
23
100
AcDbEntity
  8
0
  6
BYBLOCK
100
AcDbLine
 10
3181.174677
 20
-2065.042274
 30
0.0
 11
3196.174677
 21
-2065.042274
 31
0.0
  0
LINE
  5
24
100
AcDbEntity
  8
0
  6
BYBLOCK
100
AcDbLine
 10
3126.174677
 20
-2065.042274
 30
0.0
 11
3166.174677
 21
-2065.042274
 31
0.0
  0
SOLID
  5
25
100
AcDbEntity
  8
0
  6
BYBLOCK
100
AcDbTrace
 10
3111.174677
 20
-2062.542274
 30
0.0
 11
3111.174677
 21
-2067.542274
 31
0.0
 12
3126.174677
 22
-2065.042274
 32
0.0
 13
3126.174677
 23
-2065.042274
 33
0.0
  0
SOLID
  5
26
100
AcDbEntity
  8
0
  6
BYBLOCK
100
AcDbTrace
 10
3181.174677
 20
-2062.542274
 30
0.0
 11
3181.174677
 21
-2067.542274
 31
0.0
 12
3166.174677
 22
-2065.042274
 32
0.0
 13
3166.174677
 23
-2065.042274
 33
0.0
  0
MTEXT
  5
27
100
AcDbEntity
  8
0
  6
BYBLOCK
 62
     5
100
AcDbMText
 10
3146.174677
 20
-2049.382274
 30
0.0
 40
19.32
 41
0.0
 71
     5
 72
     1
  1
\A1;40
  0
POINT
  5
28
100
AcDbEntity
  8
DEFPOINTS
  6
BYBLOCK
 62
     0
100
AcDbPoint
 10
3126.174677
 20
-2005.042274
 30
0.0
  0
POINT
  5
2A
100
AcDbEntity
  8
DEFPOINTS
  6
BYBLOCK
 62
     0
100
AcDbPoint
 10
3166.174677
 20
-2005.042274
 30
0.0
  0
POINT
  5
2B
100
AcDbEntity
  8
DEFPOINTS
  6
BYBLOCK
 62
     0
100
AcDbPoint
 10
3166.174677
 20
-2065.042274
 30
0.0
  0
ENDBLK
  5
2D
100
AcDbEntity
  8
0
100
AcDbBlockEnd
  0
BLOCK
  5
6F
100
AcDbEntity
  8
0
100
AcDbBlockBegin
  2
*D17
 70
     1
 10
0.0
 20
0.0
 30
0.0
  3
*D17
  1

  0
LINE
  5
63
100
AcDbEntity
  8
0
  6
BYBLOCK
100
AcDbLine
 10
2816.680685
 20
-1912.542274
 30
0.0
 11
2896.511687
 21
-1912.542274
 31
0.0
  0
LINE
  5
64
100
AcDbEntity
  8
0
  6
BYBLOCK
100
AcDbLine
 10
2771.680685
 20
-1918.042274
 30
0.0
 11
2896.511687
 21
-1918.042274
 31
0.0
  0
LINE
  5
65
100
AcDbEntity
  8
0
  6
BYBLOCK
100
AcDbLine
 10
2890.511687
 20
-1897.542274
 30
0.0
 11
2890.511687
 21
-1882.542274
 31
0.0
  0
LINE
  5
66
100
AcDbEntity
  8
0
  6
BYBLOCK
100
AcDbLine
 10
2890.511687
 20
-1933.042274
 30
0.0
 11
2890.511687
 21
-1948.042274
 31
0.0
  0
MTEXT
  5
67
100
AcDbEntity
  8
0
  6
BYBLOCK
 62
     5
100
AcDbMText
 10
2876.132093
 20
-1942.490031
 30
0.0
 40
19.32
 41
0.0
 71
     5
 72
     1
  1
\A1;5,5
 11
0.0
 21
1.0
 31
0.0
  0
LINE
  5
68
100
AcDbEntity
  8
0
  6
BYBLOCK
100
AcDbLine
 10
2890.511687
 20
-1912.542274
 30
0.0
 11
2890.511687
 21
-1918.042274
 31
0.0
  0
LINE
  5
69
100
AcDbEntity
  8
0
  6
BYBLOCK
100
AcDbLine
 10
2890.511687
 20
-1912.542274
 30
0.0
 11
2890.511687
 21
-1918.042274
 31
0.0
  0
SOLID
  5
6A
100
AcDbEntity
  8
0
  6
BYBLOCK
100
AcDbTrace
 10
2888.011687
 20
-1897.542274
 30
0.0
 11
2893.011687
 21
-1897.542274
 31
0.0
 12
2890.511687
 22
-1912.542274
 32
0.0
 13
2890.511687
 23
-1912.542274
 33
0.0
  0
SOLID
  5
6B
100
AcDbEntity
  8
0
  6
BYBLOCK
100
AcDbTrace
 10
2888.011687
 20
-1933.042274
 30
0.0
 11
2893.011687
 21
-1933.042274
 31
0.0
 12
2890.511687
 22
-1918.042274
 32
0.0
 13
2890.511687
 23
-1918.042274
 33
0.0
  0
POINT
  5
6C
100
AcDbEntity
  8
DEFPOINTS
  6
BYBLOCK
 62
     0
100
AcDbPoint
 10
2813.680685
 20
-1912.542274
 30
0.0
  0
POINT
  5
6D
100
AcDbEntity
  8
DEFPOINTS
  6
BYBLOCK
 62
     0
100
AcDbPoint
 10
2768.680685
 20
-1918.042274
 30
0.0
  0
POINT
  5
6E
100
AcDbEntity
  8
DEFPOINTS
  6
BYBLOCK
 62
     0
100
AcDbPoint
 10
2890.511687
 20
-1918.042274
 30
0.0
  0
ENDBLK
  5
70
100
AcDbEntity
  8
0
100
AcDbBlockEnd
  0
ENDSEC
  0
SECTION
  2
ENTITIES
  0
DIMENSION
  5
1E
100
AcDbEntity
  8
KOTY-UPLNE
100
AcDbDimension
  2
*D16
 10
722.847287
 20
-302.384928
 30
0.0
 11
702.847287
 21
-286.724928
 31
0.0
 12
-2443.32739
 22
1762.657346
 32
0.0
  3
UPLNE
100
AcDbAlignedDimension
 13
682.847287
 23
-242.384928
 33
0.0
 14
722.847287
 24
-242.384928
 34
0.0
100
AcDbRotatedDimension
1001
ACAD
1000
DSTYLE
1002
{
1070
    40
1040
3.0
1070
   147
1040
2.0
1002
}
  0
DIMENSION
  5
2E
100
AcDbEntity
  8
KOTY-UPLNE
100
AcDbDimension
  2
*D15
 10
795.075035
 20
-222.384928
 30
0.0
 11
802.002467
 21
-192.388964
 31
0.0
 12
-2443.32739
 22
1762.657346
 32
0.0
 70
     2
  3
UPLNE
100
AcDb2LineAngularDimension
 13
739.135803
 23
-212.834928
 33
0.0
 14
729.585803
 24
-222.384928
 34
0.0
 15
729.585803
 25
-222.384928
 35
0.0
 16
790.171793
 26
-206.150961
 36
0.0
1001
ACAD
1000
DSTYLE
1002
{
1070
    40
1040
3.0
1070
   147
1040
2.0
1002
}
  0
LINE
  5
3C
100
AcDbEntity
  8
KOTY-UPLNE
100
AcDbLine
 10
729.585803
 20
-222.384928
 30
0.0
 11
795.075035
 21
-222.384928
 31
0.0
  0
DIMENSION
  5
3D
100
AcDbEntity
  8
KOTY-UPLNE
100
AcDbDimension
  2
*D14
 10
722.847287
 20
-242.384928
 30
0.0
 11
885.274129
 21
-203.325652
 31
0.0
 12
-2443.32739
 22
1762.657346
 32
0.0
 70
   130
  1
71,38%%D
  3
UPLNE
100
AcDb2LineAngularDimension
 13
722.847287
 23
-242.384928
 33
0.0
 14
702.847287
 24
-242.384928
 34
0.0
 15
729.585803
 25
-222.384928
 35
0.0
 16
820.836633
 26
-135.12304
 36
0.0
1001
ACAD
1000
DSTYLE
1002
{
1070
    40
1040
3.0
1070
   147
1040
2.0
1002
}
  0
DIMENSION
  5
4C
100
AcDbEntity
  8
KOTY-UPLNE
100
AcDbDimension
  2
*D4
 10
977.843281
 20
-362.384928
 30
0.0
 11
565.349289
 21
-346.724928
 31
0.0
 12
-2443.32739
 22
1762.657346
 32
0.0
  3
UPLNE
100
AcDbAlignedDimension
 13
152.855297
 23
-245.384928
 33
0.0
 14
977.843281
 24
-242.384928
 34
0.0
100
AcDbRotatedDimension
1001
ACAD
1000
DSTYLE
1002
{
1070
    40
1040
3.0
1070
   147
1040
2.0
1002
}
  0
MTEXT
  5
59
100
AcDbEntity
  8
KOTY-UPLNE
  6
BYBLOCK
 62
     5
100
AcDbMText
 10
669.486575
 20
-85.198963
 30
0.0
 40
16.5
 41
0.0
 71
     5
 72
     1
  1
všechna zaoblení R=3,5
  0
LWPOLYLINE
  5
5A
100
AcDbEntity
  8
TRAPEZ-VELKY
100
AcDbPolyline
 90
       92
 70
     0
 43
5.0
 10
1001.354048
 20
-231.964928
 10
998.990025
 20
-238.981379
 42
-0.321931
 10
994.25174
 20
-242.384928
 10
977.843281
 20
-242.384928
 10
961.434823
 20
-242.384928
 42
-0.321931
 10
956.696538
 20
-238.981379
 10
951.478915
 20
-223.49541
 42
0.115616
 10
950.276164
 20
-221.556327
 10
942.383366
 20
-213.663529
 42
-0.115616
 10
941.180615
 20
-211.724446
 10
921.492028
 20
-153.288478
 42
0.321931
 10
916.753743
 20
-149.884928
 10
887.149132
 20
-149.884928
 42
0.131652
 10
884.649132
 20
-150.554801
 10
877.845284
 20
-154.483004
 42
-0.267949
 10
872.845284
 20
-154.483004
 10
866.041436
 20
-150.554801
 42
0.131652
 10
863.541436
 20
-149.884928
 10
817.149132
 20
-149.884928
 42
0.131652
 10
814.649132
 20
-150.554801
 10
807.845284
 20
-154.483004
 42
-0.267949
 10
802.845284
 20
-154.483004
 10
796.041436
 20
-150.554801
 42
0.131652
 10
793.541436
 20
-149.884928
 10
763.936825
 20
-149.884928
 42
0.321931
 10
759.19854
 20
-153.288478
 10
739.509953
 20
-211.724446
 42
-0.115616
 10
738.307202
 20
-213.663529
 10
730.414404
 20
-221.556327
 42
0.115616
 10
729.211653
 20
-223.49541
 10
723.99403
 20
-238.981379
 42
-0.321931
 10
719.255745
 20
-242.384928
 10
702.847287
 20
-242.384928
 10
686.438828
 20
-242.384928
 42
-0.321931
 10
681.700543
 20
-238.981379
 10
676.48292
 20
-223.49541
 42
0.115616
 10
675.280169
 20
-221.556327
 10
667.387371
 20
-213.663529
 42
-0.115616
 10
666.18462
 20
-211.724446
 10
646.496033
 20
-153.288478
 42
0.321931
 10
641.757748
 20
-149.884928
 10
612.153137
 20
-149.884928
 42
0.131652
 10
609.653137
 20
-150.554801
 10
602.849289
 20
-154.483004
 42
-0.267949
 10
597.849289
 20
-154.483004
 10
591.045442
 20
-150.554801
 42
0.131652
 10
588.545442
 20
-149.884928
 10
542.153137
 20
-149.884928
 42
0.131652
 10
539.653137
 20
-150.554801
 10
532.849289
 20
-154.483004
 42
-0.267949
 10
527.849289
 20
-154.483004
 10
521.045442
 20
-150.554801
 42
0.131652
 10
518.545442
 20
-149.884928
 10
488.940831
 20
-149.884928
 42
0.321931
 10
484.202546
 20
-153.288478
 10
464.513959
 20
-211.724446
 42
-0.115616
 10
463.311207
 20
-213.663529
 10
455.418409
 20
-221.556327
 42
0.115616
 10
454.215658
 20
-223.49541
 10
448.998036
 20
-238.981379
 42
-0.321931
 10
444.25975
 20
-242.384928
 10
427.851292
 20
-242.384928
 10
411.442833
 20
-242.384928
 42
-0.321931
 10
406.704548
 20
-238.981379
 10
401.486925
 20
-223.49541
 42
0.115616
 10
400.284174
 20
-221.556327
 10
392.391376
 20
-213.663529
 42
-0.115616
 10
391.188625
 20
-211.724446
 10
371.500038
 20
-153.288478
 42
0.321931
 10
366.761753
 20
-149.884928
 10
337.157142
 20
-149.884928
 42
0.131652
 10
334.657142
 20
-150.554801
 10
327.853295
 20
-154.483004
 42
-0.267949
 10
322.853295
 20
-154.483004
 10
316.049447
 20
-150.554801
 42
0.131652
 10
313.549447
 20
-149.884928
 10
267.157142
 20
-149.884928
 42
0.131652
 10
264.657142
 20
-150.554801
 10
257.853294
 20
-154.483004
 42
-0.267949
 10
252.853294
 20
-154.483004
 10
246.049447
 20
-150.554801
 42
0.131652
 10
243.549447
 20
-149.884928
 10
213.944836
 20
-149.884928
 42
0.321931
 10
209.206551
 20
-153.288478
 10
189.517964
 20
-211.724446
 42
-0.115616
 10
188.315213
 20
-213.663529
 10
180.422415
 20
-221.556327
 42
0.115616
 10
179.219664
 20
-223.49541
 10
174.002041
 20
-238.981379
 42
-0.321931
 10
169.263756
 20
-242.384928
 10
152.855297
 20
-242.384928
 10
147.855297
 20
-242.384928
  0
MTEXT
  5
5C
100
AcDbEntity
  8
POPIS
100
AcDbMText
 10
661.730741
 20
-42.124031
 30
0.0
 40
40.0
 41
1.0
 71
     5
 72
     1
  1
TR 92/275
  7
STYLE1
  0
LWPOLYLINE
  5
5F
100
AcDbEntity
  8
RAMEC
100
AcDbPolyline
 90
        4
 70
     1
 43
0.0
 10
0.0
 20
0.0
 10
0.0
 20
-411.501233
 10
1349.672502
 20
-411.501233
 10
1349.672502
 20
0.0
  0
DIMENSION
  5
61
100
AcDbEntity
  8
KOTY-UPLNE
100
AcDbDimension
  2
*D17
 10
447.184297
 20
-155.384928
 30
0.0
 11
432.804703
 21
-179.832685
 31
0.0
 12
-2443.32739
 22
1762.657346
 32
0.0
 70
   128
  1
5,5
  3
UPLNE
100
AcDbAlignedDimension
 13
370.353295
 23
-149.884928
 33
0.0
 14
325.353295
 24
-155.384928
 34
0.0
 50
90.0
100
AcDbRotatedDimension
1001
ACAD
1000
DSTYLE
1002
{
1070
    40
1040
3.0
1070
   147
1040
2.0
1002
}
  0
DIMENSION
  5
71
100
AcDbEntity
  8
KOTY-UPLNE
100
AcDbDimension
  2
*D12
 10
491.041859
 20
-114.194793
 30
0.0
 11
498.885342
 21
-100.312499
 31
0.0
 12
-2443.32739
 22
1762.657346
 32
0.0
 70
     1
  3
UPLNE
100
AcDbAlignedDimension
 13
464.139808
 23
-212.834928
 33
0.0
 14
458.45301
 24
-210.918899
 34
0.0
1001
ACAD
1000
DSTYLE
1002
{
1070
    40
1040
3.0
1070
   147
1040
2.0
1002
}
  0
DIMENSION
  5
80
100
AcDbEntity
  8
KOTY-UPLNE
100
AcDbDimension
  2
*D7
 10
645.349289
 20
-302.384928
 30
0.0
 11
622.849289
 21
-286.724928
 31
0.0
 12
-2443.32739
 22
1762.657346
 32
0.0
  3
UPLNE
100
AcDbAlignedDimension
 13
600.349289
 23
-155.384928
 33
0.0
 14
645.349289
 24
-149.884928
 34
0.0
100
AcDbRotatedDimension
1001
ACAD
1000
DSTYLE
1002
{
1070
    40
1040
3.0
1070
   147
1040
2.0
1002
}
  0
DIMENSION
  5
8D
100
AcDbEntity
  8
KOTY-UPLNE
100
AcDbDimension
  2
*D5
 10
530.349289
 20
-302.384928
 30
0.0
 11
507.849289
 21
-286.724928
 31
0.0
 12
-2443.32739
 22
1762.657346
 32
0.0
  3
UPLNE
100
AcDbAlignedDimension
 13
485.349289
 23
-149.884928
 33
0.0
 14
530.349289
 24
-155.384928
 34
0.0
100
AcDbRotatedDimension
1001
ACAD
1000
DSTYLE
1002
{
1070
    40
1040
3.0
1070
   147
1040
2.0
1002
}
  0
DIMENSION
  5
9A
100
AcDbEntity
  8
KOTY-UPLNE
100
AcDbDimension
  2
*D2
 10
407.851292
 20
-111.074478
 30
0.0
 11
389.102293
 21
-93.574478
 31
0.0
 12
-2443.32739
 22
1762.657346
 32
0.0
  1
37,5
  3
UPLNE
100
AcDbAlignedDimension
 13
370.353295
 23
-149.884928
 33
0.0
 14
407.851292
 24
-242.384928
 34
0.0
100
AcDbRotatedDimension
1001
ACAD
1000
DSTYLE
1002
{
1070
    40
1040
3.0
1070
   147
1040
2.0
1002
}
  0
DIMENSION
  5
A9
100
AcDbEntity
  8
KOTY-UPLNE
100
AcDbDimension
  2
*D0
 10
210.353295
 20
-111.074478
 30
0.0
 11
191.604296
 21
-93.574478
 31
0.0
 12
-2443.32739
 22
1762.657346
 32
0.0
  1
37,5
  3
UPLNE
100
AcDbAlignedDimension
 13
172.855297
 23
-242.384928
 33
0.0
 14
210.353295
 24
-149.884928
 34
0.0
100
AcDbRotatedDimension
1001
ACAD
1000
DSTYLE
1002
{
1070
    40
1040
3.0
1070
   147
1040
2.0
1002
}
  0
MTEXT
  5
B8
100
AcDbEntity
  8
POZICE
100
AcDbMText
 10
703.397179
 20
-157.508626
 30
0.0
 40
41.73
 41
1.0
 71
     5
 72
     1
  1
A
  7
STYLE1
  0
DIMENSION
  5
BA
100
AcDbEntity
  8
KOTY-UPLNE
100
AcDbDimension
  2
*D3
 10
427.851292
 20
-302.384928
 30
0.0
 11
290.353295
 21
-286.724928
 31
0.0
 12
-2443.32739
 22
1762.657346
 32
0.0
  3
UPLNE
100
AcDbAlignedDimension
 13
152.855297
 23
-242.384928
 33
0.0
 14
427.851292
 24
-242.384928
 34
0.0
100
AcDbRotatedDimension
1001
ACAD
1000
DSTYLE
1002
{
1070
    40
1040
3.0
1070
   147
1040
2.0
1002
}
  0
DIMENSION
  5
C7
100
AcDbEntity
  8
KOTY-UPLNE
100
AcDbDimension
  2
*D6
 10
600.349289
 20
-302.384928
 30
0.0
 11
565.349289
 21
-286.724928
 31
0.0
 12
-2443.32739
 22
1762.657346
 32
0.0
  3
UPLNE
100
AcDbAlignedDimension
 13
530.349289
 23
-155.384928
 33
0.0
 14
600.349289
 24
-155.384928
 34
0.0
100
AcDbRotatedDimension
1001
ACAD
1000
DSTYLE
1002
{
1070
    40
1040
3.0
1070
   147
1040
2.0
1002
}
  0
DIMENSION
  5
D4
100
AcDbEntity
  8
KOTY-UPLNE
100
AcDbDimension
  2
*D1
 10
370.353295
 20
-111.074478
 30
0.0
 11
290.353295
 21
-95.414478
 31
0.0
 12
-2443.32739
 22
1762.657346
 32
0.0
  3
UPLNE
100
AcDbAlignedDimension
 13
210.353295
 23
-149.884928
 33
0.0
 14
370.353295
 24
-149.884928
 34
0.0
100
AcDbRotatedDimension
1001
ACAD
1000
DSTYLE
1002
{
1070
    40
1040
3.0
1070
   147
1040
2.0
1002
}
  0
DIMENSION
  5
E1
100
AcDbEntity
  8
KOTY-UPLNE
100
AcDbDimension
  2
*D13
 10
877.095284
 20
-154.916017
 30
0.0
 11
982.051232
 21
-124.097003
 31
0.0
 12
-2443.32739
 22
1762.657346
 32
0.0
 70
     2
  3
UPLNE
100
AcDb2LineAngularDimension
 13
920.345284
 23
-149.884928
 33
0.0
 14
885.809386
 24
-149.884928
 34
0.0
 15
885.809386
 25
-149.884928
 35
0.0
 16
968.510479
 26
-135.302494
 36
0.0
1001
ACAD
1000
DSTYLE
1002
{
1070
    40
1040
3.0
1070
   147
1040
2.0
1002
}
  0
DIMENSION
  5
F0
100
AcDbEntity
  8
KOTY-UPLNE
100
AcDbDimension
  2
*D11
 10
1113.242224
 20
-242.384928
 30
0.0
 11
1095.742224
 21
-196.134928
 31
0.0
 12
-2443.32739
 22
1762.657346
 32
0.0
  1
92,5
  3
UPLNE
100
AcDbAlignedDimension
 13
920.345284
 23
-149.884928
 33
0.0
 14
997.843281
 24
-242.384928
 34
0.0
 50
90.0
100
AcDbRotatedDimension
1001
ACAD
1000
DSTYLE
1002
{
1070
    40
1040
3.0
1070
   147
1040
2.0
1002
}
  0
DIMENSION
  5
FD
100
AcDbEntity
  8
KOTY-UPLNE
100
AcDbDimension
  2
*D8
 10
1037.641046
 20
-212.834928
 30
0.0
 11
1021.981046
 21
-181.359928
 31
0.0
 12
-2443.32739
 22
1762.657346
 32
0.0
  3
UPLNE
100
AcDbAlignedDimension
 13
920.345284
 23
-149.884928
 33
0.0
 14
941.554765
 24
-212.834928
 34
0.0
 50
90.0
100
AcDbRotatedDimension
1001
ACAD
1000
DSTYLE
1002
{
1070
    40
1040
3.0
1070
   147
1040
2.0
1002
}
  0
DIMENSION
  5
10A
100
AcDbEntity
  8
KOTY-UPLNE
100
AcDbDimension
  2
*D10
 10
1037.641046
 20
-242.384928
 30
0.0
 11
1021.891046
 21
-268.961439
 31
0.0
 12
-2443.32739
 22
1762.657346
 32
0.0
 70
   128
  3
UPLNE
100
AcDbAlignedDimension
 13
951.104765
 23
-222.384928
 33
0.0
 14
997.843281
 24
-242.384928
 34
0.0
 50
90.0
100
AcDbRotatedDimension
1001
ACAD
1000
DSTYLE
1002
{
1070
    40
1040
3.0
1070
   147
1040
2.0
1002
}
  0
DIMENSION
  5
11A
100
AcDbEntity
  8
KOTY-UPLNE
100
AcDbDimension
  2
*D9
 10
1037.641046
 20
-222.384928
 30
0.0
 11
1056.819607
 21
-217.609928
 31
0.0
 12
-2443.32739
 22
1762.657346
 32
0.0
 70
   128
  1
9,5
  3
UPLNE
100
AcDbAlignedDimension
 13
941.554765
 23
-212.834928
 33
0.0
 14
951.104765
 24
-222.384928
 34
0.0
 50
90.0
100
AcDbRotatedDimension
1001
ACAD
1000
DSTYLE
1002
{
1070
    40
1040
3.0
1070
   147
1040
2.0
1002
}
  0
MTEXT
  5
12A
100
AcDbEntity
  8
POZICE
100
AcDbMText
 10
792.682958
 20
-284.078837
 30
0.0
 40
41.73
 41
1.0
 71
     5
 72
     1
  1
B
  7
STYLE1
  0
ENDSEC
  0
SECTION
  2
OBJECTS
  0
DICTIONARY
  5
1A
100
AcDbDictionary
  3
ACAD_GROUP
350
18
  3
ACAD_MLINESTYLE
350
19
  0
DICTIONARY
  5
18
102
{ACAD_REACTORS
330
1A
102
}
100
AcDbDictionary
  0
DICTIONARY
  5
19
102
{ACAD_REACTORS
330
1A
102
}
100
AcDbDictionary
  3
STANDARD
350
1C
  0
MLINESTYLE
  5
1C
102
{ACAD_REACTORS
330
19
102
}
100
AcDbMlineStyle
  2
STANDARD
 70
     0
  3

 62
   256
 51
90.0
 52
90.0
 71
     2
 49
0.5
 62
   256
  6
BYLAYER
 49
-0.5
 62
   256
  6
BYLAYER
  0
ENDSEC
  0
EOF
