  0
SECTION
  2
HEADER
  9
$ACADVER
  1
AC1014
  9
$ACADMAINTVER
 70
     0
  9
$DWGCODEPAGE
  3
ANSI_1250
  9
$INSBASE
 10
0.0
 20
0.0
 30
0.0
  9
$EXTMIN
 10
0.0
 20
-408.001233
 30
0.0
  9
$EXTMAX
 10
1349.672502
 20
0.0
 30
0.0
  9
$LIMMIN
 10
-1000.0
 20
-1000.0
  9
$LIMMAX
 10
1000.0
 20
1000.0
  9
$ORTHOMODE
 70
     0
  9
$REGENMODE
 70
     1
  9
$FILLMODE
 70
     1
  9
$QTEXTMODE
 70
     0
  9
$MIRRTEXT
 70
     0
  9
$DRAGMODE
 70
     2
  9
$LTSCALE
 40
3.0
  9
$OSMODE
 70
    32
  9
$ATTMODE
 70
     1
  9
$TEXTSIZE
 40
50.0
  9
$TRACEWID
 40
0.05
  9
$TEXTSTYLE
  7
STANDARD
  9
$CLAYER
  8
KOTY-UPLNE
  9
$CELTYPE
  6
BYLAYER
  9
$CECOLOR
 62
   256
  9
$CELTSCALE
 40
1.0
  9
$DELOBJ
 70
     1
  9
$DISPSILH
 70
     0
  9
$DIMSCALE
 40
3.0
  9
$DIMASZ
 40
5.0
  9
$DIMEXO
 40
1.0
  9
$DIMDLI
 40
0.0
  9
$DIMRND
 40
1.0
  9
$DIMDLE
 40
1.0
  9
$DIMEXE
 40
2.0
  9
$DIMTP
 40
0.0
  9
$DIMTM
 40
0.0
  9
$DIMTXT
 40
6.44
  9
$DIMCEN
 40
1.0
  9
$DIMTSZ
 40
0.0
  9
$DIMTOL
 70
     0
  9
$DIMLIM
 70
     0
  9
$DIMTIH
 70
     0
  9
$DIMTOH
 70
     0
  9
$DIMSE1
 70
     0
  9
$DIMSE2
 70
     0
  9
$DIMTAD
 70
     3
  9
$DIMZIN
 70
     0
  9
$DIMBLK
  1

  9
$DIMASO
 70
     1
  9
$DIMSHO
 70
     0
  9
$DIMPOST
  1

  9
$DIMAPOST
  1

  9
$DIMALT
 70
     0
  9
$DIMALTD
 70
     2
  9
$DIMALTF
 40
25.4
  9
$DIMLFAC
 40
1.0
  9
$DIMTOFL
 70
     1
  9
$DIMTVP
 40
0.0
  9
$DIMTIX
 70
     1
  9
$DIMSOXD
 70
     0
  9
$DIMSAH
 70
     0
  9
$DIMBLK1
  1

  9
$DIMBLK2
  1

  9
$DIMSTYLE
  2
UPLNE
  9
$DIMCLRD
 70
   256
  9
$DIMCLRE
 70
   256
  9
$DIMCLRT
 70
     5
  9
$DIMTFAC
 40
1.0
  9
$DIMGAP
 40
2.0
  9
$DIMJUST
 70
     0
  9
$DIMSD1
 70
     0
  9
$DIMSD2
 70
     0
  9
$DIMTOLJ
 70
     1
  9
$DIMTZIN
 70
     0
  9
$DIMALTZ
 70
     0
  9
$DIMALTTZ
 70
     0
  9
$DIMFIT
 70
     5
  9
$DIMUPT
 70
     0
  9
$DIMUNIT
 70
     2
  9
$DIMDEC
 70
     0
  9
$DIMTDEC
 70
     0
  9
$DIMALTU
 70
     2
  9
$DIMALTTD
 70
     2
  9
$DIMTXSTY
  7
STANDARD
  9
$DIMAUNIT
 70
     0
  9
$LUNITS
 70
     2
  9
$LUPREC
 70
     2
  9
$SKETCHINC
 40
0.1
  9
$FILLETRAD
 40
5.0
  9
$AUNITS
 70
     0
  9
$AUPREC
 70
     2
  9
$MENU
  1
acad
  9
$ELEVATION
 40
0.0
  9
$PELEVATION
 40
0.0
  9
$THICKNESS
 40
0.0
  9
$LIMCHECK
 70
     0
  9
$BLIPMODE
 70
     1
  9
$CHAMFERA
 40
0.0
  9
$CHAMFERB
 40
0.0
  9
$CHAMFERC
 40
0.0
  9
$CHAMFERD
 40
0.0
  9
$SKPOLY
 70
     0
  9
$TDCREATE
 40
2448722.252204629
  9
$TDUPDATE
 40
2452465.894109375
  9
$TDINDWG
 40
2.5235776620
  9
$TDUSRTIMER
 40
2.5235776620
  9
$USRTIMER
 70
     1
  9
$ANGBASE
 50
0.0
  9
$ANGDIR
 70
     0
  9
$PDMODE
 70
     0
  9
$PDSIZE
 40
0.0
  9
$PLINEWID
 40
0.0
  9
$COORDS
 70
     2
  9
$SPLFRAME
 70
     0
  9
$SPLINETYPE
 70
     6
  9
$SPLINESEGS
 70
     8
  9
$ATTDIA
 70
     0
  9
$ATTREQ
 70
     1
  9
$HANDLING
 70
     1
  9
$HANDSEED
  5
158
  9
$SURFTAB1
 70
     6
  9
$SURFTAB2
 70
     6
  9
$SURFTYPE
 70
     6
  9
$SURFU
 70
     6
  9
$SURFV
 70
     6
  9
$UCSNAME
  2

  9
$UCSORG
 10
0.0
 20
0.0
 30
0.0
  9
$UCSXDIR
 10
1.0
 20
0.0
 30
0.0
  9
$UCSYDIR
 10
0.0
 20
1.0
 30
0.0
  9
$PUCSNAME
  2

  9
$PUCSORG
 10
0.0
 20
0.0
 30
0.0
  9
$PUCSXDIR
 10
1.0
 20
0.0
 30
0.0
  9
$PUCSYDIR
 10
0.0
 20
1.0
 30
0.0
  9
$USERI1
 70
     1
  9
$USERI2
 70
     0
  9
$USERI3
 70
     0
  9
$USERI4
 70
     0
  9
$USERI5
 70
     0
  9
$USERR1
 40
0.0
  9
$USERR2
 40
0.0
  9
$USERR3
 40
0.0
  9
$USERR4
 40
0.0
  9
$USERR5
 40
0.0
  9
$WORLDVIEW
 70
     1
  9
$SHADEDGE
 70
     3
  9
$SHADEDIF
 70
    70
  9
$TILEMODE
 70
     1
  9
$MAXACTVP
 70
    16
  9
$PINSBASE
 10
0.0
 20
0.0
 30
0.0
  9
$PLIMCHECK
 70
     0
  9
$PEXTMIN
 10
1.000000E+20
 20
1.000000E+20
 30
1.000000E+20
  9
$PEXTMAX
 10
-1.000000E+20
 20
-1.000000E+20
 30
-1.000000E+20
  9
$PLIMMIN
 10
0.0
 20
0.0
  9
$PLIMMAX
 10
12.0
 20
9.0
  9
$UNITMODE
 70
     0
  9
$VISRETAIN
 70
     0
  9
$PLINEGEN
 70
     0
  9
$PSLTSCALE
 70
     0
  9
$TREEDEPTH
 70
  3020
  9
$PICKSTYLE
 70
     0
  9
$CMLSTYLE
  2
STANDARD
  9
$CMLJUST
 70
     0
  9
$CMLSCALE
 40
1.0
  9
$PROXYGRAPHICS
 70
     1
  9
$MEASUREMENT
 70
     0
  0
ENDSEC
  0
SECTION
  2
CLASSES
  0
CLASS
  1
LWPOLYLINE
  2
AcDbPolyline
  3
"AutoCAD"
 90
        0
280
     0
281
     1
  0
CLASS
  1
DICTIONARYVAR
  2
AcDbDictionaryVar
  3
"AutoCAD"
 90
        0
280
     0
281
     0
  0
ENDSEC
  0
SECTION
  2
TABLES
  0
TABLE
  2
VPORT
  5
12
100
AcDbSymbolTable
 70
     2
  0
VPORT
  5
157
100
AcDbSymbolTableRecord
100
AcDbViewportTableRecord
  2
*ACTIVE
 70
     0
 10
0.0
 20
0.0
 11
1.0
 21
1.0
 12
687.166998
 22
-81.609232
 13
0.0
 23
0.0
 14
1.0
 24
1.0
 15
600.0
 25
600.0
 16
0.0
 26
0.0
 36
1.0
 17
0.0
 27
0.0
 37
0.0
 40
816.911752
 41
2.224444
 42
50.0
 43
0.0
 44
0.0
 50
0.0
 51
0.0
 71
     0
 72
   100
 73
     1
 74
     0
 75
     0
 76
     0
 77
     0
 78
     0
  0
ENDTAB
  0
TABLE
  2
LTYPE
  5
D
100
AcDbSymbolTable
 70
     1
  0
LTYPE
  5
E
100
AcDbSymbolTableRecord
100
AcDbLinetypeTableRecord
  2
BYBLOCK
 70
     0
  3

 72
    65
 73
     0
 40
0.0
  0
LTYPE
  5
F
100
AcDbSymbolTableRecord
100
AcDbLinetypeTableRecord
  2
BYLAYER
 70
     0
  3

 72
    65
 73
     0
 40
0.0
  0
LTYPE
  5
5
100
AcDbSymbolTableRecord
100
AcDbLinetypeTableRecord
  2
CONTINUOUS
 70
     0
  3
Solid line
 72
    65
 73
     0
 40
0.0
  0
ENDTAB
  0
TABLE
  2
LAYER
  5
A
100
AcDbSymbolTable
 70
     7
  0
LAYER
  5
4
100
AcDbSymbolTableRecord
100
AcDbLayerTableRecord
  2
0
 70
     0
 62
     7
  6
CONTINUOUS
  0
LAYER
  5
1B
100
AcDbSymbolTableRecord
100
AcDbLayerTableRecord
  2
KOTY-UPLNE
 70
     0
 62
     7
  6
CONTINUOUS
  0
LAYER
  5
42
100
AcDbSymbolTableRecord
100
AcDbLayerTableRecord
  2
RAMEC
 70
     0
 62
     5
  6
CONTINUOUS
  0
LAYER
  5
114
100
AcDbSymbolTableRecord
100
AcDbLayerTableRecord
  2
POZICE
 70
     0
 62
     1
  6
CONTINUOUS
  0
LAYER
  5
3F
100
AcDbSymbolTableRecord
100
AcDbLayerTableRecord
  2
POPIS
 70
     0
 62
     1
  6
CONTINUOUS
  0
LAYER
  5
2A
100
AcDbSymbolTableRecord
100
AcDbLayerTableRecord
  2
DEFPOINTS
 70
     0
 62
     7
  6
CONTINUOUS
  0
LAYER
  5
3D
100
AcDbSymbolTableRecord
100
AcDbLayerTableRecord
  2
TRAPEZ-VELKY
 70
     0
 62
     7
  6
CONTINUOUS
  0
ENDTAB
  0
TABLE
  2
STYLE
  5
B
100
AcDbSymbolTable
 70
     2
  0
STYLE
  5
C
100
AcDbSymbolTableRecord
100
AcDbTextStyleTableRecord
  2
STANDARD
 70
     0
 40
0.0
 41
0.9
 50
0.0
 71
     0
 42
50.0
  3
simplex.shx
  4

  0
STYLE
  5
40
100
AcDbSymbolTableRecord
100
AcDbTextStyleTableRecord
  2
STYLE1
 70
     0
 40
0.0
 41
0.9
 50
0.0
 71
     0
 42
50.0
  3
simplex.shx
  4

  0
ENDTAB
  0
TABLE
  2
VIEW
  5
10
100
AcDbSymbolTable
 70
     0
  0
ENDTAB
  0
TABLE
  2
UCS
  5
11
100
AcDbSymbolTable
 70
     0
  0
ENDTAB
  0
TABLE
  2
APPID
  5
14
100
AcDbSymbolTable
 70
     1
  0
APPID
  5
15
100
AcDbSymbolTableRecord
100
AcDbRegAppTableRecord
  2
ACAD
 70
     0
  0
ENDTAB
  0
TABLE
  2
DIMSTYLE
  5
16
100
AcDbSymbolTable
 70
     1
  0
DIMSTYLE
105
1D
102
{ACAD_REACTORS
330
52
330
6F
330
2F
330
144
330
F4
330
135
330
E4
330
125
330
D7
330
9B
330
43
330
8C
330
7C
330
C8
330
B8
330
A9
330
1F
330
5F
330
104
330
115
102
}
100
AcDbSymbolTableRecord
100
AcDbDimStyleTableRecord
  2
UPLNE
 70
     0
  3

  4

  5

  6

  7

 40
5.0
 41
5.0
 42
1.0
 43
0.0
 44
2.0
 45
1.0
 46
1.0
 47
0.0
 48
0.0
140
6.44
141
1.0
142
0.0
143
25.4
144
1.0
145
0.0
146
1.0
147
1.0
 71
     0
 72
     0
 73
     0
 74
     0
 75
     0
 76
     0
 77
     3
 78
     0
170
     0
171
     2
172
     1
173
     0
174
     1
175
     0
176
   256
177
   256
178
     5
270
     2
271
     0
272
     0
273
     2
274
     2
340
C
275
     0
280
     0
281
     0
282
     0
283
     1
284
     0
285
     0
286
     0
287
     5
288
     0
  0
ENDTAB
  0
TABLE
  2
BLOCK_RECORD
  5
1
100
AcDbSymbolTable
 70
    20
  0
BLOCK_RECORD
  5
2
100
AcDbSymbolTableRecord
100
AcDbBlockTableRecord
  2
*MODEL_SPACE
  0
BLOCK_RECORD
  5
7
100
AcDbSymbolTableRecord
100
AcDbBlockTableRecord
  2
*PAPER_SPACE
  0
BLOCK_RECORD
  5
53
100
AcDbSymbolTableRecord
100
AcDbBlockTableRecord
  2
*D0
  0
BLOCK_RECORD
  5
70
100
AcDbSymbolTableRecord
100
AcDbBlockTableRecord
  2
*D1
  0
BLOCK_RECORD
  5
30
100
AcDbSymbolTableRecord
100
AcDbBlockTableRecord
  2
*D2
  0
BLOCK_RECORD
  5
145
100
AcDbSymbolTableRecord
100
AcDbBlockTableRecord
  2
*D3
  0
BLOCK_RECORD
  5
F5
100
AcDbSymbolTableRecord
100
AcDbBlockTableRecord
  2
*D4
  0
BLOCK_RECORD
  5
136
100
AcDbSymbolTableRecord
100
AcDbBlockTableRecord
  2
*D5
  0
BLOCK_RECORD
  5
E5
100
AcDbSymbolTableRecord
100
AcDbBlockTableRecord
  2
*D6
  0
BLOCK_RECORD
  5
126
100
AcDbSymbolTableRecord
100
AcDbBlockTableRecord
  2
*D7
  0
BLOCK_RECORD
  5
D8
100
AcDbSymbolTableRecord
100
AcDbBlockTableRecord
  2
*D8
  0
BLOCK_RECORD
  5
9C
100
AcDbSymbolTableRecord
100
AcDbBlockTableRecord
  2
*D9
  0
BLOCK_RECORD
  5
44
100
AcDbSymbolTableRecord
100
AcDbBlockTableRecord
  2
*D10
  0
BLOCK_RECORD
  5
8D
100
AcDbSymbolTableRecord
100
AcDbBlockTableRecord
  2
*D11
  0
BLOCK_RECORD
  5
7D
100
AcDbSymbolTableRecord
100
AcDbBlockTableRecord
  2
*D12
  0
BLOCK_RECORD
  5
C9
100
AcDbSymbolTableRecord
100
AcDbBlockTableRecord
  2
*D13
  0
BLOCK_RECORD
  5
B9
100
AcDbSymbolTableRecord
100
AcDbBlockTableRecord
  2
*D14
  0
BLOCK_RECORD
  5
AA
100
AcDbSymbolTableRecord
100
AcDbBlockTableRecord
  2
*D15
  0
BLOCK_RECORD
  5
20
100
AcDbSymbolTableRecord
100
AcDbBlockTableRecord
  2
*D16
  0
BLOCK_RECORD
  5
60
100
AcDbSymbolTableRecord
100
AcDbBlockTableRecord
  2
*D17
  0
BLOCK_RECORD
  5
105
100
AcDbSymbolTableRecord
100
AcDbBlockTableRecord
  2
*D18
  0
BLOCK_RECORD
  5
116
100
AcDbSymbolTableRecord
100
AcDbBlockTableRecord
  2
*D19
  0
ENDTAB
  0
ENDSEC
  0
SECTION
  2
BLOCKS
  0
BLOCK
  5
3
100
AcDbEntity
  8
0
100
AcDbBlockBegin
  2
*MODEL_SPACE
 70
     0
 10
0.0
 20
0.0
 30
0.0
  3
*MODEL_SPACE
  1

  0
ENDBLK
  5
6
100
AcDbEntity
  8
0
100
AcDbBlockEnd
  0
BLOCK
  5
8
100
AcDbEntity
 67
     1
  8
0
100
AcDbBlockBegin
  2
*PAPER_SPACE
 70
     0
 10
0.0
 20
0.0
 30
0.0
  3
*PAPER_SPACE
  1

  0
ENDBLK
  5
9
100
AcDbEntity
 67
     1
  8
0
100
AcDbBlockEnd
  0
BLOCK
  5
5D
100
AcDbEntity
  8
0
100
AcDbBlockBegin
  2
*D0
 70
     1
 10
0.0
 20
0.0
 30
0.0
  3
*D0
  1

  0
LINE
  5
54
100
AcDbEntity
  8
0
  6
BYBLOCK
100
AcDbLine
 10
2678.683174
 20
-707.543468
 30
0.0
 11
2678.683174
 21
-656.831824
 31
0.0
  0
LINE
  5
55
100
AcDbEntity
  8
0
  6
BYBLOCK
100
AcDbLine
 10
2818.679163
 20
-707.543468
 30
0.0
 11
2818.679163
 21
-656.831824
 31
0.0
  0
LINE
  5
56
100
AcDbEntity
  8
0
  6
BYBLOCK
100
AcDbLine
 10
2693.683174
 20
-662.831824
 30
0.0
 11
2803.679163
 21
-662.831824
 31
0.0
  0
SOLID
  5
57
100
AcDbEntity
  8
0
  6
BYBLOCK
100
AcDbTrace
 10
2693.683174
 20
-660.331824
 30
0.0
 11
2693.683174
 21
-665.331824
 31
0.0
 12
2678.683174
 22
-662.831824
 32
0.0
 13
2678.683174
 23
-662.831824
 33
0.0
  0
SOLID
  5
58
100
AcDbEntity
  8
0
  6
BYBLOCK
100
AcDbTrace
 10
2803.679163
 20
-660.331824
 30
0.0
 11
2803.679163
 21
-665.331824
 31
0.0
 12
2818.679163
 22
-662.831824
 32
0.0
 13
2818.679163
 23
-662.831824
 33
0.0
  0
MTEXT
  5
59
100
AcDbEntity
  8
0
  6
BYBLOCK
 62
     5
100
AcDbMText
 10
2748.681168
 20
-647.171824
 30
0.0
 40
19.32
 41
0.0
 71
     5
 72
     1
  1
\A1;140
  0
POINT
  5
5A
100
AcDbEntity
  8
DEFPOINTS
  6
BYBLOCK
 62
     0
100
AcDbPoint
 10
2678.683174
 20
-710.543468
 30
0.0
  0
POINT
  5
5B
100
AcDbEntity
  8
DEFPOINTS
  6
BYBLOCK
 62
     0
100
AcDbPoint
 10
2818.679163
 20
-710.543468
 30
0.0
  0
POINT
  5
5C
100
AcDbEntity
  8
DEFPOINTS
  6
BYBLOCK
 62
     0
100
AcDbPoint
 10
2818.679163
 20
-662.831824
 30
0.0
  0
ENDBLK
  5
5E
100
AcDbEntity
  8
0
100
AcDbBlockEnd
  0
BLOCK
  5
7A
100
AcDbEntity
  8
0
100
AcDbBlockBegin
  2
*D1
 70
     1
 10
0.0
 20
0.0
 30
0.0
  3
*D1
  1

  0
LINE
  5
71
100
AcDbEntity
  8
0
  6
BYBLOCK
100
AcDbLine
 10
2596.182687
 20
-804.542274
 30
0.0
 11
2596.182687
 21
-867.542274
 31
0.0
  0
LINE
  5
72
100
AcDbEntity
  8
0
  6
BYBLOCK
100
AcDbLine
 10
2901.179649
 20
-804.542274
 30
0.0
 11
2901.179649
 21
-867.542274
 31
0.0
  0
LINE
  5
73
100
AcDbEntity
  8
0
  6
BYBLOCK
100
AcDbLine
 10
2611.182687
 20
-861.542274
 30
0.0
 11
2886.179649
 21
-861.542274
 31
0.0
  0
SOLID
  5
74
100
AcDbEntity
  8
0
  6
BYBLOCK
100
AcDbTrace
 10
2611.182687
 20
-859.042274
 30
0.0
 11
2611.182687
 21
-864.042274
 31
0.0
 12
2596.182687
 22
-861.542274
 32
0.0
 13
2596.182687
 23
-861.542274
 33
0.0
  0
SOLID
  5
75
100
AcDbEntity
  8
0
  6
BYBLOCK
100
AcDbTrace
 10
2886.179649
 20
-859.042274
 30
0.0
 11
2886.179649
 21
-864.042274
 31
0.0
 12
2901.179649
 22
-861.542274
 32
0.0
 13
2901.179649
 23
-861.542274
 33
0.0
  0
MTEXT
  5
76
100
AcDbEntity
  8
0
  6
BYBLOCK
 62
     5
100
AcDbMText
 10
2748.681168
 20
-845.882274
 30
0.0
 40
19.32
 41
0.0
 71
     5
 72
     1
  1
\A1;305
  0
POINT
  5
77
100
AcDbEntity
  8
DEFPOINTS
  6
BYBLOCK
 62
     0
100
AcDbPoint
 10
2596.182687
 20
-801.542274
 30
0.0
  0
POINT
  5
78
100
AcDbEntity
  8
DEFPOINTS
  6
BYBLOCK
 62
     0
100
AcDbPoint
 10
2901.179649
 20
-801.542274
 30
0.0
  0
POINT
  5
79
100
AcDbEntity
  8
DEFPOINTS
  6
BYBLOCK
 62
     0
100
AcDbPoint
 10
2901.179649
 20
-861.542274
 30
0.0
  0
ENDBLK
  5
7B
100
AcDbEntity
  8
0
100
AcDbBlockEnd
  0
BLOCK
  5
3A
100
AcDbEntity
  8
0
100
AcDbBlockBegin
  2
*D2
 70
     1
 10
0.0
 20
0.0
 30
0.0
  3
*D2
  1

  0
LINE
  5
31
100
AcDbEntity
  8
0
  6
BYBLOCK
100
AcDbLine
 10
2596.182687
 20
-804.542274
 30
0.0
 11
2596.182687
 21
-927.542274
 31
0.0
  0
LINE
  5
32
100
AcDbEntity
  8
0
  6
BYBLOCK
100
AcDbLine
 10
3511.173573
 20
-804.542274
 30
0.0
 11
3511.173573
 21
-927.542274
 31
0.0
  0
LINE
  5
33
100
AcDbEntity
  8
0
  6
BYBLOCK
100
AcDbLine
 10
2611.182687
 20
-921.542274
 30
0.0
 11
3496.173573
 21
-921.542274
 31
0.0
  0
SOLID
  5
34
100
AcDbEntity
  8
0
  6
BYBLOCK
100
AcDbTrace
 10
2611.182687
 20
-919.042274
 30
0.0
 11
2611.182687
 21
-924.042274
 31
0.0
 12
2596.182687
 22
-921.542274
 32
0.0
 13
2596.182687
 23
-921.542274
 33
0.0
  0
SOLID
  5
35
100
AcDbEntity
  8
0
  6
BYBLOCK
100
AcDbTrace
 10
3496.173573
 20
-919.042274
 30
0.0
 11
3496.173573
 21
-924.042274
 31
0.0
 12
3511.173573
 22
-921.542274
 32
0.0
 13
3511.173573
 23
-921.542274
 33
0.0
  0
MTEXT
  5
36
100
AcDbEntity
  8
0
  6
BYBLOCK
 62
     5
100
AcDbMText
 10
3053.67813
 20
-905.882274
 30
0.0
 40
19.32
 41
0.0
 71
     5
 72
     1
  1
\A1;915
  0
POINT
  5
37
100
AcDbEntity
  8
DEFPOINTS
  6
BYBLOCK
 62
     0
100
AcDbPoint
 10
2596.182687
 20
-801.542274
 30
0.0
  0
POINT
  5
38
100
AcDbEntity
  8
DEFPOINTS
  6
BYBLOCK
 62
     0
100
AcDbPoint
 10
3511.173573
 20
-801.542274
 30
0.0
  0
POINT
  5
39
100
AcDbEntity
  8
DEFPOINTS
  6
BYBLOCK
 62
     0
100
AcDbPoint
 10
3511.173573
 20
-921.542274
 30
0.0
  0
ENDBLK
  5
3B
100
AcDbEntity
  8
0
100
AcDbBlockEnd
  0
BLOCK
  5
152
100
AcDbEntity
  8
0
100
AcDbBlockBegin
  2
*D3
 70
     1
 10
0.0
 20
0.0
 30
0.0
  3
*D3
  1

  0
LINE
  5
146
100
AcDbEntity
  8
0
  6
BYBLOCK
100
AcDbLine
 10
3431.673087
 20
-710.543468
 30
0.0
 11
3582.129259
 21
-710.543468
 31
0.0
  0
LINE
  5
147
100
AcDbEntity
  8
0
  6
BYBLOCK
100
AcDbLine
 10
3442.306016
 20
-730.542705
 30
0.0
 11
3582.129259
 21
-730.542705
 31
0.0
  0
LINE
  5
148
100
AcDbEntity
  8
0
  6
BYBLOCK
100
AcDbLine
 10
3576.129259
 20
-695.543468
 30
0.0
 11
3576.129259
 21
-680.543468
 31
0.0
  0
LINE
  5
149
100
AcDbEntity
  8
0
  6
BYBLOCK
100
AcDbLine
 10
3576.129259
 20
-745.542705
 30
0.0
 11
3576.129259
 21
-760.542705
 31
0.0
  0
MTEXT
  5
14A
100
AcDbEntity
  8
0
  6
BYBLOCK
 62
     5
100
AcDbMText
 10
3560.379259
 20
-689.93469
 30
0.0
 40
19.32
 41
0.0
 71
     5
 72
     1
  1
\A1;20
 11
0.0
 21
1.0
 31
0.0
  0
LINE
  5
14B
100
AcDbEntity
  8
0
  6
BYBLOCK
100
AcDbLine
 10
3576.129259
 20
-710.543468
 30
0.0
 11
3576.129259
 21
-730.542705
 31
0.0
  0
LINE
  5
14C
100
AcDbEntity
  8
0
  6
BYBLOCK
100
AcDbLine
 10
3576.129259
 20
-710.543468
 30
0.0
 11
3576.129259
 21
-730.542705
 31
0.0
  0
SOLID
  5
14D
100
AcDbEntity
  8
0
  6
BYBLOCK
100
AcDbTrace
 10
3573.629259
 20
-695.543468
 30
0.0
 11
3578.629259
 21
-695.543468
 31
0.0
 12
3576.129259
 22
-710.543468
 32
0.0
 13
3576.129259
 23
-710.543468
 33
0.0
  0
SOLID
  5
14E
100
AcDbEntity
  8
0
  6
BYBLOCK
100
AcDbTrace
 10
3573.629259
 20
-745.542705
 30
0.0
 11
3578.629259
 21
-745.542705
 31
0.0
 12
3576.129259
 22
-730.542705
 32
0.0
 13
3576.129259
 23
-730.542705
 33
0.0
  0
POINT
  5
14F
100
AcDbEntity
  8
DEFPOINTS
  6
BYBLOCK
 62
     0
100
AcDbPoint
 10
3428.673087
 20
-710.543468
 30
0.0
  0
POINT
  5
150
100
AcDbEntity
  8
DEFPOINTS
  6
BYBLOCK
 62
     0
100
AcDbPoint
 10
3439.306016
 20
-730.542705
 30
0.0
  0
POINT
  5
151
100
AcDbEntity
  8
DEFPOINTS
  6
BYBLOCK
 62
     0
100
AcDbPoint
 10
3576.129259
 20
-730.542705
 30
0.0
  0
ENDBLK
  5
153
100
AcDbEntity
  8
0
100
AcDbBlockEnd
  0
BLOCK
  5
102
100
AcDbEntity
  8
0
100
AcDbBlockBegin
  2
*D4
 70
     1
 10
0.0
 20
0.0
 30
0.0
  3
*D4
  1

  0
LINE
  5
F6
100
AcDbEntity
  8
0
  6
BYBLOCK
100
AcDbLine
 10
3442.306016
 20
-730.542705
 30
0.0
 11
3582.129259
 21
-730.542705
 31
0.0
  0
LINE
  5
F7
100
AcDbEntity
  8
0
  6
BYBLOCK
100
AcDbLine
 10
3455.470843
 20
-740.542574
 30
0.0
 11
3582.129259
 21
-740.542574
 31
0.0
  0
LINE
  5
F8
100
AcDbEntity
  8
0
  6
BYBLOCK
100
AcDbLine
 10
3576.129259
 20
-715.542705
 30
0.0
 11
3576.129259
 21
-700.542705
 31
0.0
  0
LINE
  5
F9
100
AcDbEntity
  8
0
  6
BYBLOCK
100
AcDbLine
 10
3576.129259
 20
-755.542574
 30
0.0
 11
3576.129259
 21
-770.542574
 31
0.0
  0
MTEXT
  5
FA
100
AcDbEntity
  8
0
  6
BYBLOCK
 62
     5
100
AcDbMText
 10
3596.926667
 20
-735.54264
 30
0.0
 40
19.32
 41
0.0
 71
     5
 72
     1
  1
\A1;10
 11
0.0
 21
1.0
 31
0.0
  0
LINE
  5
FB
100
AcDbEntity
  8
0
  6
BYBLOCK
100
AcDbLine
 10
3576.129259
 20
-730.542705
 30
0.0
 11
3576.129259
 21
-740.542574
 31
0.0
  0
LINE
  5
FC
100
AcDbEntity
  8
0
  6
BYBLOCK
100
AcDbLine
 10
3576.129259
 20
-730.542705
 30
0.0
 11
3576.129259
 21
-740.542574
 31
0.0
  0
SOLID
  5
FD
100
AcDbEntity
  8
0
  6
BYBLOCK
100
AcDbTrace
 10
3573.629259
 20
-715.542705
 30
0.0
 11
3578.629259
 21
-715.542705
 31
0.0
 12
3576.129259
 22
-730.542705
 32
0.0
 13
3576.129259
 23
-730.542705
 33
0.0
  0
SOLID
  5
FE
100
AcDbEntity
  8
0
  6
BYBLOCK
100
AcDbTrace
 10
3573.629259
 20
-755.542574
 30
0.0
 11
3578.629259
 21
-755.542574
 31
0.0
 12
3576.129259
 22
-740.542574
 32
0.0
 13
3576.129259
 23
-740.542574
 33
0.0
  0
POINT
  5
FF
100
AcDbEntity
  8
DEFPOINTS
  6
BYBLOCK
 62
     0
100
AcDbPoint
 10
3439.306016
 20
-730.542705
 30
0.0
  0
POINT
  5
100
100
AcDbEntity
  8
DEFPOINTS
  6
BYBLOCK
 62
     0
100
AcDbPoint
 10
3452.470843
 20
-740.542574
 30
0.0
  0
POINT
  5
101
100
AcDbEntity
  8
DEFPOINTS
  6
BYBLOCK
 62
     0
100
AcDbPoint
 10
3576.129259
 20
-740.542574
 30
0.0
  0
ENDBLK
  5
103
100
AcDbEntity
  8
0
100
AcDbBlockEnd
  0
BLOCK
  5
142
100
AcDbEntity
  8
0
100
AcDbBlockBegin
  2
*D5
 70
     1
 10
0.0
 20
0.0
 30
0.0
  3
*D5
  1

  0
LINE
  5
137
100
AcDbEntity
  8
0
  6
BYBLOCK
100
AcDbLine
 10
3455.470843
 20
-740.542574
 30
0.0
 11
3582.129259
 21
-740.542574
 31
0.0
  0
LINE
  5
138
100
AcDbEntity
  8
0
  6
BYBLOCK
100
AcDbLine
 10
3471.945627
 20
-771.542668
 30
0.0
 11
3582.129259
 21
-771.542668
 31
0.0
  0
LINE
  5
139
100
AcDbEntity
  8
0
  6
BYBLOCK
100
AcDbLine
 10
3576.129259
 20
-725.542574
 30
0.0
 11
3576.129259
 21
-710.542574
 31
0.0
  0
LINE
  5
13A
100
AcDbEntity
  8
0
  6
BYBLOCK
100
AcDbLine
 10
3576.129259
 20
-786.542668
 30
0.0
 11
3576.129259
 21
-801.542668
 31
0.0
  0
LINE
  5
13B
100
AcDbEntity
  8
0
  6
BYBLOCK
100
AcDbLine
 10
3576.129259
 20
-740.542574
 30
0.0
 11
3576.129259
 21
-771.542668
 31
0.0
  0
SOLID
  5
13C
100
AcDbEntity
  8
0
  6
BYBLOCK
100
AcDbTrace
 10
3573.629259
 20
-725.542574
 30
0.0
 11
3578.629259
 21
-725.542574
 31
0.0
 12
3576.129259
 22
-740.542574
 32
0.0
 13
3576.129259
 23
-740.542574
 33
0.0
  0
SOLID
  5
13D
100
AcDbEntity
  8
0
  6
BYBLOCK
100
AcDbTrace
 10
3573.629259
 20
-786.542668
 30
0.0
 11
3578.629259
 21
-786.542668
 31
0.0
 12
3576.129259
 22
-771.542668
 32
0.0
 13
3576.129259
 23
-771.542668
 33
0.0
  0
MTEXT
  5
13E
100
AcDbEntity
  8
0
  6
BYBLOCK
 62
     5
100
AcDbMText
 10
3560.469259
 20
-756.042621
 30
0.0
 40
19.32
 41
0.0
 71
     5
 72
     1
  1
\A1;31
 11
0.0
 21
1.0
 31
0.0
  0
POINT
  5
13F
100
AcDbEntity
  8
DEFPOINTS
  6
BYBLOCK
 62
     0
100
AcDbPoint
 10
3452.470843
 20
-740.542574
 30
0.0
  0
POINT
  5
140
100
AcDbEntity
  8
DEFPOINTS
  6
BYBLOCK
 62
     0
100
AcDbPoint
 10
3468.945627
 20
-771.542668
 30
0.0
  0
POINT
  5
141
100
AcDbEntity
  8
DEFPOINTS
  6
BYBLOCK
 62
     0
100
AcDbPoint
 10
3576.129259
 20
-771.542668
 30
0.0
  0
ENDBLK
  5
143
100
AcDbEntity
  8
0
100
AcDbBlockEnd
  0
BLOCK
  5
F2
100
AcDbEntity
  8
0
100
AcDbBlockBegin
  2
*D6
 70
     1
 10
0.0
 20
0.0
 30
0.0
  3
*D6
  1

  0
LINE
  5
E6
100
AcDbEntity
  8
0
  6
BYBLOCK
100
AcDbLine
 10
3471.945627
 20
-771.542668
 30
0.0
 11
3582.129259
 21
-771.542668
 31
0.0
  0
LINE
  5
E7
100
AcDbEntity
  8
0
  6
BYBLOCK
100
AcDbLine
 10
3483.535475
 20
-781.542536
 30
0.0
 11
3582.129259
 21
-781.542536
 31
0.0
  0
LINE
  5
E8
100
AcDbEntity
  8
0
  6
BYBLOCK
100
AcDbLine
 10
3576.129259
 20
-756.542668
 30
0.0
 11
3576.129259
 21
-741.542668
 31
0.0
  0
LINE
  5
E9
100
AcDbEntity
  8
0
  6
BYBLOCK
100
AcDbLine
 10
3576.129259
 20
-796.542536
 30
0.0
 11
3576.129259
 21
-811.542536
 31
0.0
  0
MTEXT
  5
EA
100
AcDbEntity
  8
0
  6
BYBLOCK
 62
     5
100
AcDbMText
 10
3596.926667
 20
-776.542602
 30
0.0
 40
19.32
 41
0.0
 71
     5
 72
     1
  1
\A1;10
 11
0.0
 21
1.0
 31
0.0
  0
LINE
  5
EB
100
AcDbEntity
  8
0
  6
BYBLOCK
100
AcDbLine
 10
3576.129259
 20
-771.542668
 30
0.0
 11
3576.129259
 21
-781.542536
 31
0.0
  0
LINE
  5
EC
100
AcDbEntity
  8
0
  6
BYBLOCK
100
AcDbLine
 10
3576.129259
 20
-771.542668
 30
0.0
 11
3576.129259
 21
-781.542536
 31
0.0
  0
SOLID
  5
ED
100
AcDbEntity
  8
0
  6
BYBLOCK
100
AcDbTrace
 10
3573.629259
 20
-756.542668
 30
0.0
 11
3578.629259
 21
-756.542668
 31
0.0
 12
3576.129259
 22
-771.542668
 32
0.0
 13
3576.129259
 23
-771.542668
 33
0.0
  0
SOLID
  5
EE
100
AcDbEntity
  8
0
  6
BYBLOCK
100
AcDbTrace
 10
3573.629259
 20
-796.542536
 30
0.0
 11
3578.629259
 21
-796.542536
 31
0.0
 12
3576.129259
 22
-781.542536
 32
0.0
 13
3576.129259
 23
-781.542536
 33
0.0
  0
POINT
  5
EF
100
AcDbEntity
  8
DEFPOINTS
  6
BYBLOCK
 62
     0
100
AcDbPoint
 10
3468.945627
 20
-771.542668
 30
0.0
  0
POINT
  5
F0
100
AcDbEntity
  8
DEFPOINTS
  6
BYBLOCK
 62
     0
100
AcDbPoint
 10
3480.535475
 20
-781.542536
 30
0.0
  0
POINT
  5
F1
100
AcDbEntity
  8
DEFPOINTS
  6
BYBLOCK
 62
     0
100
AcDbPoint
 10
3576.129259
 20
-781.542536
 30
0.0
  0
ENDBLK
  5
F3
100
AcDbEntity
  8
0
100
AcDbBlockEnd
  0
BLOCK
  5
133
100
AcDbEntity
  8
0
100
AcDbBlockBegin
  2
*D7
 70
     1
 10
0.0
 20
0.0
 30
0.0
  3
*D7
  1

  0
LINE
  5
127
100
AcDbEntity
  8
0
  6
BYBLOCK
100
AcDbLine
 10
3483.535475
 20
-781.542536
 30
0.0
 11
3582.129259
 21
-781.542536
 31
0.0
  0
LINE
  5
128
100
AcDbEntity
  8
0
  6
BYBLOCK
100
AcDbLine
 10
3494.169707
 20
-801.542274
 30
0.0
 11
3582.129259
 21
-801.542274
 31
0.0
  0
LINE
  5
129
100
AcDbEntity
  8
0
  6
BYBLOCK
100
AcDbLine
 10
3576.129259
 20
-766.542536
 30
0.0
 11
3576.129259
 21
-751.542536
 31
0.0
  0
LINE
  5
12A
100
AcDbEntity
  8
0
  6
BYBLOCK
100
AcDbLine
 10
3576.129259
 20
-816.542274
 30
0.0
 11
3576.129259
 21
-831.542274
 31
0.0
  0
MTEXT
  5
12B
100
AcDbEntity
  8
0
  6
BYBLOCK
 62
     5
100
AcDbMText
 10
3560.379259
 20
-820.372182
 30
0.0
 40
19.32
 41
0.0
 71
     5
 72
     1
  1
\A1;20
 11
0.0
 21
1.0
 31
0.0
  0
LINE
  5
12C
100
AcDbEntity
  8
0
  6
BYBLOCK
100
AcDbLine
 10
3576.129259
 20
-781.542536
 30
0.0
 11
3576.129259
 21
-801.542274
 31
0.0
  0
LINE
  5
12D
100
AcDbEntity
  8
0
  6
BYBLOCK
100
AcDbLine
 10
3576.129259
 20
-781.542536
 30
0.0
 11
3576.129259
 21
-801.542274
 31
0.0
  0
SOLID
  5
12E
100
AcDbEntity
  8
0
  6
BYBLOCK
100
AcDbTrace
 10
3573.629259
 20
-766.542536
 30
0.0
 11
3578.629259
 21
-766.542536
 31
0.0
 12
3576.129259
 22
-781.542536
 32
0.0
 13
3576.129259
 23
-781.542536
 33
0.0
  0
SOLID
  5
12F
100
AcDbEntity
  8
0
  6
BYBLOCK
100
AcDbTrace
 10
3573.629259
 20
-816.542274
 30
0.0
 11
3578.629259
 21
-816.542274
 31
0.0
 12
3576.129259
 22
-801.542274
 32
0.0
 13
3576.129259
 23
-801.542274
 33
0.0
  0
POINT
  5
130
100
AcDbEntity
  8
DEFPOINTS
  6
BYBLOCK
 62
     0
100
AcDbPoint
 10
3480.535475
 20
-781.542536
 30
0.0
  0
POINT
  5
131
100
AcDbEntity
  8
DEFPOINTS
  6
BYBLOCK
 62
     0
100
AcDbPoint
 10
3491.169707
 20
-801.542274
 30
0.0
  0
POINT
  5
132
100
AcDbEntity
  8
DEFPOINTS
  6
BYBLOCK
 62
     0
100
AcDbPoint
 10
3576.129259
 20
-801.542274
 30
0.0
  0
ENDBLK
  5
134
100
AcDbEntity
  8
0
100
AcDbBlockEnd
  0
BLOCK
  5
E2
100
AcDbEntity
  8
0
100
AcDbBlockBegin
  2
*D8
 70
     1
 10
0.0
 20
0.0
 30
0.0
  3
*D8
  1

  0
LINE
  5
D9
100
AcDbEntity
  8
0
  6
BYBLOCK
100
AcDbLine
 10
3431.673087
 20
-710.543468
 30
0.0
 11
3643.511214
 21
-710.543468
 31
0.0
  0
LINE
  5
DA
100
AcDbEntity
  8
0
  6
BYBLOCK
100
AcDbLine
 10
3534.17744
 20
-801.542274
 30
0.0
 11
3643.511214
 21
-801.542274
 31
0.0
  0
LINE
  5
DB
100
AcDbEntity
  8
0
  6
BYBLOCK
100
AcDbLine
 10
3637.511214
 20
-725.543468
 30
0.0
 11
3637.511214
 21
-786.542274
 31
0.0
  0
SOLID
  5
DC
100
AcDbEntity
  8
0
  6
BYBLOCK
100
AcDbTrace
 10
3635.011214
 20
-725.543468
 30
0.0
 11
3640.011214
 21
-725.543468
 31
0.0
 12
3637.511214
 22
-710.543468
 32
0.0
 13
3637.511214
 23
-710.543468
 33
0.0
  0
SOLID
  5
DD
100
AcDbEntity
  8
0
  6
BYBLOCK
100
AcDbTrace
 10
3635.011214
 20
-786.542274
 30
0.0
 11
3640.011214
 21
-786.542274
 31
0.0
 12
3637.511214
 22
-801.542274
 32
0.0
 13
3637.511214
 23
-801.542274
 33
0.0
  0
MTEXT
  5
DE
100
AcDbEntity
  8
0
  6
BYBLOCK
 62
     5
100
AcDbMText
 10
3621.851214
 20
-756.042871
 30
0.0
 40
19.32
 41
0.0
 71
     5
 72
     1
  1
\A1;91
 11
0.0
 21
1.0
 31
0.0
  0
POINT
  5
DF
100
AcDbEntity
  8
DEFPOINTS
  6
BYBLOCK
 62
     0
100
AcDbPoint
 10
3428.673087
 20
-710.543468
 30
0.0
  0
POINT
  5
E0
100
AcDbEntity
  8
DEFPOINTS
  6
BYBLOCK
 62
     0
100
AcDbPoint
 10
3531.17744
 20
-801.542274
 30
0.0
  0
POINT
  5
E1
100
AcDbEntity
  8
DEFPOINTS
  6
BYBLOCK
 62
     0
100
AcDbPoint
 10
3637.511214
 20
-801.542274
 30
0.0
  0
ENDBLK
  5
E3
100
AcDbEntity
  8
0
100
AcDbBlockEnd
  0
BLOCK
  5
A7
100
AcDbEntity
  8
0
100
AcDbBlockBegin
  2
*D9
 70
     1
 10
0.0
 20
0.0
 30
0.0
  3
*D9
  1

  0
LINE
  5
9D
100
AcDbEntity
  8
0
  6
BYBLOCK
100
AcDbLine
 10
2974.455071
 20
-727.89357
 30
0.0
 11
3007.759951
 21
-665.224803
 31
0.0
  0
LINE
  5
9E
100
AcDbEntity
  8
0
  6
BYBLOCK
100
AcDbLine
 10
2968.333524
 20
-724.640316
 30
0.0
 11
3001.638404
 21
-661.97155
 31
0.0
  0
LINE
  5
9F
100
AcDbEntity
  8
0
  6
BYBLOCK
100
AcDbLine
 10
3018.189899
 20
-677.562396
 30
0.0
 11
3031.435575
 21
-684.601719
 31
0.0
  0
LINE
  5
A0
100
AcDbEntity
  8
0
  6
BYBLOCK
100
AcDbLine
 10
2985.576998
 20
-660.230498
 30
0.0
 11
2972.331322
 21
-653.191175
 31
0.0
  0
LINE
  5
A1
100
AcDbEntity
  8
0
  6
BYBLOCK
100
AcDbLine
 10
3004.944222
 20
-670.523074
 30
0.0
 11
2998.822675
 21
-667.26982
 31
0.0
  0
SOLID
  5
A2
100
AcDbEntity
  8
0
  6
BYBLOCK
100
AcDbTrace
 10
3019.363119
 20
-675.354784
 30
0.0
 11
3017.016678
 21
-679.770009
 31
0.0
 12
3004.944222
 22
-670.523074
 32
0.0
 13
3004.944222
 23
-670.523074
 33
0.0
  0
SOLID
  5
A3
100
AcDbEntity
  8
0
  6
BYBLOCK
100
AcDbTrace
 10
2986.750219
 20
-658.022885
 30
0.0
 11
2984.403778
 21
-662.43811
 31
0.0
 12
2998.822675
 22
-667.26982
 32
0.0
 13
2998.822675
 23
-667.26982
 33
0.0
  0
POINT
  5
A4
100
AcDbEntity
  8
DEFPOINTS
  6
BYBLOCK
 62
     0
100
AcDbPoint
 10
2973.047207
 20
-730.542705
 30
0.0
  0
POINT
  5
A5
100
AcDbEntity
  8
DEFPOINTS
  6
BYBLOCK
 62
     0
100
AcDbPoint
 10
2966.925659
 20
-727.289452
 30
0.0
  0
POINT
  5
A6
100
AcDbEntity
  8
DEFPOINTS
  6
BYBLOCK
 62
     0
100
AcDbPoint
 10
2998.822675
 20
-667.26982
 30
0.0
  0
ENDBLK
  5
A8
100
AcDbEntity
  8
0
100
AcDbBlockEnd
  0
BLOCK
  5
50
100
AcDbEntity
  8
0
100
AcDbBlockBegin
  2
*D10
 70
     1
 10
0.0
 20
0.0
 30
0.0
  3
*D10
  1

  0
LINE
  5
45
100
AcDbEntity
  8
0
  6
BYBLOCK
100
AcDbLine
 10
2968.333524
 20
-724.640316
 30
0.0
 11
3001.638404
 21
-661.97155
 31
0.0
  0
LINE
  5
46
100
AcDbEntity
  8
0
  6
BYBLOCK
100
AcDbLine
 10
2933.225612
 20
-778.893401
 30
0.0
 11
2996.744976
 21
-659.370971
 31
0.0
  0
LINE
  5
47
100
AcDbEntity
  8
0
  6
BYBLOCK
100
AcDbLine
 10
3012.068351
 20
-674.309143
 30
0.0
 11
3025.314027
 21
-681.348465
 31
0.0
  0
LINE
  5
48
100
AcDbEntity
  8
0
  6
BYBLOCK
100
AcDbLine
 10
2980.68357
 20
-657.629919
 30
0.0
 11
2967.437894
 21
-650.590597
 31
0.0
  0
LINE
  5
49
100
AcDbEntity
  8
0
  6
BYBLOCK
100
AcDbLine
 10
2998.822675
 20
-667.26982
 30
0.0
 11
2993.929247
 21
-664.669242
 31
0.0
  0
SOLID
  5
4A
100
AcDbEntity
  8
0
  6
BYBLOCK
100
AcDbTrace
 10
3013.241571
 20
-672.10153
 30
0.0
 11
3010.895131
 21
-676.516755
 31
0.0
 12
2998.822675
 22
-667.26982
 32
0.0
 13
2998.822675
 23
-667.26982
 33
0.0
  0
SOLID
  5
4B
100
AcDbEntity
  8
0
  6
BYBLOCK
100
AcDbTrace
 10
2981.856791
 20
-655.422307
 30
0.0
 11
2979.51035
 21
-659.837532
 31
0.0
 12
2993.929247
 22
-664.669242
 32
0.0
 13
2993.929247
 23
-664.669242
 33
0.0
  0
MTEXT
  5
4C
100
AcDbEntity
  8
0
  6
BYBLOCK
 62
     5
100
AcDbMText
 10
3003.725013
 20
-652.141045
 30
0.0
 40
19.32
 41
0.0
 71
     5
 72
     1
  1
\A1;2x6
 11
0.883045
 21
-0.469288
 31
0.0
  0
POINT
  5
4D
100
AcDbEntity
  8
DEFPOINTS
  6
BYBLOCK
 62
     0
100
AcDbPoint
 10
2966.925659
 20
-727.289452
 30
0.0
  0
POINT
  5
4E
100
AcDbEntity
  8
DEFPOINTS
  6
BYBLOCK
 62
     0
100
AcDbPoint
 10
2931.817748
 20
-781.542536
 30
0.0
  0
POINT
  5
4F
100
AcDbEntity
  8
DEFPOINTS
  6
BYBLOCK
 62
     0
100
AcDbPoint
 10
2993.929247
 20
-664.669242
 30
0.0
  0
ENDBLK
  5
51
100
AcDbEntity
  8
0
100
AcDbBlockEnd
  0
BLOCK
  5
99
100
AcDbEntity
  8
0
100
AcDbBlockBegin
  2
*D11
 70
     1
 10
0.0
 20
0.0
 30
0.0
  3
*D11
  1

  0
LINE
  5
8E
100
AcDbEntity
  8
0
  6
BYBLOCK
100
AcDbLine
 10
2983.680136
 20
-713.543468
 30
0.0
 11
2983.680136
 21
-807.542274
 31
0.0
  0
LINE
  5
8F
100
AcDbEntity
  8
0
  6
BYBLOCK
100
AcDbLine
 10
3013.682673
 20
-713.543468
 30
0.0
 11
3013.682673
 21
-807.542274
 31
0.0
  0
LINE
  5
90
100
AcDbEntity
  8
0
  6
BYBLOCK
100
AcDbLine
 10
2968.680136
 20
-801.542274
 30
0.0
 11
2953.680136
 21
-801.542274
 31
0.0
  0
LINE
  5
91
100
AcDbEntity
  8
0
  6
BYBLOCK
100
AcDbLine
 10
3028.682673
 20
-801.542274
 30
0.0
 11
3043.682673
 21
-801.542274
 31
0.0
  0
LINE
  5
92
100
AcDbEntity
  8
0
  6
BYBLOCK
100
AcDbLine
 10
2983.680136
 20
-801.542274
 30
0.0
 11
3013.682673
 21
-801.542274
 31
0.0
  0
SOLID
  5
93
100
AcDbEntity
  8
0
  6
BYBLOCK
100
AcDbTrace
 10
2968.680136
 20
-799.042274
 30
0.0
 11
2968.680136
 21
-804.042274
 31
0.0
 12
2983.680136
 22
-801.542274
 32
0.0
 13
2983.680136
 23
-801.542274
 33
0.0
  0
SOLID
  5
94
100
AcDbEntity
  8
0
  6
BYBLOCK
100
AcDbTrace
 10
3028.682673
 20
-799.042274
 30
0.0
 11
3028.682673
 21
-804.042274
 31
0.0
 12
3013.682673
 22
-801.542274
 32
0.0
 13
3013.682673
 23
-801.542274
 33
0.0
  0
MTEXT
  5
95
100
AcDbEntity
  8
0
  6
BYBLOCK
 62
     5
100
AcDbMText
 10
2998.681404
 20
-785.882274
 30
0.0
 40
19.32
 41
0.0
 71
     5
 72
     1
  1
\A1;30
  0
POINT
  5
96
100
AcDbEntity
  8
DEFPOINTS
  6
BYBLOCK
 62
     0
100
AcDbPoint
 10
2983.680136
 20
-710.543468
 30
0.0
  0
POINT
  5
97
100
AcDbEntity
  8
DEFPOINTS
  6
BYBLOCK
 62
     0
100
AcDbPoint
 10
3013.682673
 20
-710.543468
 30
0.0
  0
POINT
  5
98
100
AcDbEntity
  8
DEFPOINTS
  6
BYBLOCK
 62
     0
100
AcDbPoint
 10
3013.682673
 20
-801.542274
 30
0.0
  0
ENDBLK
  5
9A
100
AcDbEntity
  8
0
100
AcDbBlockEnd
  0
BLOCK
  5
8A
100
AcDbEntity
  8
0
100
AcDbBlockBegin
  2
*D12
 70
     1
 10
0.0
 20
0.0
 30
0.0
  3
*D12
  1

  0
LINE
  5
7E
100
AcDbEntity
  8
0
  6
BYBLOCK
100
AcDbLine
 10
3013.682673
 20
-713.543468
 30
0.0
 11
3013.682673
 21
-807.542274
 31
0.0
  0
LINE
  5
7F
100
AcDbEntity
  8
0
  6
BYBLOCK
100
AcDbLine
 10
3033.680374
 20
-713.543468
 30
0.0
 11
3033.680374
 21
-807.542274
 31
0.0
  0
LINE
  5
80
100
AcDbEntity
  8
0
  6
BYBLOCK
100
AcDbLine
 10
2998.682673
 20
-801.542274
 30
0.0
 11
2983.682673
 21
-801.542274
 31
0.0
  0
LINE
  5
81
100
AcDbEntity
  8
0
  6
BYBLOCK
100
AcDbLine
 10
3048.680374
 20
-801.542274
 30
0.0
 11
3063.680374
 21
-801.542274
 31
0.0
  0
MTEXT
  5
82
100
AcDbEntity
  8
0
  6
BYBLOCK
 62
     5
100
AcDbMText
 10
3023.681523
 20
-821.239132
 30
0.0
 40
19.32
 41
0.0
 71
     5
 72
     1
  1
\A1;20
  0
LINE
  5
83
100
AcDbEntity
  8
0
  6
BYBLOCK
100
AcDbLine
 10
3013.682673
 20
-801.542274
 30
0.0
 11
3033.680374
 21
-801.542274
 31
0.0
  0
LINE
  5
84
100
AcDbEntity
  8
0
  6
BYBLOCK
100
AcDbLine
 10
3013.682673
 20
-801.542274
 30
0.0
 11
3033.680374
 21
-801.542274
 31
0.0
  0
SOLID
  5
85
100
AcDbEntity
  8
0
  6
BYBLOCK
100
AcDbTrace
 10
2998.682673
 20
-799.042274
 30
0.0
 11
2998.682673
 21
-804.042274
 31
0.0
 12
3013.682673
 22
-801.542274
 32
0.0
 13
3013.682673
 23
-801.542274
 33
0.0
  0
SOLID
  5
86
100
AcDbEntity
  8
0
  6
BYBLOCK
100
AcDbTrace
 10
3048.680374
 20
-799.042274
 30
0.0
 11
3048.680374
 21
-804.042274
 31
0.0
 12
3033.680374
 22
-801.542274
 32
0.0
 13
3033.680374
 23
-801.542274
 33
0.0
  0
POINT
  5
87
100
AcDbEntity
  8
DEFPOINTS
  6
BYBLOCK
 62
     0
100
AcDbPoint
 10
3013.682673
 20
-710.543468
 30
0.0
  0
POINT
  5
88
100
AcDbEntity
  8
DEFPOINTS
  6
BYBLOCK
 62
     0
100
AcDbPoint
 10
3033.680374
 20
-710.543468
 30
0.0
  0
POINT
  5
89
100
AcDbEntity
  8
DEFPOINTS
  6
BYBLOCK
 62
     0
100
AcDbPoint
 10
3033.680374
 20
-801.542274
 30
0.0
  0
ENDBLK
  5
8B
100
AcDbEntity
  8
0
100
AcDbBlockEnd
  0
BLOCK
  5
D5
100
AcDbEntity
  8
0
100
AcDbBlockBegin
  2
*D13
 70
     1
 10
0.0
 20
0.0
 30
0.0
  3
*D13
  1

  0
LINE
  5
CA
100
AcDbEntity
  8
0
  6
BYBLOCK
100
AcDbLine
 10
3033.680374
 20
-713.543468
 30
0.0
 11
3033.680374
 21
-807.542274
 31
0.0
  0
LINE
  5
CB
100
AcDbEntity
  8
0
  6
BYBLOCK
100
AcDbLine
 10
3073.675887
 20
-713.543468
 30
0.0
 11
3073.675887
 21
-807.542274
 31
0.0
  0
LINE
  5
CC
100
AcDbEntity
  8
0
  6
BYBLOCK
100
AcDbLine
 10
3018.680374
 20
-801.542274
 30
0.0
 11
3003.680374
 21
-801.542274
 31
0.0
  0
LINE
  5
CD
100
AcDbEntity
  8
0
  6
BYBLOCK
100
AcDbLine
 10
3088.675887
 20
-801.542274
 30
0.0
 11
3103.675887
 21
-801.542274
 31
0.0
  0
LINE
  5
CE
100
AcDbEntity
  8
0
  6
BYBLOCK
100
AcDbLine
 10
3033.680374
 20
-801.542274
 30
0.0
 11
3073.675887
 21
-801.542274
 31
0.0
  0
SOLID
  5
CF
100
AcDbEntity
  8
0
  6
BYBLOCK
100
AcDbTrace
 10
3018.680374
 20
-799.042274
 30
0.0
 11
3018.680374
 21
-804.042274
 31
0.0
 12
3033.680374
 22
-801.542274
 32
0.0
 13
3033.680374
 23
-801.542274
 33
0.0
  0
SOLID
  5
D0
100
AcDbEntity
  8
0
  6
BYBLOCK
100
AcDbTrace
 10
3088.675887
 20
-799.042274
 30
0.0
 11
3088.675887
 21
-804.042274
 31
0.0
 12
3073.675887
 22
-801.542274
 32
0.0
 13
3073.675887
 23
-801.542274
 33
0.0
  0
MTEXT
  5
D1
100
AcDbEntity
  8
0
  6
BYBLOCK
 62
     5
100
AcDbMText
 10
3053.67813
 20
-785.882274
 30
0.0
 40
19.32
 41
0.0
 71
     5
 72
     1
  1
\A1;40
  0
POINT
  5
D2
100
AcDbEntity
  8
DEFPOINTS
  6
BYBLOCK
 62
     0
100
AcDbPoint
 10
3033.680374
 20
-710.543468
 30
0.0
  0
POINT
  5
D3
100
AcDbEntity
  8
DEFPOINTS
  6
BYBLOCK
 62
     0
100
AcDbPoint
 10
3073.675887
 20
-710.543468
 30
0.0
  0
POINT
  5
D4
100
AcDbEntity
  8
DEFPOINTS
  6
BYBLOCK
 62
     0
100
AcDbPoint
 10
3073.675887
 20
-801.542274
 30
0.0
  0
ENDBLK
  5
D6
100
AcDbEntity
  8
0
100
AcDbBlockEnd
  0
BLOCK
  5
C6
100
AcDbEntity
  8
0
100
AcDbBlockBegin
  2
*D14
 70
     1
 10
0.0
 20
0.0
 30
0.0
  3
*D14
  1

  0
LINE
  5
BA
100
AcDbEntity
  8
0
  6
BYBLOCK
100
AcDbLine
 10
3073.675887
 20
-713.543468
 30
0.0
 11
3073.675887
 21
-807.542274
 31
0.0
  0
LINE
  5
BB
100
AcDbEntity
  8
0
  6
BYBLOCK
100
AcDbLine
 10
3093.673588
 20
-713.543468
 30
0.0
 11
3093.673588
 21
-807.542274
 31
0.0
  0
LINE
  5
BC
100
AcDbEntity
  8
0
  6
BYBLOCK
100
AcDbLine
 10
3058.675887
 20
-801.542274
 30
0.0
 11
3043.675887
 21
-801.542274
 31
0.0
  0
LINE
  5
BD
100
AcDbEntity
  8
0
  6
BYBLOCK
100
AcDbLine
 10
3108.673588
 20
-801.542274
 30
0.0
 11
3123.673588
 21
-801.542274
 31
0.0
  0
MTEXT
  5
BE
100
AcDbEntity
  8
0
  6
BYBLOCK
 62
     5
100
AcDbMText
 10
3083.674737
 20
-821.239132
 30
0.0
 40
19.32
 41
0.0
 71
     5
 72
     1
  1
\A1;20
  0
LINE
  5
BF
100
AcDbEntity
  8
0
  6
BYBLOCK
100
AcDbLine
 10
3073.675887
 20
-801.542274
 30
0.0
 11
3093.673588
 21
-801.542274
 31
0.0
  0
LINE
  5
C0
100
AcDbEntity
  8
0
  6
BYBLOCK
100
AcDbLine
 10
3073.675887
 20
-801.542274
 30
0.0
 11
3093.673588
 21
-801.542274
 31
0.0
  0
SOLID
  5
C1
100
AcDbEntity
  8
0
  6
BYBLOCK
100
AcDbTrace
 10
3058.675887
 20
-799.042274
 30
0.0
 11
3058.675887
 21
-804.042274
 31
0.0
 12
3073.675887
 22
-801.542274
 32
0.0
 13
3073.675887
 23
-801.542274
 33
0.0
  0
SOLID
  5
C2
100
AcDbEntity
  8
0
  6
BYBLOCK
100
AcDbTrace
 10
3108.673588
 20
-799.042274
 30
0.0
 11
3108.673588
 21
-804.042274
 31
0.0
 12
3093.673588
 22
-801.542274
 32
0.0
 13
3093.673588
 23
-801.542274
 33
0.0
  0
POINT
  5
C3
100
AcDbEntity
  8
DEFPOINTS
  6
BYBLOCK
 62
     0
100
AcDbPoint
 10
3073.675887
 20
-710.543468
 30
0.0
  0
POINT
  5
C4
100
AcDbEntity
  8
DEFPOINTS
  6
BYBLOCK
 62
     0
100
AcDbPoint
 10
3093.673588
 20
-710.543468
 30
0.0
  0
POINT
  5
C5
100
AcDbEntity
  8
DEFPOINTS
  6
BYBLOCK
 62
     0
100
AcDbPoint
 10
3093.673588
 20
-801.542274
 30
0.0
  0
ENDBLK
  5
C7
100
AcDbEntity
  8
0
100
AcDbBlockEnd
  0
BLOCK
  5
B6
100
AcDbEntity
  8
0
100
AcDbBlockBegin
  2
*D15
 70
     1
 10
0.0
 20
0.0
 30
0.0
  3
*D15
  1

  0
LINE
  5
AB
100
AcDbEntity
  8
0
  6
BYBLOCK
100
AcDbLine
 10
3093.673588
 20
-713.543468
 30
0.0
 11
3093.673588
 21
-807.542274
 31
0.0
  0
LINE
  5
AC
100
AcDbEntity
  8
0
  6
BYBLOCK
100
AcDbLine
 10
3123.676125
 20
-713.543468
 30
0.0
 11
3123.676125
 21
-807.542274
 31
0.0
  0
LINE
  5
AD
100
AcDbEntity
  8
0
  6
BYBLOCK
100
AcDbLine
 10
3078.673588
 20
-801.542274
 30
0.0
 11
3063.673588
 21
-801.542274
 31
0.0
  0
LINE
  5
AE
100
AcDbEntity
  8
0
  6
BYBLOCK
100
AcDbLine
 10
3138.676125
 20
-801.542274
 30
0.0
 11
3153.676125
 21
-801.542274
 31
0.0
  0
LINE
  5
AF
100
AcDbEntity
  8
0
  6
BYBLOCK
100
AcDbLine
 10
3093.673588
 20
-801.542274
 30
0.0
 11
3123.676125
 21
-801.542274
 31
0.0
  0
SOLID
  5
B0
100
AcDbEntity
  8
0
  6
BYBLOCK
100
AcDbTrace
 10
3078.673588
 20
-799.042274
 30
0.0
 11
3078.673588
 21
-804.042274
 31
0.0
 12
3093.673588
 22
-801.542274
 32
0.0
 13
3093.673588
 23
-801.542274
 33
0.0
  0
SOLID
  5
B1
100
AcDbEntity
  8
0
  6
BYBLOCK
100
AcDbTrace
 10
3138.676125
 20
-799.042274
 30
0.0
 11
3138.676125
 21
-804.042274
 31
0.0
 12
3123.676125
 22
-801.542274
 32
0.0
 13
3123.676125
 23
-801.542274
 33
0.0
  0
MTEXT
  5
B2
100
AcDbEntity
  8
0
  6
BYBLOCK
 62
     5
100
AcDbMText
 10
3108.674856
 20
-785.882274
 30
0.0
 40
19.32
 41
0.0
 71
     5
 72
     1
  1
\A1;30
  0
POINT
  5
B3
100
AcDbEntity
  8
DEFPOINTS
  6
BYBLOCK
 62
     0
100
AcDbPoint
 10
3093.673588
 20
-710.543468
 30
0.0
  0
POINT
  5
B4
100
AcDbEntity
  8
DEFPOINTS
  6
BYBLOCK
 62
     0
100
AcDbPoint
 10
3123.676125
 20
-710.543468
 30
0.0
  0
POINT
  5
B5
100
AcDbEntity
  8
DEFPOINTS
  6
BYBLOCK
 62
     0
100
AcDbPoint
 10
3123.676125
 20
-801.542274
 30
0.0
  0
ENDBLK
  5
B7
100
AcDbEntity
  8
0
100
AcDbBlockEnd
  0
BLOCK
  5
2D
100
AcDbEntity
  8
0
100
AcDbBlockBegin
  2
*D16
 70
     1
 10
0.0
 20
0.0
 30
0.0
  3
*D16
  1

  0
LINE
  5
21
100
AcDbEntity
  8
0
  6
BYBLOCK
100
AcDbLine
 10
3226.180478
 20
-804.542274
 30
0.0
 11
3226.180478
 21
-867.542274
 31
0.0
  0
LINE
  5
22
100
AcDbEntity
  8
0
  6
BYBLOCK
100
AcDbLine
 10
3186.172745
 20
-804.542274
 30
0.0
 11
3186.172745
 21
-867.542274
 31
0.0
  0
LINE
  5
23
100
AcDbEntity
  8
0
  6
BYBLOCK
100
AcDbLine
 10
3241.180478
 20
-861.542274
 30
0.0
 11
3256.180478
 21
-861.542274
 31
0.0
  0
LINE
  5
24
100
AcDbEntity
  8
0
  6
BYBLOCK
100
AcDbLine
 10
3171.172745
 20
-861.542274
 30
0.0
 11
3156.172745
 21
-861.542274
 31
0.0
  0
LINE
  5
25
100
AcDbEntity
  8
0
  6
BYBLOCK
100
AcDbLine
 10
3226.180478
 20
-861.542274
 30
0.0
 11
3186.172745
 21
-861.542274
 31
0.0
  0
SOLID
  5
26
100
AcDbEntity
  8
0
  6
BYBLOCK
100
AcDbTrace
 10
3241.180478
 20
-859.042274
 30
0.0
 11
3241.180478
 21
-864.042274
 31
0.0
 12
3226.180478
 22
-861.542274
 32
0.0
 13
3226.180478
 23
-861.542274
 33
0.0
  0
SOLID
  5
27
100
AcDbEntity
  8
0
  6
BYBLOCK
100
AcDbTrace
 10
3171.172745
 20
-859.042274
 30
0.0
 11
3171.172745
 21
-864.042274
 31
0.0
 12
3186.172745
 22
-861.542274
 32
0.0
 13
3186.172745
 23
-861.542274
 33
0.0
  0
MTEXT
  5
28
100
AcDbEntity
  8
0
  6
BYBLOCK
 62
     5
100
AcDbMText
 10
3206.176611
 20
-845.882274
 30
0.0
 40
19.32
 41
0.0
 71
     5
 72
     1
  1
\A1;40
  0
POINT
  5
29
100
AcDbEntity
  8
DEFPOINTS
  6
BYBLOCK
 62
     0
100
AcDbPoint
 10
3226.180478
 20
-801.542274
 30
0.0
  0
POINT
  5
2B
100
AcDbEntity
  8
DEFPOINTS
  6
BYBLOCK
 62
     0
100
AcDbPoint
 10
3186.172745
 20
-801.542274
 30
0.0
  0
POINT
  5
2C
100
AcDbEntity
  8
DEFPOINTS
  6
BYBLOCK
 62
     0
100
AcDbPoint
 10
3186.172745
 20
-861.542274
 30
0.0
  0
ENDBLK
  5
2E
100
AcDbEntity
  8
0
100
AcDbBlockEnd
  0
BLOCK
  5
6D
100
AcDbEntity
  8
0
100
AcDbBlockBegin
  2
*D17
 70
     1
 10
0.0
 20
0.0
 30
0.0
  3
*D17
  1

  0
LINE
  5
61
100
AcDbEntity
  8
0
  6
BYBLOCK
100
AcDbLine
 10
2781.863704
 20
-714.881371
 30
0.0
 11
2887.068723
 21
-714.881371
 31
0.0
  0
LINE
  5
62
100
AcDbEntity
  8
0
  6
BYBLOCK
100
AcDbLine
 10
2821.679163
 20
-710.543468
 30
0.0
 11
2887.068723
 21
-710.543468
 31
0.0
  0
LINE
  5
63
100
AcDbEntity
  8
0
  6
BYBLOCK
100
AcDbLine
 10
2881.068723
 20
-729.881371
 30
0.0
 11
2881.068723
 21
-744.881371
 31
0.0
  0
LINE
  5
64
100
AcDbEntity
  8
0
  6
BYBLOCK
100
AcDbLine
 10
2881.068723
 20
-695.543468
 30
0.0
 11
2881.068723
 21
-680.543468
 31
0.0
  0
MTEXT
  5
65
100
AcDbEntity
  8
0
  6
BYBLOCK
 62
     5
100
AcDbMText
 10
2865.318723
 20
-701.340852
 30
0.0
 40
19.32
 41
0.0
 71
     5
 72
     1
  1
\A1;5
 11
0.0
 21
1.0
 31
0.0
  0
LINE
  5
66
100
AcDbEntity
  8
0
  6
BYBLOCK
100
AcDbLine
 10
2881.068723
 20
-714.881371
 30
0.0
 11
2881.068723
 21
-710.543468
 31
0.0
  0
LINE
  5
67
100
AcDbEntity
  8
0
  6
BYBLOCK
100
AcDbLine
 10
2881.068723
 20
-714.881371
 30
0.0
 11
2881.068723
 21
-710.543468
 31
0.0
  0
SOLID
  5
68
100
AcDbEntity
  8
0
  6
BYBLOCK
100
AcDbTrace
 10
2878.568723
 20
-729.881371
 30
0.0
 11
2883.568723
 21
-729.881371
 31
0.0
 12
2881.068723
 22
-714.881371
 32
0.0
 13
2881.068723
 23
-714.881371
 33
0.0
  0
SOLID
  5
69
100
AcDbEntity
  8
0
  6
BYBLOCK
100
AcDbTrace
 10
2878.568723
 20
-695.543468
 30
0.0
 11
2883.568723
 21
-695.543468
 31
0.0
 12
2881.068723
 22
-710.543468
 32
0.0
 13
2881.068723
 23
-710.543468
 33
0.0
  0
POINT
  5
6A
100
AcDbEntity
  8
DEFPOINTS
  6
BYBLOCK
 62
     0
100
AcDbPoint
 10
2778.863704
 20
-714.881371
 30
0.0
  0
POINT
  5
6B
100
AcDbEntity
  8
DEFPOINTS
  6
BYBLOCK
 62
     0
100
AcDbPoint
 10
2818.679163
 20
-710.543468
 30
0.0
  0
POINT
  5
6C
100
AcDbEntity
  8
DEFPOINTS
  6
BYBLOCK
 62
     0
100
AcDbPoint
 10
2881.068723
 20
-710.543468
 30
0.0
  0
ENDBLK
  5
6E
100
AcDbEntity
  8
0
100
AcDbBlockEnd
  0
BLOCK
  5
111
100
AcDbEntity
  8
0
100
AcDbBlockBegin
  2
*D18
 70
     1
 10
0.0
 20
0.0
 30
0.0
  3
*D18
  1

  0
LINE
  5
106
100
AcDbEntity
  8
0
  6
BYBLOCK
100
AcDbLine
 10
3229.180478
 20
-801.542274
 30
0.0
 11
3384.578676
 21
-801.542274
 31
0.0
  0
LINE
  5
107
100
AcDbEntity
  8
0
  6
BYBLOCK
100
AcDbLine
 10
3238.223143
 20
-778.893704
 30
0.0
 11
3300.544923
 21
-661.685496
 31
0.0
  0
ARC
  5
108
100
AcDbEntity
  8
0
  6
BYBLOCK
100
AcDbCircle
 10
3226.180478
 20
-801.542274
 30
0.0
 40
152.398198
100
AcDbArc
 50
5.641694
 51
56.357898
  0
SOLID
  5
109
100
AcDbEntity
  8
0
  6
BYBLOCK
100
AcDbTrace
 10
3380.337449
 20
-786.437417
 30
0.0
 11
3375.343507
 21
-786.683483
 31
0.0
 12
3378.578676
 22
-801.542274
 32
0.0
 13
3378.578676
 23
-801.542274
 33
0.0
  0
SOLID
  5
10A
100
AcDbEntity
  8
0
  6
BYBLOCK
100
AcDbTrace
 10
3309.328701
 20
-676.815509
 30
0.0
 11
3311.890508
 21
-672.521659
 31
0.0
 12
3297.728056
 22
-666.983162
 32
0.0
 13
3297.728056
 23
-666.983162
 33
0.0
  0
MTEXT
  5
10B
100
AcDbEntity
  8
0
  6
BYBLOCK
 62
     5
100
AcDbMText
 10
3392.480853
 20
-766.527927
 30
0.0
 40
19.32
 41
0.0
 71
     5
 72
     1
  1
\A1;61,76°
 11
0.206032
 21
-0.978545
 31
0.0
  0
POINT
  5
10C
100
AcDbEntity
  8
DEFPOINTS
  6
BYBLOCK
 62
     0
100
AcDbPoint
 10
3340.61372
 20
-700.893162
 30
0.0
  0
POINT
  5
10D
100
AcDbEntity
  8
DEFPOINTS
  6
BYBLOCK
 62
     0
100
AcDbPoint
 10
3236.81471
 20
-781.542536
 30
0.0
  0
POINT
  5
10E
100
AcDbEntity
  8
DEFPOINTS
  6
BYBLOCK
 62
     0
100
AcDbPoint
 10
3226.180478
 20
-801.542274
 30
0.0
  0
POINT
  5
10F
100
AcDbEntity
  8
DEFPOINTS
  6
BYBLOCK
 62
     0
100
AcDbPoint
 10
3206.176611
 20
-801.542274
 30
0.0
  0
POINT
  5
110
100
AcDbEntity
  8
DEFPOINTS
  6
BYBLOCK
 62
     0
100
AcDbPoint
 10
3226.180478
 20
-801.542274
 30
0.0
  0
ENDBLK
  5
112
100
AcDbEntity
  8
0
100
AcDbBlockEnd
  0
BLOCK
  5
121
100
AcDbEntity
  8
0
100
AcDbBlockBegin
  2
*D19
 70
     1
 10
0.0
 20
0.0
 30
0.0
  3
*D19
  1

  0
LINE
  5
117
100
AcDbEntity
  8
0
  6
BYBLOCK
100
AcDbLine
 10
3250.675952
 20
-769.58288
 30
0.0
 11
3280.863244
 21
-743.536899
 31
0.0
  0
ARC
  5
118
100
AcDbEntity
  8
0
  6
BYBLOCK
100
AcDbCircle
 10
3236.81471
 20
-781.542536
 30
0.0
 40
52.178191
100
AcDbArc
 50
16.528438
 51
24.259606
  0
SOLID
  5
119
100
AcDbEntity
  8
0
  6
BYBLOCK
100
AcDbTrace
 10
3289.310866
 20
-766.338955
 30
0.0
 11
3284.362788
 21
-767.057646
 31
0.0
 12
3288.9929
 22
-781.542536
 32
0.0
 13
3288.9929
 23
-781.542536
 33
0.0
  0
SOLID
  5
11A
100
AcDbEntity
  8
0
  6
BYBLOCK
100
AcDbTrace
 10
3282.27729
 20
-761.448119
 30
0.0
 11
3286.493129
 21
-758.759868
 31
0.0
 12
3276.320455
 22
-747.456475
 32
0.0
 13
3276.320455
 23
-747.456475
 33
0.0
  0
MTEXT
  5
11B
100
AcDbEntity
  8
0
  6
BYBLOCK
 62
     5
100
AcDbMText
 10
3306.885474
 20
-762.14385
 30
0.0
 40
19.32
 41
0.0
 71
     5
 72
     1
  1
\A1;39,39°
 11
0.266809
 21
-0.96375
 31
0.0
  0
POINT
  5
11C
100
AcDbEntity
  8
DEFPOINTS
  6
BYBLOCK
 62
     0
100
AcDbPoint
 10
3283.226164
 20
-757.69845
 30
0.0
  0
POINT
  5
11D
100
AcDbEntity
  8
DEFPOINTS
  6
BYBLOCK
 62
     0
100
AcDbPoint
 10
3248.404558
 20
-771.542668
 30
0.0
  0
POINT
  5
11E
100
AcDbEntity
  8
DEFPOINTS
  6
BYBLOCK
 62
     0
100
AcDbPoint
 10
3236.81471
 20
-781.542536
 30
0.0
  0
POINT
  5
11F
100
AcDbEntity
  8
DEFPOINTS
  6
BYBLOCK
 62
     0
100
AcDbPoint
 10
3292.496795
 20
-781.542536
 30
0.0
  0
POINT
  5
120
100
AcDbEntity
  8
DEFPOINTS
  6
BYBLOCK
 62
     0
100
AcDbPoint
 10
3236.81471
 20
-781.542536
 30
0.0
  0
ENDBLK
  5
122
100
AcDbEntity
  8
0
100
AcDbBlockEnd
  0
ENDSEC
  0
SECTION
  2
ENTITIES
  0
MTEXT
  5
1E
100
AcDbEntity
  8
KOTY-UPLNE
  6
BYBLOCK
 62
     5
100
AcDbMText
 10
731.501127
 20
-85.198963
 30
0.0
 40
16.5
 41
0.0
 71
     5
 72
     1
  1
všechna zaoblení R=5
  0
DIMENSION
  5
1F
100
AcDbEntity
  8
KOTY-UPLNE
100
AcDbDimension
  2
*D16
 10
742.845355
 20
-298.884928
 30
0.0
 11
762.849221
 21
-283.224928
 31
0.0
 12
-2443.32739
 22
562.657346
 32
0.0
  3
UPLNE
100
AcDbAlignedDimension
 13
782.853088
 23
-238.884928
 33
0.0
 14
742.845355
 24
-238.884928
 34
0.0
100
AcDbRotatedDimension
1001
ACAD
1000
DSTYLE
1002
{
1070
    40
1040
3.0
1070
   147
1040
2.0
1002
}
  0
DIMENSION
  5
2F
100
AcDbEntity
  8
KOTY-UPLNE
100
AcDbDimension
  2
*D2
 10
1067.846183
 20
-358.884928
 30
0.0
 11
610.35074
 21
-343.224928
 31
0.0
 12
-2443.32739
 22
562.657346
 32
0.0
  3
UPLNE
100
AcDbAlignedDimension
 13
152.855297
 23
-238.884928
 33
0.0
 14
1067.846183
 24
-238.884928
 34
0.0
100
AcDbRotatedDimension
1001
ACAD
1000
DSTYLE
1002
{
1070
    40
1040
3.0
1070
   147
1040
2.0
1002
}
  0
LWPOLYLINE
  5
3C
100
AcDbEntity
  8
TRAPEZ-VELKY
100
AcDbPolyline
 90
      119
 70
     0
 43
5.0
 10
1092.103742
 20
-230.885033
 10
1088.978403
 20
-236.76284
 42
-0.277323
 10
1085.446626
 20
-238.884928
 10
1067.846183
 20
-238.884928
 10
1050.24574
 20
-238.884928
 42
-0.277323
 10
1046.713963
 20
-236.76284
 10
1037.559723
 20
-219.546513
 42
0.092818
 10
1036.640996
 20
-218.395899
 10
1026.185663
 20
-209.374904
 42
-0.092872
 10
1025.266533
 20
-208.223531
 10
1009.556034
 20
-178.661569
 42
0.108599
 10
1008.443358
 20
-177.353443
 10
996.678429
 20
-168.416923
 42
-0.108555
 10
995.566081
 20
-167.109413
 10
986.474017
 20
-150.008353
 42
0.277334
 10
982.942164
 20
-147.886122
 10
956.288083
 20
-147.886122
 42
0.116512
 10
954.498125
 20
-148.308965
 10
947.290948
 20
-151.915334
 42
-0.232261
 10
943.765081
 20
-151.941873
 10
936.168176
 20
-148.282426
 42
0.112699
 10
934.432267
 20
-147.886122
 10
915.347702
 20
-147.886122
 10
896.263138
 20
-147.886122
 42
0.112699
 10
894.527229
 20
-148.282426
 10
886.930324
 20
-151.941873
 42
-0.232261
 10
883.404457
 20
-151.915334
 10
876.19728
 20
-148.308965
 42
0.116512
 10
874.407321
 20
-147.886122
 10
847.753241
 20
-147.886122
 42
0.277334
 10
844.221388
 20
-150.008353
 10
835.129323
 20
-167.109413
 42
-0.108555
 10
834.016975
 20
-168.416923
 10
822.252046
 20
-177.353443
 42
0.108599
 10
821.139371
 20
-178.661569
 10
805.428872
 20
-208.223531
 42
-0.092872
 10
804.509742
 20
-209.374904
 10
794.054408
 20
-218.395899
 42
0.092818
 10
793.135682
 20
-219.546513
 10
783.981441
 20
-236.76284
 42
-0.277323
 10
780.449664
 20
-238.884928
 10
762.849221
 20
-238.884928
 10
745.248778
 20
-238.884928
 42
-0.277323
 10
741.717001
 20
-236.76284
 10
732.562761
 20
-219.546513
 42
0.092818
 10
731.644034
 20
-218.395899
 10
721.188701
 20
-209.374904
 42
-0.092872
 10
720.269571
 20
-208.223531
 10
704.559072
 20
-178.661569
 42
0.108599
 10
703.446396
 20
-177.353443
 10
691.681467
 20
-168.416923
 42
-0.108555
 10
690.569119
 20
-167.109413
 10
681.477055
 20
-150.008353
 42
0.277334
 10
677.945202
 20
-147.886122
 10
651.291121
 20
-147.886122
 42
0.116512
 10
649.501163
 20
-148.308965
 10
642.293986
 20
-151.915334
 42
-0.232261
 10
638.768119
 20
-151.941873
 10
631.171214
 20
-148.282426
 42
0.112699
 10
629.435305
 20
-147.886122
 10
610.35074
 20
-147.886122
 10
591.266176
 20
-147.886122
 42
0.112699
 10
589.530267
 20
-148.282426
 10
581.933362
 20
-151.941873
 42
-0.232261
 10
578.407495
 20
-151.915334
 10
571.200318
 20
-148.308965
 42
0.116512
 10
569.410359
 20
-147.886122
 10
542.756279
 20
-147.886122
 42
0.277334
 10
539.224426
 20
-150.008353
 10
530.132361
 20
-167.109413
 42
-0.108555
 10
529.020013
 20
-168.416923
 10
517.255084
 20
-177.353443
 42
0.108599
 10
516.142409
 20
-178.661569
 10
500.431909
 20
-208.223531
 42
-0.092872
 10
499.51278
 20
-209.374904
 10
489.057446
 20
-218.395899
 42
0.092818
 10
488.13872
 20
-219.546513
 10
478.984479
 20
-236.76284
 42
-0.277323
 10
475.452702
 20
-238.884928
 10
457.852259
 20
-238.884928
 10
440.251816
 20
-238.884928
 42
-0.277323
 10
436.720039
 20
-236.76284
 10
427.565798
 20
-219.546513
 42
0.092818
 10
426.647072
 20
-218.395899
 10
416.191739
 20
-209.374904
 42
-0.092872
 10
415.272609
 20
-208.223531
 10
399.56211
 20
-178.661569
 42
0.108599
 10
398.449434
 20
-177.353443
 10
386.684505
 20
-168.416923
 42
-0.108555
 10
385.572157
 20
-167.109413
 10
376.480092
 20
-150.008353
 42
0.277334
 10
372.94824
 20
-147.886122
 10
346.294159
 20
-147.886122
 42
0.116512
 10
344.504201
 20
-148.308965
 10
337.297024
 20
-151.915334
 42
-0.232261
 10
333.771157
 20
-151.941873
 10
326.174251
 20
-148.282426
 42
0.112699
 10
324.438343
 20
-147.886122
 10
305.353778
 20
-147.886122
 10
286.269214
 20
-147.886122
 42
0.112699
 10
284.533305
 20
-148.282426
 10
276.9364
 20
-151.941873
 42
-0.232261
 10
273.410533
 20
-151.915334
 10
266.203356
 20
-148.308965
 42
0.116512
 10
264.413397
 20
-147.886122
 10
237.759317
 20
-147.886122
 42
0.277334
 10
234.227464
 20
-150.008353
 10
225.135399
 20
-167.109413
 42
-0.108555
 10
224.023051
 20
-168.416923
 10
212.258122
 20
-177.353443
 42
0.108599
 10
211.145446
 20
-178.661569
 10
195.434947
 20
-208.223531
 42
-0.092872
 10
194.515818
 20
-209.374904
 10
184.060484
 20
-218.395899
 42
0.092818
 10
183.141758
 20
-219.546513
 10
173.987517
 20
-236.76284
 42
-0.277323
 10
170.45574
 20
-238.884928
 10
152.855297
 20
-238.884928
 10
142.855297
 20
-238.884928
  0
MTEXT
  5
3E
100
AcDbEntity
  8
POPIS
100
AcDbMText
 10
661.730741
 20
-42.124031
 30
0.0
 40
40.0
 41
1.0
 71
     5
 72
     1
  1
TR 89/305
  7
STYLE1
  0
LWPOLYLINE
  5
41
100
AcDbEntity
  8
RAMEC
100
AcDbPolyline
 90
        4
 70
     1
 43
0.0
 10
0.0
 20
0.0
 10
0.0
 20
-408.001233
 10
1349.672502
 20
-408.001233
 10
1349.672502
 20
0.0
  0
DIMENSION
  5
43
100
AcDbEntity
  8
KOTY-UPLNE
100
AcDbDimension
  2
*D10
 10
550.601857
 20
-102.011896
 30
0.0
 11
560.397623
 21
-89.483699
 31
0.0
 12
-2443.32739
 22
562.657346
 32
0.0
  1
2x6
  3
UPLNE
100
AcDbAlignedDimension
 13
523.598269
 23
-164.632105
 33
0.0
 14
488.490357
 24
-218.88519
 34
0.0
 50
332.0119
100
AcDbRotatedDimension
1001
ACAD
1000
DSTYLE
1002
{
1070
    40
1040
3.0
1070
   147
1040
2.0
1002
}
  0
DIMENSION
  5
52
100
AcDbEntity
  8
KOTY-UPLNE
100
AcDbDimension
  2
*D0
 10
375.351773
 20
-100.174478
 30
0.0
 11
305.353778
 21
-84.514478
 31
0.0
 12
-2443.32739
 22
562.657346
 32
0.0
  3
UPLNE
100
AcDbAlignedDimension
 13
235.355784
 23
-147.886122
 33
0.0
 14
375.351773
 24
-147.886122
 34
0.0
100
AcDbRotatedDimension
1001
ACAD
1000
DSTYLE
1002
{
1070
    40
1040
3.0
1070
   147
1040
2.0
1002
}
  0
DIMENSION
  5
5F
100
AcDbEntity
  8
KOTY-UPLNE
100
AcDbDimension
  2
*D17
 10
437.741333
 20
-147.886122
 30
0.0
 11
421.991333
 21
-138.683506
 31
0.0
 12
-2443.32739
 22
562.657346
 32
0.0
 70
   128
  1
5
  3
UPLNE
100
AcDbAlignedDimension
 13
335.536314
 23
-152.224025
 33
0.0
 14
375.351773
 24
-147.886122
 34
0.0
 50
90.0
100
AcDbRotatedDimension
1001
ACAD
1000
DSTYLE
1002
{
1070
    40
1040
3.0
1070
   147
1040
2.0
1002
}
  0
DIMENSION
  5
6F
100
AcDbEntity
  8
KOTY-UPLNE
100
AcDbDimension
  2
*D1
 10
457.852259
 20
-298.884928
 30
0.0
 11
305.353778
 21
-283.224928
 31
0.0
 12
-2443.32739
 22
562.657346
 32
0.0
  3
UPLNE
100
AcDbAlignedDimension
 13
152.855297
 23
-238.884928
 33
0.0
 14
457.852259
 24
-238.884928
 34
0.0
100
AcDbRotatedDimension
1001
ACAD
1000
DSTYLE
1002
{
1070
    40
1040
3.0
1070
   147
1040
2.0
1002
}
  0
DIMENSION
  5
7C
100
AcDbEntity
  8
KOTY-UPLNE
100
AcDbDimension
  2
*D12
 10
590.352984
 20
-238.884928
 30
0.0
 11
580.354133
 21
-258.581786
 31
0.0
 12
-2443.32739
 22
562.657346
 32
0.0
 70
   128
  3
UPLNE
100
AcDbAlignedDimension
 13
570.355283
 23
-147.886122
 33
0.0
 14
590.352984
 24
-147.886122
 34
0.0
100
AcDbRotatedDimension
1001
ACAD
1000
DSTYLE
1002
{
1070
    40
1040
3.0
1070
   147
1040
2.0
1002
}
  0
DIMENSION
  5
8C
100
AcDbEntity
  8
KOTY-UPLNE
100
AcDbDimension
  2
*D11
 10
570.355283
 20
-238.884928
 30
0.0
 11
555.354014
 21
-223.224928
 31
0.0
 12
-2443.32739
 22
562.657346
 32
0.0
  3
UPLNE
100
AcDbAlignedDimension
 13
540.352746
 23
-147.886122
 33
0.0
 14
570.355283
 24
-147.886122
 34
0.0
100
AcDbRotatedDimension
1001
ACAD
1000
DSTYLE
1002
{
1070
    40
1040
3.0
1070
   147
1040
2.0
1002
}
  0
DIMENSION
  5
9B
100
AcDbEntity
  8
KOTY-UPLNE
100
AcDbDimension
  2
*D9
 10
555.495285
 20
-104.612474
 30
0.0
 11
558.556058
 21
-106.239101
 31
0.0
 12
-2443.32739
 22
562.657346
 32
0.0
 70
     1
  1
 
  3
UPLNE
100
AcDbAlignedDimension
 13
529.719817
 23
-167.885359
 33
0.0
 14
523.598269
 24
-164.632105
 34
0.0
1001
ACAD
1000
DSTYLE
1002
{
1070
    40
1040
3.0
1070
   147
1040
2.0
1002
}
  0
DIMENSION
  5
A9
100
AcDbEntity
  8
KOTY-UPLNE
100
AcDbDimension
  2
*D15
 10
680.348735
 20
-238.884928
 30
0.0
 11
665.347466
 21
-223.224928
 31
0.0
 12
-2443.32739
 22
562.657346
 32
0.0
  3
UPLNE
100
AcDbAlignedDimension
 13
650.346197
 23
-147.886122
 33
0.0
 14
680.348735
 24
-147.886122
 34
0.0
100
AcDbRotatedDimension
1001
ACAD
1000
DSTYLE
1002
{
1070
    40
1040
3.0
1070
   147
1040
2.0
1002
}
  0
DIMENSION
  5
B8
100
AcDbEntity
  8
KOTY-UPLNE
100
AcDbDimension
  2
*D14
 10
650.346197
 20
-238.884928
 30
0.0
 11
640.347347
 21
-258.581786
 31
0.0
 12
-2443.32739
 22
562.657346
 32
0.0
 70
   128
  3
UPLNE
100
AcDbAlignedDimension
 13
630.348497
 23
-147.886122
 33
0.0
 14
650.346197
 24
-147.886122
 34
0.0
100
AcDbRotatedDimension
1001
ACAD
1000
DSTYLE
1002
{
1070
    40
1040
3.0
1070
   147
1040
2.0
1002
}
  0
DIMENSION
  5
C8
100
AcDbEntity
  8
KOTY-UPLNE
100
AcDbDimension
  2
*D13
 10
630.348497
 20
-238.884928
 30
0.0
 11
610.35074
 21
-223.224928
 31
0.0
 12
-2443.32739
 22
562.657346
 32
0.0
  3
UPLNE
100
AcDbAlignedDimension
 13
590.352984
 23
-147.886122
 33
0.0
 14
630.348497
 24
-147.886122
 34
0.0
100
AcDbRotatedDimension
1001
ACAD
1000
DSTYLE
1002
{
1070
    40
1040
3.0
1070
   147
1040
2.0
1002
}
  0
DIMENSION
  5
D7
100
AcDbEntity
  8
KOTY-UPLNE
100
AcDbDimension
  2
*D8
 10
1194.183824
 20
-238.884928
 30
0.0
 11
1178.523824
 21
-193.385525
 31
0.0
 12
-2443.32739
 22
562.657346
 32
0.0
  3
UPLNE
100
AcDbAlignedDimension
 13
985.345697
 23
-147.886122
 33
0.0
 14
1087.85005
 24
-238.884928
 34
0.0
 50
90.0
100
AcDbRotatedDimension
1001
ACAD
1000
DSTYLE
1002
{
1070
    40
1040
3.0
1070
   147
1040
2.0
1002
}
  0
DIMENSION
  5
E4
100
AcDbEntity
  8
KOTY-UPLNE
100
AcDbDimension
  2
*D6
 10
1132.801869
 20
-218.88519
 30
0.0
 11
1153.599277
 21
-213.885256
 31
0.0
 12
-2443.32739
 22
562.657346
 32
0.0
 70
   128
  3
UPLNE
100
AcDbAlignedDimension
 13
1025.618237
 23
-208.885322
 33
0.0
 14
1037.208085
 24
-218.88519
 34
0.0
 50
90.0
100
AcDbRotatedDimension
1001
ACAD
1000
DSTYLE
1002
{
1070
    40
1040
3.0
1070
   147
1040
2.0
1002
}
  0
DIMENSION
  5
F4
100
AcDbEntity
  8
KOTY-UPLNE
100
AcDbDimension
  2
*D4
 10
1132.801869
 20
-177.885228
 30
0.0
 11
1153.599277
 21
-172.885294
 31
0.0
 12
-2443.32739
 22
562.657346
 32
0.0
 70
   128
  3
UPLNE
100
AcDbAlignedDimension
 13
995.978626
 23
-167.885359
 33
0.0
 14
1009.143453
 24
-177.885228
 34
0.0
 50
90.0
100
AcDbRotatedDimension
1001
ACAD
1000
DSTYLE
1002
{
1070
    40
1040
3.0
1070
   147
1040
2.0
1002
}
  0
DIMENSION
  5
104
100
AcDbEntity
  8
KOTY-UPLNE
100
AcDbDimension
  2
*D18
 10
782.853088
 20
-238.884928
 30
0.0
 11
949.153463
 21
-203.870581
 31
0.0
 12
-2443.32739
 22
562.657346
 32
0.0
 70
   130
  1
61,76%%d
  3
UPLNE
100
AcDb2LineAngularDimension
 13
782.853088
 23
-238.884928
 33
0.0
 14
762.849221
 24
-238.884928
 34
0.0
 15
793.487319
 25
-218.88519
 35
0.0
 16
897.286329
 26
-138.235816
 36
0.0
1001
ACAD
1000
DSTYLE
1002
{
1070
    40
1040
3.0
1070
   147
1040
2.0
1002
}
  0
MTEXT
  5
113
100
AcDbEntity
  8
POZICE
100
AcDbMText
 10
864.32223
 20
-289.603357
 30
0.0
 40
41.73
 41
1.0
 71
     5
 72
     1
  1
B
  7
STYLE1
  0
DIMENSION
  5
115
100
AcDbEntity
  8
KOTY-UPLNE
100
AcDbDimension
  2
*D19
 10
793.487319
 20
-218.88519
 30
0.0
 11
863.558084
 21
-199.486504
 31
0.0
 12
-2443.32739
 22
562.657346
 32
0.0
 70
   130
  1
39,39%%d
  3
UPLNE
100
AcDb2LineAngularDimension
 13
793.487319
 23
-218.88519
 33
0.0
 14
849.169405
 24
-218.88519
 34
0.0
 15
805.077167
 25
-208.885322
 35
0.0
 16
839.898774
 26
-195.041104
 36
0.0
1001
ACAD
1000
DSTYLE
1002
{
1070
    40
1040
3.0
1070
   147
1040
2.0
1002
}
  0
LINE
  5
123
100
AcDbEntity
  8
KOTY-UPLNE
100
AcDbLine
 10
793.487319
 20
-218.88519
 30
0.0
 11
849.169405
 21
-218.88519
 31
0.0
  0
MTEXT
  5
124
100
AcDbEntity
  8
POZICE
100
AcDbMText
 10
773.048761
 20
-160.186315
 30
0.0
 40
41.73
 41
1.0
 71
     5
 72
     1
  1
A
  7
STYLE1
  0
DIMENSION
  5
125
100
AcDbEntity
  8
KOTY-UPLNE
100
AcDbDimension
  2
*D7
 10
1132.801869
 20
-238.884928
 30
0.0
 11
1117.051869
 21
-257.714836
 31
0.0
 12
-2443.32739
 22
562.657346
 32
0.0
 70
   128
  3
UPLNE
100
AcDbAlignedDimension
 13
1037.208085
 23
-218.88519
 33
0.0
 14
1047.842317
 24
-238.884928
 34
0.0
 50
90.0
100
AcDbRotatedDimension
1001
ACAD
1000
DSTYLE
1002
{
1070
    40
1040
3.0
1070
   147
1040
2.0
1002
}
  0
DIMENSION
  5
135
100
AcDbEntity
  8
KOTY-UPLNE
100
AcDbDimension
  2
*D5
 10
1132.801869
 20
-208.885322
 30
0.0
 11
1117.141869
 21
-193.385275
 31
0.0
 12
-2443.32739
 22
562.657346
 32
0.0
  3
UPLNE
100
AcDbAlignedDimension
 13
1009.143453
 23
-177.885228
 33
0.0
 14
1025.618237
 24
-208.885322
 34
0.0
 50
90.0
100
AcDbRotatedDimension
1001
ACAD
1000
DSTYLE
1002
{
1070
    40
1040
3.0
1070
   147
1040
2.0
1002
}
  0
DIMENSION
  5
144
100
AcDbEntity
  8
KOTY-UPLNE
100
AcDbDimension
  2
*D3
 10
1132.801869
 20
-167.885359
 30
0.0
 11
1117.051869
 21
-127.277344
 31
0.0
 12
-2443.32739
 22
562.657346
 32
0.0
 70
   128
  3
UPLNE
100
AcDbAlignedDimension
 13
985.345697
 23
-147.886122
 33
0.0
 14
995.978626
 24
-167.885359
 34
0.0
 50
90.0
100
AcDbRotatedDimension
1001
ACAD
1000
DSTYLE
1002
{
1070
    40
1040
3.0
1070
   147
1040
2.0
1002
}
  0
ENDSEC
  0
SECTION
  2
OBJECTS
  0
DICTIONARY
  5
1A
100
AcDbDictionary
  3
ACAD_GROUP
350
18
  3
ACAD_MLINESTYLE
350
19
  0
DICTIONARY
  5
18
102
{ACAD_REACTORS
330
1A
102
}
100
AcDbDictionary
  0
DICTIONARY
  5
19
102
{ACAD_REACTORS
330
1A
102
}
100
AcDbDictionary
  3
STANDARD
350
1C
  0
MLINESTYLE
  5
1C
102
{ACAD_REACTORS
330
19
102
}
100
AcDbMlineStyle
  2
STANDARD
 70
     0
  3

 62
   256
 51
90.0
 52
90.0
 71
     2
 49
0.5
 62
   256
  6
BYLAYER
 49
-0.5
 62
   256
  6
BYLAYER
  0
ENDSEC
  0
EOF
