  0
SECTION
  2
HEADER
  9
$ACADVER
  1
AC1014
  9
$ACADMAINTVER
 70
     0
  9
$DWGCODEPAGE
  3
ANSI_1250
  9
$INSBASE
 10
0.0
 20
0.0
 30
0.0
  9
$EXTMIN
 10
0.0
 20
-404.001233
 30
0.0
  9
$EXTMAX
 10
1349.672502
 20
0.0
 30
0.0
  9
$LIMMIN
 10
-1000.0
 20
-1000.0
  9
$LIMMAX
 10
1000.0
 20
1000.0
  9
$ORTHOMODE
 70
     0
  9
$REGENMODE
 70
     1
  9
$FILLMODE
 70
     1
  9
$QTEXTMODE
 70
     0
  9
$MIRRTEXT
 70
     0
  9
$DRAGMODE
 70
     2
  9
$LTSCALE
 40
3.0
  9
$OSMODE
 70
    32
  9
$ATTMODE
 70
     1
  9
$TEXTSIZE
 40
50.0
  9
$TRACEWID
 40
0.05
  9
$TEXTSTYLE
  7
STANDARD
  9
$CLAYER
  8
KOTY-UPLNE
  9
$CELTYPE
  6
BYLAYER
  9
$CECOLOR
 62
   256
  9
$CELTSCALE
 40
1.0
  9
$DELOBJ
 70
     1
  9
$DISPSILH
 70
     0
  9
$DIMSCALE
 40
3.0
  9
$DIMASZ
 40
5.0
  9
$DIMEXO
 40
1.0
  9
$DIMDLI
 40
0.0
  9
$DIMRND
 40
1.0
  9
$DIMDLE
 40
1.0
  9
$DIMEXE
 40
2.0
  9
$DIMTP
 40
0.0
  9
$DIMTM
 40
0.0
  9
$DIMTXT
 40
6.44
  9
$DIMCEN
 40
1.0
  9
$DIMTSZ
 40
0.0
  9
$DIMTOL
 70
     0
  9
$DIMLIM
 70
     0
  9
$DIMTIH
 70
     0
  9
$DIMTOH
 70
     0
  9
$DIMSE1
 70
     0
  9
$DIMSE2
 70
     0
  9
$DIMTAD
 70
     3
  9
$DIMZIN
 70
     0
  9
$DIMBLK
  1

  9
$DIMASO
 70
     1
  9
$DIMSHO
 70
     0
  9
$DIMPOST
  1

  9
$DIMAPOST
  1

  9
$DIMALT
 70
     0
  9
$DIMALTD
 70
     2
  9
$DIMALTF
 40
25.4
  9
$DIMLFAC
 40
1.0
  9
$DIMTOFL
 70
     1
  9
$DIMTVP
 40
0.0
  9
$DIMTIX
 70
     1
  9
$DIMSOXD
 70
     0
  9
$DIMSAH
 70
     0
  9
$DIMBLK1
  1

  9
$DIMBLK2
  1

  9
$DIMSTYLE
  2
UPLNE
  9
$DIMCLRD
 70
   256
  9
$DIMCLRE
 70
   256
  9
$DIMCLRT
 70
     5
  9
$DIMTFAC
 40
1.0
  9
$DIMGAP
 40
2.0
  9
$DIMJUST
 70
     0
  9
$DIMSD1
 70
     0
  9
$DIMSD2
 70
     0
  9
$DIMTOLJ
 70
     1
  9
$DIMTZIN
 70
     0
  9
$DIMALTZ
 70
     0
  9
$DIMALTTZ
 70
     0
  9
$DIMFIT
 70
     5
  9
$DIMUPT
 70
     0
  9
$DIMUNIT
 70
     2
  9
$DIMDEC
 70
     0
  9
$DIMTDEC
 70
     0
  9
$DIMALTU
 70
     2
  9
$DIMALTTD
 70
     2
  9
$DIMTXSTY
  7
STANDARD
  9
$DIMAUNIT
 70
     0
  9
$LUNITS
 70
     2
  9
$LUPREC
 70
     2
  9
$SKETCHINC
 40
0.1
  9
$FILLETRAD
 40
5.0
  9
$AUNITS
 70
     0
  9
$AUPREC
 70
     2
  9
$MENU
  1
acad
  9
$ELEVATION
 40
0.0
  9
$PELEVATION
 40
0.0
  9
$THICKNESS
 40
0.0
  9
$LIMCHECK
 70
     0
  9
$BLIPMODE
 70
     1
  9
$CHAMFERA
 40
0.0
  9
$CHAMFERB
 40
0.0
  9
$CHAMFERC
 40
0.0
  9
$CHAMFERD
 40
0.0
  9
$SKPOLY
 70
     0
  9
$TDCREATE
 40
2448722.252204629
  9
$TDUPDATE
 40
2452465.893227662
  9
$TDINDWG
 40
2.5235579861
  9
$TDUSRTIMER
 40
2.5235579861
  9
$USRTIMER
 70
     1
  9
$ANGBASE
 50
0.0
  9
$ANGDIR
 70
     0
  9
$PDMODE
 70
     0
  9
$PDSIZE
 40
0.0
  9
$PLINEWID
 40
0.0
  9
$COORDS
 70
     2
  9
$SPLFRAME
 70
     0
  9
$SPLINETYPE
 70
     6
  9
$SPLINESEGS
 70
     8
  9
$ATTDIA
 70
     0
  9
$ATTREQ
 70
     1
  9
$HANDLING
 70
     1
  9
$HANDSEED
  5
FB
  9
$SURFTAB1
 70
     6
  9
$SURFTAB2
 70
     6
  9
$SURFTYPE
 70
     6
  9
$SURFU
 70
     6
  9
$SURFV
 70
     6
  9
$UCSNAME
  2

  9
$UCSORG
 10
0.0
 20
0.0
 30
0.0
  9
$UCSXDIR
 10
1.0
 20
0.0
 30
0.0
  9
$UCSYDIR
 10
0.0
 20
1.0
 30
0.0
  9
$PUCSNAME
  2

  9
$PUCSORG
 10
0.0
 20
0.0
 30
0.0
  9
$PUCSXDIR
 10
1.0
 20
0.0
 30
0.0
  9
$PUCSYDIR
 10
0.0
 20
1.0
 30
0.0
  9
$USERI1
 70
     1
  9
$USERI2
 70
     0
  9
$USERI3
 70
     0
  9
$USERI4
 70
     0
  9
$USERI5
 70
     0
  9
$USERR1
 40
0.0
  9
$USERR2
 40
0.0
  9
$USERR3
 40
0.0
  9
$USERR4
 40
0.0
  9
$USERR5
 40
0.0
  9
$WORLDVIEW
 70
     1
  9
$SHADEDGE
 70
     3
  9
$SHADEDIF
 70
    70
  9
$TILEMODE
 70
     1
  9
$MAXACTVP
 70
    16
  9
$PINSBASE
 10
0.0
 20
0.0
 30
0.0
  9
$PLIMCHECK
 70
     0
  9
$PEXTMIN
 10
1.000000E+20
 20
1.000000E+20
 30
1.000000E+20
  9
$PEXTMAX
 10
-1.000000E+20
 20
-1.000000E+20
 30
-1.000000E+20
  9
$PLIMMIN
 10
0.0
 20
0.0
  9
$PLIMMAX
 10
12.0
 20
9.0
  9
$UNITMODE
 70
     0
  9
$VISRETAIN
 70
     0
  9
$PLINEGEN
 70
     0
  9
$PSLTSCALE
 70
     0
  9
$TREEDEPTH
 70
  3020
  9
$PICKSTYLE
 70
     0
  9
$CMLSTYLE
  2
STANDARD
  9
$CMLJUST
 70
     0
  9
$CMLSCALE
 40
1.0
  9
$PROXYGRAPHICS
 70
     1
  9
$MEASUREMENT
 70
     0
  0
ENDSEC
  0
SECTION
  2
CLASSES
  0
CLASS
  1
LWPOLYLINE
  2
AcDbPolyline
  3
"AutoCAD"
 90
        0
280
     0
281
     1
  0
CLASS
  1
DICTIONARYVAR
  2
AcDbDictionaryVar
  3
"AutoCAD"
 90
        0
280
     0
281
     0
  0
ENDSEC
  0
SECTION
  2
TABLES
  0
TABLE
  2
VPORT
  5
12
100
AcDbSymbolTable
 70
     2
  0
VPORT
  5
FA
100
AcDbSymbolTableRecord
100
AcDbViewportTableRecord
  2
*ACTIVE
 70
     0
 10
0.0
 20
0.0
 11
1.0
 21
1.0
 12
789.35394
 22
-70.431378
 13
0.0
 23
0.0
 14
1.0
 24
1.0
 15
600.0
 25
600.0
 16
0.0
 26
0.0
 36
1.0
 17
0.0
 27
0.0
 37
0.0
 40
811.683616
 41
2.224444
 42
50.0
 43
0.0
 44
0.0
 50
0.0
 51
0.0
 71
     0
 72
   100
 73
     1
 74
     0
 75
     0
 76
     0
 77
     0
 78
     0
  0
ENDTAB
  0
TABLE
  2
LTYPE
  5
D
100
AcDbSymbolTable
 70
     1
  0
LTYPE
  5
E
100
AcDbSymbolTableRecord
100
AcDbLinetypeTableRecord
  2
BYBLOCK
 70
     0
  3

 72
    65
 73
     0
 40
0.0
  0
LTYPE
  5
F
100
AcDbSymbolTableRecord
100
AcDbLinetypeTableRecord
  2
BYLAYER
 70
     0
  3

 72
    65
 73
     0
 40
0.0
  0
LTYPE
  5
5
100
AcDbSymbolTableRecord
100
AcDbLinetypeTableRecord
  2
CONTINUOUS
 70
     0
  3
Solid line
 72
    65
 73
     0
 40
0.0
  0
ENDTAB
  0
TABLE
  2
LAYER
  5
A
100
AcDbSymbolTable
 70
     7
  0
LAYER
  5
4
100
AcDbSymbolTableRecord
100
AcDbLayerTableRecord
  2
0
 70
     0
 62
     7
  6
CONTINUOUS
  0
LAYER
  5
1B
100
AcDbSymbolTableRecord
100
AcDbLayerTableRecord
  2
KOTY-UPLNE
 70
     0
 62
     7
  6
CONTINUOUS
  0
LAYER
  5
50
100
AcDbSymbolTableRecord
100
AcDbLayerTableRecord
  2
RAMEC
 70
     0
 62
     5
  6
CONTINUOUS
  0
LAYER
  5
CF
100
AcDbSymbolTableRecord
100
AcDbLayerTableRecord
  2
POZICE
 70
     0
 62
     1
  6
CONTINUOUS
  0
LAYER
  5
4D
100
AcDbSymbolTableRecord
100
AcDbLayerTableRecord
  2
POPIS
 70
     0
 62
     1
  6
CONTINUOUS
  0
LAYER
  5
26
100
AcDbSymbolTableRecord
100
AcDbLayerTableRecord
  2
DEFPOINTS
 70
     0
 62
     7
  6
CONTINUOUS
  0
LAYER
  5
4B
100
AcDbSymbolTableRecord
100
AcDbLayerTableRecord
  2
TRAPEZ-VELKY
 70
     0
 62
     7
  6
CONTINUOUS
  0
ENDTAB
  0
TABLE
  2
STYLE
  5
B
100
AcDbSymbolTable
 70
     2
  0
STYLE
  5
C
100
AcDbSymbolTableRecord
100
AcDbTextStyleTableRecord
  2
STANDARD
 70
     0
 40
0.0
 41
0.9
 50
0.0
 71
     0
 42
50.0
  3
simplex.shx
  4

  0
STYLE
  5
4E
100
AcDbSymbolTableRecord
100
AcDbTextStyleTableRecord
  2
STYLE1
 70
     0
 40
0.0
 41
0.9
 50
0.0
 71
     0
 42
50.0
  3
simplex.shx
  4

  0
ENDTAB
  0
TABLE
  2
VIEW
  5
10
100
AcDbSymbolTable
 70
     0
  0
ENDTAB
  0
TABLE
  2
UCS
  5
11
100
AcDbSymbolTable
 70
     0
  0
ENDTAB
  0
TABLE
  2
APPID
  5
14
100
AcDbSymbolTable
 70
     1
  0
APPID
  5
15
100
AcDbSymbolTableRecord
100
AcDbRegAppTableRecord
  2
ACAD
 70
     0
  0
ENDTAB
  0
TABLE
  2
DIMSTYLE
  5
16
100
AcDbSymbolTable
 70
     1
  0
DIMSTYLE
105
1D
102
{ACAD_REACTORS
330
7A
330
6D
330
5E
330
99
330
51
330
3D
330
AC
330
BB
330
89
330
D0
330
2E
330
1E
330
EA
102
}
100
AcDbSymbolTableRecord
100
AcDbDimStyleTableRecord
  2
UPLNE
 70
     0
  3

  4

  5

  6

  7

 40
5.0
 41
5.0
 42
1.0
 43
0.0
 44
2.0
 45
1.0
 46
1.0
 47
0.0
 48
0.0
140
6.44
141
1.0
142
0.0
143
25.4
144
1.0
145
0.0
146
1.0
147
1.0
 71
     0
 72
     0
 73
     0
 74
     0
 75
     0
 76
     0
 77
     3
 78
     0
170
     0
171
     2
172
     1
173
     0
174
     1
175
     0
176
   256
177
   256
178
     5
270
     2
271
     0
272
     0
273
     2
274
     2
340
C
275
     0
280
     0
281
     0
282
     0
283
     1
284
     0
285
     0
286
     0
287
     5
288
     0
  0
ENDTAB
  0
TABLE
  2
BLOCK_RECORD
  5
1
100
AcDbSymbolTable
 70
    13
  0
BLOCK_RECORD
  5
2
100
AcDbSymbolTableRecord
100
AcDbBlockTableRecord
  2
*MODEL_SPACE
  0
BLOCK_RECORD
  5
7
100
AcDbSymbolTableRecord
100
AcDbBlockTableRecord
  2
*PAPER_SPACE
  0
BLOCK_RECORD
  5
7B
100
AcDbSymbolTableRecord
100
AcDbBlockTableRecord
  2
*D0
  0
BLOCK_RECORD
  5
6E
100
AcDbSymbolTableRecord
100
AcDbBlockTableRecord
  2
*D1
  0
BLOCK_RECORD
  5
5F
100
AcDbSymbolTableRecord
100
AcDbBlockTableRecord
  2
*D2
  0
BLOCK_RECORD
  5
9A
100
AcDbSymbolTableRecord
100
AcDbBlockTableRecord
  2
*D3
  0
BLOCK_RECORD
  5
52
100
AcDbSymbolTableRecord
100
AcDbBlockTableRecord
  2
*D4
  0
BLOCK_RECORD
  5
3E
100
AcDbSymbolTableRecord
100
AcDbBlockTableRecord
  2
*D5
  0
BLOCK_RECORD
  5
AD
100
AcDbSymbolTableRecord
100
AcDbBlockTableRecord
  2
*D6
  0
BLOCK_RECORD
  5
BC
100
AcDbSymbolTableRecord
100
AcDbBlockTableRecord
  2
*D7
  0
BLOCK_RECORD
  5
8A
100
AcDbSymbolTableRecord
100
AcDbBlockTableRecord
  2
*D8
  0
BLOCK_RECORD
  5
D1
100
AcDbSymbolTableRecord
100
AcDbBlockTableRecord
  2
*D9
  0
BLOCK_RECORD
  5
2F
100
AcDbSymbolTableRecord
100
AcDbBlockTableRecord
  2
*D10
  0
BLOCK_RECORD
  5
1F
100
AcDbSymbolTableRecord
100
AcDbBlockTableRecord
  2
*D11
  0
BLOCK_RECORD
  5
EB
100
AcDbSymbolTableRecord
100
AcDbBlockTableRecord
  2
*D12
  0
ENDTAB
  0
ENDSEC
  0
SECTION
  2
BLOCKS
  0
BLOCK
  5
3
100
AcDbEntity
  8
0
100
AcDbBlockBegin
  2
*MODEL_SPACE
 70
     0
 10
0.0
 20
0.0
 30
0.0
  3
*MODEL_SPACE
  1

  0
ENDBLK
  5
6
100
AcDbEntity
  8
0
100
AcDbBlockEnd
  0
BLOCK
  5
8
100
AcDbEntity
 67
     1
  8
0
100
AcDbBlockBegin
  2
*PAPER_SPACE
 70
     0
 10
0.0
 20
0.0
 30
0.0
  3
*PAPER_SPACE
  1

  0
ENDBLK
  5
9
100
AcDbEntity
 67
     1
  8
0
100
AcDbBlockEnd
  0
BLOCK
  5
87
100
AcDbEntity
  8
0
100
AcDbBlockBegin
  2
*D0
 70
     1
 10
0.0
 20
0.0
 30
0.0
  3
*D0
  1

  0
LINE
  5
7C
100
AcDbEntity
  8
0
  6
BYBLOCK
100
AcDbLine
 10
2616.182687
 20
1003.440191
 30
0.0
 11
2616.182687
 21
1132.269408
 31
0.0
  0
LINE
  5
7D
100
AcDbEntity
  8
0
  6
BYBLOCK
100
AcDbLine
 10
2672.433118
 20
1088.440191
 30
0.0
 11
2672.433118
 21
1132.269408
 31
0.0
  0
LINE
  5
7E
100
AcDbEntity
  8
0
  6
BYBLOCK
100
AcDbLine
 10
2601.182687
 20
1126.269408
 30
0.0
 11
2586.182687
 21
1126.269408
 31
0.0
  0
LINE
  5
7F
100
AcDbEntity
  8
0
  6
BYBLOCK
100
AcDbLine
 10
2687.433118
 20
1126.269408
 30
0.0
 11
2702.433118
 21
1126.269408
 31
0.0
  0
LINE
  5
80
100
AcDbEntity
  8
0
  6
BYBLOCK
100
AcDbLine
 10
2616.182687
 20
1126.269408
 30
0.0
 11
2672.433118
 21
1126.269408
 31
0.0
  0
SOLID
  5
81
100
AcDbEntity
  8
0
  6
BYBLOCK
100
AcDbTrace
 10
2601.182687
 20
1128.769408
 30
0.0
 11
2601.182687
 21
1123.769408
 31
0.0
 12
2616.182687
 22
1126.269408
 32
0.0
 13
2616.182687
 23
1126.269408
 33
0.0
  0
SOLID
  5
82
100
AcDbEntity
  8
0
  6
BYBLOCK
100
AcDbTrace
 10
2687.433118
 20
1128.769408
 30
0.0
 11
2687.433118
 21
1123.769408
 31
0.0
 12
2672.433118
 22
1126.269408
 32
0.0
 13
2672.433118
 23
1126.269408
 33
0.0
  0
MTEXT
  5
83
100
AcDbEntity
  8
0
  6
BYBLOCK
 62
     5
100
AcDbMText
 10
2644.307903
 20
1143.769408
 30
0.0
 40
19.32
 41
0.0
 71
     5
 72
     1
  1
\A1;56,25
  0
POINT
  5
84
100
AcDbEntity
  8
DEFPOINTS
  6
BYBLOCK
 62
     0
100
AcDbPoint
 10
2616.182687
 20
1000.440191
 30
0.0
  0
POINT
  5
85
100
AcDbEntity
  8
DEFPOINTS
  6
BYBLOCK
 62
     0
100
AcDbPoint
 10
2672.433118
 20
1085.440191
 30
0.0
  0
POINT
  5
86
100
AcDbEntity
  8
DEFPOINTS
  6
BYBLOCK
 62
     0
100
AcDbPoint
 10
2672.433118
 20
1126.269408
 30
0.0
  0
ENDBLK
  5
88
100
AcDbEntity
  8
0
100
AcDbBlockEnd
  0
BLOCK
  5
78
100
AcDbEntity
  8
0
100
AcDbBlockBegin
  2
*D1
 70
     1
 10
0.0
 20
0.0
 30
0.0
  3
*D1
  1

  0
LINE
  5
6F
100
AcDbEntity
  8
0
  6
BYBLOCK
100
AcDbLine
 10
2672.433118
 20
1088.440191
 30
0.0
 11
2672.433118
 21
1132.269408
 31
0.0
  0
LINE
  5
70
100
AcDbEntity
  8
0
  6
BYBLOCK
100
AcDbLine
 10
2792.433118
 20
1088.440191
 30
0.0
 11
2792.433118
 21
1132.269408
 31
0.0
  0
LINE
  5
71
100
AcDbEntity
  8
0
  6
BYBLOCK
100
AcDbLine
 10
2687.433118
 20
1126.269408
 30
0.0
 11
2777.433118
 21
1126.269408
 31
0.0
  0
SOLID
  5
72
100
AcDbEntity
  8
0
  6
BYBLOCK
100
AcDbTrace
 10
2687.433118
 20
1128.769408
 30
0.0
 11
2687.433118
 21
1123.769408
 31
0.0
 12
2672.433118
 22
1126.269408
 32
0.0
 13
2672.433118
 23
1126.269408
 33
0.0
  0
SOLID
  5
73
100
AcDbEntity
  8
0
  6
BYBLOCK
100
AcDbTrace
 10
2777.433118
 20
1128.769408
 30
0.0
 11
2777.433118
 21
1123.769408
 31
0.0
 12
2792.433118
 22
1126.269408
 32
0.0
 13
2792.433118
 23
1126.269408
 33
0.0
  0
MTEXT
  5
74
100
AcDbEntity
  8
0
  6
BYBLOCK
 62
     5
100
AcDbMText
 10
2732.433118
 20
1141.929408
 30
0.0
 40
19.32
 41
0.0
 71
     5
 72
     1
  1
\A1;120
  0
POINT
  5
75
100
AcDbEntity
  8
DEFPOINTS
  6
BYBLOCK
 62
     0
100
AcDbPoint
 10
2672.433118
 20
1085.440191
 30
0.0
  0
POINT
  5
76
100
AcDbEntity
  8
DEFPOINTS
  6
BYBLOCK
 62
     0
100
AcDbPoint
 10
2792.433118
 20
1085.440191
 30
0.0
  0
POINT
  5
77
100
AcDbEntity
  8
DEFPOINTS
  6
BYBLOCK
 62
     0
100
AcDbPoint
 10
2792.433118
 20
1126.269408
 30
0.0
  0
ENDBLK
  5
79
100
AcDbEntity
  8
0
100
AcDbBlockEnd
  0
BLOCK
  5
6B
100
AcDbEntity
  8
0
100
AcDbBlockBegin
  2
*D2
 70
     1
 10
0.0
 20
0.0
 30
0.0
  3
*D2
  1

  0
LINE
  5
60
100
AcDbEntity
  8
0
  6
BYBLOCK
100
AcDbLine
 10
2792.433118
 20
1088.440191
 30
0.0
 11
2792.433118
 21
1132.269408
 31
0.0
  0
LINE
  5
61
100
AcDbEntity
  8
0
  6
BYBLOCK
100
AcDbLine
 10
2848.683549
 20
1003.440191
 30
0.0
 11
2848.683549
 21
1132.269408
 31
0.0
  0
LINE
  5
62
100
AcDbEntity
  8
0
  6
BYBLOCK
100
AcDbLine
 10
2777.433118
 20
1126.269408
 30
0.0
 11
2762.433118
 21
1126.269408
 31
0.0
  0
LINE
  5
63
100
AcDbEntity
  8
0
  6
BYBLOCK
100
AcDbLine
 10
2863.683549
 20
1126.269408
 30
0.0
 11
2878.683549
 21
1126.269408
 31
0.0
  0
LINE
  5
64
100
AcDbEntity
  8
0
  6
BYBLOCK
100
AcDbLine
 10
2792.433118
 20
1126.269408
 30
0.0
 11
2848.683549
 21
1126.269408
 31
0.0
  0
SOLID
  5
65
100
AcDbEntity
  8
0
  6
BYBLOCK
100
AcDbTrace
 10
2777.433118
 20
1128.769408
 30
0.0
 11
2777.433118
 21
1123.769408
 31
0.0
 12
2792.433118
 22
1126.269408
 32
0.0
 13
2792.433118
 23
1126.269408
 33
0.0
  0
SOLID
  5
66
100
AcDbEntity
  8
0
  6
BYBLOCK
100
AcDbTrace
 10
2863.683549
 20
1128.769408
 30
0.0
 11
2863.683549
 21
1123.769408
 31
0.0
 12
2848.683549
 22
1126.269408
 32
0.0
 13
2848.683549
 23
1126.269408
 33
0.0
  0
MTEXT
  5
67
100
AcDbEntity
  8
0
  6
BYBLOCK
 62
     5
100
AcDbMText
 10
2820.558334
 20
1143.769408
 30
0.0
 40
19.32
 41
0.0
 71
     5
 72
     1
  1
\A1;56,25
  0
POINT
  5
68
100
AcDbEntity
  8
DEFPOINTS
  6
BYBLOCK
 62
     0
100
AcDbPoint
 10
2792.433118
 20
1085.440191
 30
0.0
  0
POINT
  5
69
100
AcDbEntity
  8
DEFPOINTS
  6
BYBLOCK
 62
     0
100
AcDbPoint
 10
2848.683549
 20
1000.440191
 30
0.0
  0
POINT
  5
6A
100
AcDbEntity
  8
DEFPOINTS
  6
BYBLOCK
 62
     0
100
AcDbPoint
 10
2848.683549
 20
1126.269408
 30
0.0
  0
ENDBLK
  5
6C
100
AcDbEntity
  8
0
100
AcDbBlockEnd
  0
BLOCK
  5
A7
100
AcDbEntity
  8
0
100
AcDbBlockBegin
  2
*D3
 70
     1
 10
0.0
 20
0.0
 30
0.0
  3
*D3
  1

  0
LINE
  5
9B
100
AcDbEntity
  8
0
  6
BYBLOCK
100
AcDbLine
 10
2993.201929
 20
1082.440191
 30
0.0
 11
2993.201929
 21
936.457726
 31
0.0
  0
LINE
  5
9C
100
AcDbEntity
  8
0
  6
BYBLOCK
100
AcDbLine
 10
3016.666031
 20
1082.440191
 30
0.0
 11
3016.666031
 21
936.457726
 31
0.0
  0
LINE
  5
9D
100
AcDbEntity
  8
0
  6
BYBLOCK
100
AcDbLine
 10
2978.201929
 20
942.457726
 30
0.0
 11
2963.201929
 21
942.457726
 31
0.0
  0
LINE
  5
9E
100
AcDbEntity
  8
0
  6
BYBLOCK
100
AcDbLine
 10
3031.666031
 20
942.457726
 30
0.0
 11
3046.666031
 21
942.457726
 31
0.0
  0
MTEXT
  5
9F
100
AcDbEntity
  8
0
  6
BYBLOCK
 62
     5
100
AcDbMText
 10
2959.988782
 20
962.835093
 30
0.0
 40
19.32
 41
0.0
 71
     5
 72
     1
  1
\A1;23,5
  0
LINE
  5
A0
100
AcDbEntity
  8
0
  6
BYBLOCK
100
AcDbLine
 10
2993.201929
 20
942.457726
 30
0.0
 11
3016.666031
 21
942.457726
 31
0.0
  0
LINE
  5
A1
100
AcDbEntity
  8
0
  6
BYBLOCK
100
AcDbLine
 10
2993.201929
 20
942.457726
 30
0.0
 11
3016.666031
 21
942.457726
 31
0.0
  0
SOLID
  5
A2
100
AcDbEntity
  8
0
  6
BYBLOCK
100
AcDbTrace
 10
2978.201929
 20
944.957726
 30
0.0
 11
2978.201929
 21
939.957726
 31
0.0
 12
2993.201929
 22
942.457726
 32
0.0
 13
2993.201929
 23
942.457726
 33
0.0
  0
SOLID
  5
A3
100
AcDbEntity
  8
0
  6
BYBLOCK
100
AcDbTrace
 10
3031.666031
 20
944.957726
 30
0.0
 11
3031.666031
 21
939.957726
 31
0.0
 12
3016.666031
 22
942.457726
 32
0.0
 13
3016.666031
 23
942.457726
 33
0.0
  0
POINT
  5
A4
100
AcDbEntity
  8
DEFPOINTS
  6
BYBLOCK
 62
     0
100
AcDbPoint
 10
2993.201929
 20
1085.440191
 30
0.0
  0
POINT
  5
A5
100
AcDbEntity
  8
DEFPOINTS
  6
BYBLOCK
 62
     0
100
AcDbPoint
 10
3016.666031
 20
1085.440191
 30
0.0
  0
POINT
  5
A6
100
AcDbEntity
  8
DEFPOINTS
  6
BYBLOCK
 62
     0
100
AcDbPoint
 10
3016.666031
 20
942.457726
 30
0.0
  0
ENDBLK
  5
A8
100
AcDbEntity
  8
0
100
AcDbBlockEnd
  0
BLOCK
  5
5C
100
AcDbEntity
  8
0
100
AcDbBlockBegin
  2
*D4
 70
     1
 10
0.0
 20
0.0
 30
0.0
  3
*D4
  1

  0
LINE
  5
53
100
AcDbEntity
  8
0
  6
BYBLOCK
100
AcDbLine
 10
2868.683549
 20
997.440191
 30
0.0
 11
2868.683549
 21
936.457726
 31
0.0
  0
LINE
  5
54
100
AcDbEntity
  8
0
  6
BYBLOCK
100
AcDbLine
 10
2596.182687
 20
997.440191
 30
0.0
 11
2596.182687
 21
936.457726
 31
0.0
  0
LINE
  5
55
100
AcDbEntity
  8
0
  6
BYBLOCK
100
AcDbLine
 10
2853.683549
 20
942.457726
 30
0.0
 11
2611.182687
 21
942.457726
 31
0.0
  0
SOLID
  5
56
100
AcDbEntity
  8
0
  6
BYBLOCK
100
AcDbTrace
 10
2853.683549
 20
944.957726
 30
0.0
 11
2853.683549
 21
939.957726
 31
0.0
 12
2868.683549
 22
942.457726
 32
0.0
 13
2868.683549
 23
942.457726
 33
0.0
  0
SOLID
  5
57
100
AcDbEntity
  8
0
  6
BYBLOCK
100
AcDbTrace
 10
2611.182687
 20
944.957726
 30
0.0
 11
2611.182687
 21
939.957726
 31
0.0
 12
2596.182687
 22
942.457726
 32
0.0
 13
2596.182687
 23
942.457726
 33
0.0
  0
MTEXT
  5
58
100
AcDbEntity
  8
0
  6
BYBLOCK
 62
     5
100
AcDbMText
 10
2732.433118
 20
959.957726
 30
0.0
 40
19.32
 41
0.0
 71
     5
 72
     1
  1
\A1;272,5
  0
POINT
  5
59
100
AcDbEntity
  8
DEFPOINTS
  6
BYBLOCK
 62
     0
100
AcDbPoint
 10
2868.683549
 20
1000.440191
 30
0.0
  0
POINT
  5
5A
100
AcDbEntity
  8
DEFPOINTS
  6
BYBLOCK
 62
     0
100
AcDbPoint
 10
2596.182687
 20
1000.440191
 30
0.0
  0
POINT
  5
5B
100
AcDbEntity
  8
DEFPOINTS
  6
BYBLOCK
 62
     0
100
AcDbPoint
 10
2596.182687
 20
942.457726
 30
0.0
  0
ENDBLK
  5
5D
100
AcDbEntity
  8
0
100
AcDbBlockEnd
  0
BLOCK
  5
48
100
AcDbEntity
  8
0
100
AcDbBlockBegin
  2
*D5
 70
     1
 10
0.0
 20
0.0
 30
0.0
  3
*D5
  1

  0
LINE
  5
3F
100
AcDbEntity
  8
0
  6
BYBLOCK
100
AcDbLine
 10
2596.182687
 20
997.440191
 30
0.0
 11
2596.182687
 21
876.457726
 31
0.0
  0
LINE
  5
40
100
AcDbEntity
  8
0
  6
BYBLOCK
100
AcDbLine
 10
3686.186134
 20
997.440191
 30
0.0
 11
3686.186134
 21
876.457726
 31
0.0
  0
LINE
  5
41
100
AcDbEntity
  8
0
  6
BYBLOCK
100
AcDbLine
 10
2611.182687
 20
882.457726
 30
0.0
 11
3671.186134
 21
882.457726
 31
0.0
  0
SOLID
  5
42
100
AcDbEntity
  8
0
  6
BYBLOCK
100
AcDbTrace
 10
2611.182687
 20
884.957726
 30
0.0
 11
2611.182687
 21
879.957726
 31
0.0
 12
2596.182687
 22
882.457726
 32
0.0
 13
2596.182687
 23
882.457726
 33
0.0
  0
SOLID
  5
43
100
AcDbEntity
  8
0
  6
BYBLOCK
100
AcDbTrace
 10
3671.186134
 20
884.957726
 30
0.0
 11
3671.186134
 21
879.957726
 31
0.0
 12
3686.186134
 22
882.457726
 32
0.0
 13
3686.186134
 23
882.457726
 33
0.0
  0
MTEXT
  5
44
100
AcDbEntity
  8
0
  6
BYBLOCK
 62
     5
100
AcDbMText
 10
3141.184411
 20
898.117726
 30
0.0
 40
19.32
 41
0.0
 71
     5
 72
     1
  1
\A1;1090
  0
POINT
  5
45
100
AcDbEntity
  8
DEFPOINTS
  6
BYBLOCK
 62
     0
100
AcDbPoint
 10
2596.182687
 20
1000.440191
 30
0.0
  0
POINT
  5
46
100
AcDbEntity
  8
DEFPOINTS
  6
BYBLOCK
 62
     0
100
AcDbPoint
 10
3686.186134
 20
1000.440191
 30
0.0
  0
POINT
  5
47
100
AcDbEntity
  8
DEFPOINTS
  6
BYBLOCK
 62
     0
100
AcDbPoint
 10
3686.186134
 20
882.457726
 30
0.0
  0
ENDBLK
  5
49
100
AcDbEntity
  8
0
100
AcDbBlockEnd
  0
BLOCK
  5
B9
100
AcDbEntity
  8
0
100
AcDbBlockBegin
  2
*D6
 70
     1
 10
0.0
 20
0.0
 30
0.0
  3
*D6
  1

  0
LINE
  5
AE
100
AcDbEntity
  8
0
  6
BYBLOCK
100
AcDbLine
 10
3067.93398
 20
1085.440191
 30
0.0
 11
3139.800013
 21
1085.440191
 31
0.0
  0
LINE
  5
AF
100
AcDbEntity
  8
0
  6
BYBLOCK
100
AcDbLine
 10
3104.420978
 20
1023.940191
 30
0.0
 11
3139.800013
 21
1023.940191
 31
0.0
  0
LINE
  5
B0
100
AcDbEntity
  8
0
  6
BYBLOCK
100
AcDbLine
 10
3133.800013
 20
1100.440191
 30
0.0
 11
3133.800013
 21
1115.440191
 31
0.0
  0
LINE
  5
B1
100
AcDbEntity
  8
0
  6
BYBLOCK
100
AcDbLine
 10
3133.800013
 20
1008.940191
 30
0.0
 11
3133.800013
 21
993.940191
 31
0.0
  0
LINE
  5
B2
100
AcDbEntity
  8
0
  6
BYBLOCK
100
AcDbLine
 10
3133.800013
 20
1085.440191
 30
0.0
 11
3133.800013
 21
1023.940191
 31
0.0
  0
SOLID
  5
B3
100
AcDbEntity
  8
0
  6
BYBLOCK
100
AcDbTrace
 10
3131.300013
 20
1100.440191
 30
0.0
 11
3136.300013
 21
1100.440191
 31
0.0
 12
3133.800013
 22
1085.440191
 32
0.0
 13
3133.800013
 23
1085.440191
 33
0.0
  0
SOLID
  5
B4
100
AcDbEntity
  8
0
  6
BYBLOCK
100
AcDbTrace
 10
3131.300013
 20
1008.940191
 30
0.0
 11
3136.300013
 21
1008.940191
 31
0.0
 12
3133.800013
 22
1023.940191
 32
0.0
 13
3133.800013
 23
1023.940191
 33
0.0
  0
MTEXT
  5
B5
100
AcDbEntity
  8
0
  6
BYBLOCK
 62
     5
100
AcDbMText
 10
3116.300013
 20
1054.690191
 30
0.0
 40
19.32
 41
0.0
 71
     5
 72
     1
  1
\A1;61,5
 11
0.0
 21
1.0
 31
0.0
  0
POINT
  5
B6
100
AcDbEntity
  8
DEFPOINTS
  6
BYBLOCK
 62
     0
100
AcDbPoint
 10
3064.93398
 20
1085.440191
 30
0.0
  0
POINT
  5
B7
100
AcDbEntity
  8
DEFPOINTS
  6
BYBLOCK
 62
     0
100
AcDbPoint
 10
3101.420978
 20
1023.940191
 30
0.0
  0
POINT
  5
B8
100
AcDbEntity
  8
DEFPOINTS
  6
BYBLOCK
 62
     0
100
AcDbPoint
 10
3133.800013
 20
1023.940191
 30
0.0
  0
ENDBLK
  5
BA
100
AcDbEntity
  8
0
100
AcDbBlockEnd
  0
BLOCK
  5
C9
100
AcDbEntity
  8
0
100
AcDbBlockBegin
  2
*D7
 70
     1
 10
0.0
 20
0.0
 30
0.0
  3
*D7
  1

  0
LINE
  5
BD
100
AcDbEntity
  8
0
  6
BYBLOCK
100
AcDbLine
 10
3104.420978
 20
1023.940191
 30
0.0
 11
3139.800013
 21
1023.940191
 31
0.0
  0
LINE
  5
BE
100
AcDbEntity
  8
0
  6
BYBLOCK
100
AcDbLine
 10
3113.386633
 20
1018.640191
 30
0.0
 11
3139.800013
 21
1018.640191
 31
0.0
  0
LINE
  5
BF
100
AcDbEntity
  8
0
  6
BYBLOCK
100
AcDbLine
 10
3133.800013
 20
1038.940191
 30
0.0
 11
3133.800013
 21
1053.940191
 31
0.0
  0
LINE
  5
C0
100
AcDbEntity
  8
0
  6
BYBLOCK
100
AcDbLine
 10
3133.800013
 20
1003.640191
 30
0.0
 11
3133.800013
 21
988.640191
 31
0.0
  0
MTEXT
  5
C1
100
AcDbEntity
  8
0
  6
BYBLOCK
 62
     5
100
AcDbMText
 10
3151.289591
 20
1027.012248
 30
0.0
 40
19.32
 41
0.0
 71
     5
 72
     1
  1
\A1;5,3
 11
0.0
 21
1.0
 31
0.0
  0
LINE
  5
C2
100
AcDbEntity
  8
0
  6
BYBLOCK
100
AcDbLine
 10
3133.800013
 20
1023.940191
 30
0.0
 11
3133.800013
 21
1018.640191
 31
0.0
  0
LINE
  5
C3
100
AcDbEntity
  8
0
  6
BYBLOCK
100
AcDbLine
 10
3133.800013
 20
1023.940191
 30
0.0
 11
3133.800013
 21
1018.640191
 31
0.0
  0
SOLID
  5
C4
100
AcDbEntity
  8
0
  6
BYBLOCK
100
AcDbTrace
 10
3131.300013
 20
1038.940191
 30
0.0
 11
3136.300013
 21
1038.940191
 31
0.0
 12
3133.800013
 22
1023.940191
 32
0.0
 13
3133.800013
 23
1023.940191
 33
0.0
  0
SOLID
  5
C5
100
AcDbEntity
  8
0
  6
BYBLOCK
100
AcDbTrace
 10
3131.300013
 20
1003.640191
 30
0.0
 11
3136.300013
 21
1003.640191
 31
0.0
 12
3133.800013
 22
1018.640191
 32
0.0
 13
3133.800013
 23
1018.640191
 33
0.0
  0
POINT
  5
C6
100
AcDbEntity
  8
DEFPOINTS
  6
BYBLOCK
 62
     0
100
AcDbPoint
 10
3101.420978
 20
1023.940191
 30
0.0
  0
POINT
  5
C7
100
AcDbEntity
  8
DEFPOINTS
  6
BYBLOCK
 62
     0
100
AcDbPoint
 10
3110.386633
 20
1018.640191
 30
0.0
  0
POINT
  5
C8
100
AcDbEntity
  8
DEFPOINTS
  6
BYBLOCK
 62
     0
100
AcDbPoint
 10
3133.800013
 20
1018.640191
 30
0.0
  0
ENDBLK
  5
CA
100
AcDbEntity
  8
0
100
AcDbBlockEnd
  0
BLOCK
  5
97
100
AcDbEntity
  8
0
100
AcDbBlockBegin
  2
*D8
 70
     1
 10
0.0
 20
0.0
 30
0.0
  3
*D8
  1

  0
LINE
  5
8B
100
AcDbEntity
  8
0
  6
BYBLOCK
100
AcDbLine
 10
3113.386633
 20
1018.640191
 30
0.0
 11
3139.800013
 21
1018.640191
 31
0.0
  0
LINE
  5
8C
100
AcDbEntity
  8
0
  6
BYBLOCK
100
AcDbLine
 10
3124.184411
 20
1000.440191
 30
0.0
 11
3139.800013
 21
1000.440191
 31
0.0
  0
LINE
  5
8D
100
AcDbEntity
  8
0
  6
BYBLOCK
100
AcDbLine
 10
3133.800013
 20
1033.640191
 30
0.0
 11
3133.800013
 21
1048.640191
 31
0.0
  0
LINE
  5
8E
100
AcDbEntity
  8
0
  6
BYBLOCK
100
AcDbLine
 10
3133.800013
 20
985.440191
 30
0.0
 11
3133.800013
 21
970.440191
 31
0.0
  0
MTEXT
  5
8F
100
AcDbEntity
  8
0
  6
BYBLOCK
 62
     5
100
AcDbMText
 10
3125.505454
 20
967.283148
 30
0.0
 40
19.32
 41
0.0
 71
     5
 72
     1
  1
\A1;18,2
 11
0.0
 21
1.0
 31
0.0
  0
LINE
  5
90
100
AcDbEntity
  8
0
  6
BYBLOCK
100
AcDbLine
 10
3133.800013
 20
1018.640191
 30
0.0
 11
3133.800013
 21
1000.440191
 31
0.0
  0
LINE
  5
91
100
AcDbEntity
  8
0
  6
BYBLOCK
100
AcDbLine
 10
3133.800013
 20
1018.640191
 30
0.0
 11
3133.800013
 21
1000.440191
 31
0.0
  0
SOLID
  5
92
100
AcDbEntity
  8
0
  6
BYBLOCK
100
AcDbTrace
 10
3131.300013
 20
1033.640191
 30
0.0
 11
3136.300013
 21
1033.640191
 31
0.0
 12
3133.800013
 22
1018.640191
 32
0.0
 13
3133.800013
 23
1018.640191
 33
0.0
  0
SOLID
  5
93
100
AcDbEntity
  8
0
  6
BYBLOCK
100
AcDbTrace
 10
3131.300013
 20
985.440191
 30
0.0
 11
3136.300013
 21
985.440191
 31
0.0
 12
3133.800013
 22
1000.440191
 32
0.0
 13
3133.800013
 23
1000.440191
 33
0.0
  0
POINT
  5
94
100
AcDbEntity
  8
DEFPOINTS
  6
BYBLOCK
 62
     0
100
AcDbPoint
 10
3110.386633
 20
1018.640191
 30
0.0
  0
POINT
  5
95
100
AcDbEntity
  8
DEFPOINTS
  6
BYBLOCK
 62
     0
100
AcDbPoint
 10
3121.184411
 20
1000.440191
 30
0.0
  0
POINT
  5
96
100
AcDbEntity
  8
DEFPOINTS
  6
BYBLOCK
 62
     0
100
AcDbPoint
 10
3133.800013
 20
1000.440191
 30
0.0
  0
ENDBLK
  5
98
100
AcDbEntity
  8
0
100
AcDbBlockEnd
  0
BLOCK
  5
DE
100
AcDbEntity
  8
0
100
AcDbBlockBegin
  2
*D9
 70
     1
 10
0.0
 20
0.0
 30
0.0
  3
*D9
  1

  0
LINE
  5
D2
100
AcDbEntity
  8
0
  6
BYBLOCK
100
AcDbLine
 10
3280.434842
 20
1079.440191
 30
0.0
 11
3391.166725
 21
1079.440191
 31
0.0
  0
LINE
  5
D3
100
AcDbEntity
  8
0
  6
BYBLOCK
100
AcDbLine
 10
3340.434842
 20
1085.440191
 30
0.0
 11
3391.166725
 21
1085.440191
 31
0.0
  0
LINE
  5
D4
100
AcDbEntity
  8
0
  6
BYBLOCK
100
AcDbLine
 10
3385.166725
 20
1064.440191
 30
0.0
 11
3385.166725
 21
1049.440191
 31
0.0
  0
LINE
  5
D5
100
AcDbEntity
  8
0
  6
BYBLOCK
100
AcDbLine
 10
3385.166725
 20
1100.440191
 30
0.0
 11
3385.166725
 21
1115.440191
 31
0.0
  0
MTEXT
  5
D6
100
AcDbEntity
  8
0
  6
BYBLOCK
 62
     5
100
AcDbMText
 10
3369.533875
 20
1099.355918
 30
0.0
 40
19.32
 41
0.0
 71
     5
 72
     1
  1
\A1;6
 11
0.0
 21
1.0
 31
0.0
  0
LINE
  5
D7
100
AcDbEntity
  8
0
  6
BYBLOCK
100
AcDbLine
 10
3385.166725
 20
1079.440191
 30
0.0
 11
3385.166725
 21
1085.440191
 31
0.0
  0
LINE
  5
D8
100
AcDbEntity
  8
0
  6
BYBLOCK
100
AcDbLine
 10
3385.166725
 20
1079.440191
 30
0.0
 11
3385.166725
 21
1085.440191
 31
0.0
  0
SOLID
  5
D9
100
AcDbEntity
  8
0
  6
BYBLOCK
100
AcDbTrace
 10
3382.666725
 20
1064.440191
 30
0.0
 11
3387.666725
 21
1064.440191
 31
0.0
 12
3385.166725
 22
1079.440191
 32
0.0
 13
3385.166725
 23
1079.440191
 33
0.0
  0
SOLID
  5
DA
100
AcDbEntity
  8
0
  6
BYBLOCK
100
AcDbTrace
 10
3382.666725
 20
1100.440191
 30
0.0
 11
3387.666725
 21
1100.440191
 31
0.0
 12
3385.166725
 22
1085.440191
 32
0.0
 13
3385.166725
 23
1085.440191
 33
0.0
  0
POINT
  5
DB
100
AcDbEntity
  8
DEFPOINTS
  6
BYBLOCK
 62
     0
100
AcDbPoint
 10
3277.434842
 20
1079.440191
 30
0.0
  0
POINT
  5
DC
100
AcDbEntity
  8
DEFPOINTS
  6
BYBLOCK
 62
     0
100
AcDbPoint
 10
3337.434842
 20
1085.440191
 30
0.0
  0
POINT
  5
DD
100
AcDbEntity
  8
DEFPOINTS
  6
BYBLOCK
 62
     0
100
AcDbPoint
 10
3385.166725
 20
1085.440191
 30
0.0
  0
ENDBLK
  5
DF
100
AcDbEntity
  8
0
100
AcDbBlockEnd
  0
BLOCK
  5
3B
100
AcDbEntity
  8
0
100
AcDbBlockBegin
  2
*D10
 70
     1
 10
0.0
 20
0.0
 30
0.0
  3
*D10
  1

  0
LINE
  5
30
100
AcDbEntity
  8
0
  6
BYBLOCK
100
AcDbLine
 10
3164.184411
 20
1000.440191
 30
0.0
 11
3344.811715
 21
1000.440191
 31
0.0
  0
LINE
  5
31
100
AcDbEntity
  8
0
  6
BYBLOCK
100
AcDbLine
 10
3173.512917
 20
1021.220282
 30
0.0
 11
3254.87891
 21
1158.36526
 31
0.0
  0
ARC
  5
32
100
AcDbEntity
  8
0
  6
BYBLOCK
100
AcDbCircle
 10
3161.184411
 20
1000.440191
 30
0.0
 40
177.627304
100
AcDbArc
 50
4.839866
 51
54.480134
  0
SOLID
  5
33
100
AcDbEntity
  8
0
  6
BYBLOCK
100
AcDbTrace
 10
3340.676137
 20
1015.532372
 30
0.0
 11
3335.680596
 21
1015.321256
 31
0.0
 12
3338.811715
 22
1000.440191
 32
0.0
 13
3338.811715
 23
1000.440191
 33
0.0
  0
SOLID
  5
34
100
AcDbEntity
  8
0
  6
BYBLOCK
100
AcDbTrace
 10
3263.017991
 20
1142.919265
 30
0.0
 11
3265.748496
 21
1147.107861
 31
0.0
 12
3251.817453
 22
1153.205078
 32
0.0
 13
3251.817453
 23
1153.205078
 33
0.0
  0
MTEXT
  5
35
100
AcDbEntity
  8
0
  6
BYBLOCK
 62
     5
100
AcDbMText
 10
3319.987457
 20
1123.135647
 30
0.0
 40
19.32
 41
0.0
 71
     5
 72
     1
  1
\A1;59,32°
 11
0.611398
 21
-0.791324
 31
0.0
  0
POINT
  5
36
100
AcDbEntity
  8
DEFPOINTS
  6
BYBLOCK
 62
     0
100
AcDbPoint
 10
3328.338511
 20
1060.531504
 30
0.0
  0
POINT
  5
37
100
AcDbEntity
  8
DEFPOINTS
  6
BYBLOCK
 62
     0
100
AcDbPoint
 10
3161.184411
 20
1000.440191
 30
0.0
  0
POINT
  5
38
100
AcDbEntity
  8
DEFPOINTS
  6
BYBLOCK
 62
     0
100
AcDbPoint
 10
3132.157541
 20
1000.440191
 30
0.0
  0
POINT
  5
39
100
AcDbEntity
  8
DEFPOINTS
  6
BYBLOCK
 62
     0
100
AcDbPoint
 10
3161.184411
 20
1000.440191
 30
0.0
  0
POINT
  5
3A
100
AcDbEntity
  8
DEFPOINTS
  6
BYBLOCK
 62
     0
100
AcDbPoint
 10
3171.982189
 20
1018.640191
 30
0.0
  0
ENDBLK
  5
3C
100
AcDbEntity
  8
0
100
AcDbBlockEnd
  0
BLOCK
  5
2B
100
AcDbEntity
  8
0
100
AcDbBlockBegin
  2
*D11
 70
     1
 10
0.0
 20
0.0
 30
0.0
  3
*D11
  1

  0
LINE
  5
20
100
AcDbEntity
  8
0
  6
BYBLOCK
100
AcDbLine
 10
3183.530357
 20
1025.46683
 30
0.0
 11
3254.210749
 21
1067.249175
 31
0.0
  0
ARC
  5
21
100
AcDbEntity
  8
0
  6
BYBLOCK
100
AcDbCircle
 10
3171.982189
 20
1018.640191
 30
0.0
 40
89.521565
100
AcDbArc
 50
9.611598
 51
20.977637
  0
SOLID
  5
22
100
AcDbEntity
  8
0
  6
BYBLOCK
100
AcDbTrace
 10
3262.738285
 20
1033.796903
 30
0.0
 11
3257.755863
 21
1033.37801
 31
0.0
 12
3261.503754
 22
1018.640191
 32
0.0
 13
3261.503754
 23
1018.640191
 33
0.0
  0
SOLID
  5
23
100
AcDbEntity
  8
0
  6
BYBLOCK
100
AcDbTrace
 10
3253.319174
 20
1049.601802
 30
0.0
 11
3257.821397
 21
1051.776656
 31
0.0
 12
3249.045723
 22
1064.195897
 32
0.0
 13
3249.045723
 23
1064.195897
 33
0.0
  0
MTEXT
  5
24
100
AcDbEntity
  8
0
  6
BYBLOCK
 62
     5
100
AcDbMText
 10
3281.10938
 20
1036.061114
 30
0.0
 40
19.32
 41
0.0
 71
     5
 72
     1
  1
\A1;30,92°
 11
0.157643
 21
-0.987496
 31
0.0
  0
POINT
  5
25
100
AcDbEntity
  8
DEFPOINTS
  6
BYBLOCK
 62
     0
100
AcDbPoint
 10
3255.893048
 20
1049.834396
 30
0.0
  0
POINT
  5
27
100
AcDbEntity
  8
DEFPOINTS
  6
BYBLOCK
 62
     0
100
AcDbPoint
 10
3171.982189
 20
1018.640191
 30
0.0
  0
POINT
  5
28
100
AcDbEntity
  8
DEFPOINTS
  6
BYBLOCK
 62
     0
100
AcDbPoint
 10
3171.982189
 20
1018.640191
 30
0.0
  0
POINT
  5
29
100
AcDbEntity
  8
DEFPOINTS
  6
BYBLOCK
 62
     0
100
AcDbPoint
 10
3268.547612
 20
1018.640191
 30
0.0
  0
POINT
  5
2A
100
AcDbEntity
  8
DEFPOINTS
  6
BYBLOCK
 62
     0
100
AcDbPoint
 10
3180.947844
 20
1023.940191
 30
0.0
  0
ENDBLK
  5
2C
100
AcDbEntity
  8
0
100
AcDbBlockEnd
  0
BLOCK
  5
F5
100
AcDbEntity
  8
0
100
AcDbBlockBegin
  2
*D12
 70
     1
 10
0.0
 20
0.0
 30
0.0
  3
*D12
  1

  0
LINE
  5
EC
100
AcDbEntity
  8
0
  6
BYBLOCK
100
AcDbLine
 10
3612.935704
 20
1085.440191
 30
0.0
 11
3760.026881
 21
1085.440191
 31
0.0
  0
LINE
  5
ED
100
AcDbEntity
  8
0
  6
BYBLOCK
100
AcDbLine
 10
3709.186134
 20
1000.440191
 30
0.0
 11
3760.026881
 21
1000.440191
 31
0.0
  0
LINE
  5
EE
100
AcDbEntity
  8
0
  6
BYBLOCK
100
AcDbLine
 10
3754.026881
 20
1070.440191
 30
0.0
 11
3754.026881
 21
1015.440191
 31
0.0
  0
SOLID
  5
EF
100
AcDbEntity
  8
0
  6
BYBLOCK
100
AcDbTrace
 10
3751.526881
 20
1070.440191
 30
0.0
 11
3756.526881
 21
1070.440191
 31
0.0
 12
3754.026881
 22
1085.440191
 32
0.0
 13
3754.026881
 23
1085.440191
 33
0.0
  0
SOLID
  5
F0
100
AcDbEntity
  8
0
  6
BYBLOCK
100
AcDbTrace
 10
3751.526881
 20
1015.440191
 30
0.0
 11
3756.526881
 21
1015.440191
 31
0.0
 12
3754.026881
 22
1000.440191
 32
0.0
 13
3754.026881
 23
1000.440191
 33
0.0
  0
MTEXT
  5
F1
100
AcDbEntity
  8
0
  6
BYBLOCK
 62
     5
100
AcDbMText
 10
3738.366881
 20
1042.940191
 30
0.0
 40
19.32
 41
0.0
 71
     5
 72
     1
  1
\A1;85
 11
0.0
 21
1.0
 31
0.0
  0
POINT
  5
F2
100
AcDbEntity
  8
DEFPOINTS
  6
BYBLOCK
 62
     0
100
AcDbPoint
 10
3609.935704
 20
1085.440191
 30
0.0
  0
POINT
  5
F3
100
AcDbEntity
  8
DEFPOINTS
  6
BYBLOCK
 62
     0
100
AcDbPoint
 10
3706.186134
 20
1000.440191
 30
0.0
  0
POINT
  5
F4
100
AcDbEntity
  8
DEFPOINTS
  6
BYBLOCK
 62
     0
100
AcDbPoint
 10
3754.026881
 20
1000.440191
 30
0.0
  0
ENDBLK
  5
F6
100
AcDbEntity
  8
0
100
AcDbBlockEnd
  0
ENDSEC
  0
SECTION
  2
ENTITIES
  0
DIMENSION
  5
1E
100
AcDbEntity
  8
KOTY-UPLNE
100
AcDbDimension
  2
*D11
 10
737.620454
 20
-213.402463
 30
0.0
 11
837.78199
 21
-201.28154
 31
0.0
 12
-2443.32739
 22
-1237.342654
 32
0.0
 70
   130
  1
30,92%%D
  3
UPLNE
100
AcDb2LineAngularDimension
 13
728.654799
 23
-218.702463
 33
0.0
 14
825.220222
 24
-218.702463
 34
0.0
 15
728.654799
 25
-218.702463
 35
0.0
 16
812.565658
 26
-187.508258
 36
0.0
1001
ACAD
1000
DSTYLE
1002
{
1070
    40
1040
3.0
1070
   147
1040
2.0
1002
}
  0
LINE
  5
2D
100
AcDbEntity
  8
KOTY-UPLNE
100
AcDbLine
 10
728.654799
 20
-218.702463
 30
0.0
 11
825.220222
 21
-218.702463
 31
0.0
  0
DIMENSION
  5
2E
100
AcDbEntity
  8
KOTY-UPLNE
100
AcDbDimension
  2
*D10
 10
728.654799
 20
-218.702463
 30
0.0
 11
876.660067
 21
-114.207007
 31
0.0
 12
-2443.32739
 22
-1237.342654
 32
0.0
 70
   130
  1
59,32%%D
  3
UPLNE
100
AcDb2LineAngularDimension
 13
688.830151
 23
-236.902463
 33
0.0
 14
717.857021
 24
-236.902463
 34
0.0
 15
717.857021
 25
-236.902463
 35
0.0
 16
885.011121
 26
-176.81115
 36
0.0
1001
ACAD
1000
DSTYLE
1002
{
1070
    40
1040
3.0
1070
   147
1040
2.0
1002
}
  0
DIMENSION
  5
3D
100
AcDbEntity
  8
KOTY-UPLNE
100
AcDbDimension
  2
*D5
 10
1242.858744
 20
-354.884928
 30
0.0
 11
697.857021
 21
-339.224928
 31
0.0
 12
-2443.32739
 22
-1237.342654
 32
0.0
  3
UPLNE
100
AcDbAlignedDimension
 13
152.855297
 23
-236.902463
 33
0.0
 14
1242.858744
 24
-236.902463
 34
0.0
100
AcDbRotatedDimension
1001
ACAD
1000
DSTYLE
1002
{
1070
    40
1040
3.0
1070
   147
1040
2.0
1002
}
  0
LWPOLYLINE
  5
4A
100
AcDbEntity
  8
TRAPEZ-VELKY
100
AcDbPolyline
 90
       98
 70
     0
 43
5.0
 10
147.855297
 20
-234.884928
 10
168.299577
 20
-234.884928
 42
0.264772
 10
175.17982
 20
-230.96687
 10
182.738319
 20
-218.22678
 42
-0.126022
 10
185.196374
 20
-215.772615
 10
191.075431
 20
-212.297241
 42
0.126022
 10
193.533487
 20
-209.843077
 10
227.07177
 20
-153.313229
 42
-0.264772
 10
233.091983
 20
-149.884928
 10
276.033931
 20
-149.884928
 42
-0.131652
 10
278.533931
 20
-150.554801
 10
286.605728
 20
-155.215055
 42
0.267949
 10
291.605728
 20
-155.215055
 10
299.677525
 20
-150.554801
 42
-0.131652
 10
302.177525
 20
-149.884928
 10
345.119473
 20
-149.884928
 42
-0.264772
 10
351.139686
 20
-153.313229
 10
384.677969
 20
-209.843077
 42
0.126022
 10
387.136025
 20
-212.297241
 10
393.015082
 20
-215.772615
 42
-0.126022
 10
395.473137
 20
-218.22678
 10
403.031636
 20
-230.96687
 42
0.264772
 10
409.911879
 20
-234.884928
 10
425.356159
 20
-234.884928
 10
440.800439
 20
-234.884928
 42
0.264772
 10
447.680682
 20
-230.96687
 10
455.239181
 20
-218.22678
 42
-0.126022
 10
457.697236
 20
-215.772615
 10
463.576293
 20
-212.297241
 42
0.126022
 10
466.034348
 20
-209.843077
 10
499.572632
 20
-153.313229
 42
-0.264772
 10
505.592845
 20
-149.884928
 10
548.534793
 20
-149.884928
 42
-0.131652
 10
551.034793
 20
-150.554801
 10
559.10659
 20
-155.215055
 42
0.267949
 10
564.10659
 20
-155.215055
 10
572.178387
 20
-150.554801
 42
-0.131652
 10
574.678387
 20
-149.884928
 10
617.620335
 20
-149.884928
 42
-0.264772
 10
623.640548
 20
-153.313229
 10
657.178831
 20
-209.843077
 42
0.126022
 10
659.636886
 20
-212.297241
 10
665.515944
 20
-215.772615
 42
-0.126022
 10
667.973999
 20
-218.22678
 10
675.532498
 20
-230.96687
 42
0.264772
 10
682.412741
 20
-234.884928
 10
697.857021
 20
-234.884928
 10
713.3013
 20
-234.884928
 42
0.264772
 10
720.181544
 20
-230.96687
 10
727.740042
 20
-218.22678
 42
-0.126022
 10
730.198098
 20
-215.772615
 10
736.077155
 20
-212.297241
 42
0.126022
 10
738.53521
 20
-209.843077
 10
772.073494
 20
-153.313229
 42
-0.264772
 10
778.093707
 20
-149.884928
 10
821.035655
 20
-149.884928
 42
-0.131652
 10
823.535655
 20
-150.554801
 10
831.607452
 20
-155.215055
 42
0.131652
 10
834.107452
 20
-155.884928
 42
0.131652
 10
836.607452
 20
-155.215055
 10
844.679248
 20
-150.554801
 42
-0.131652
 10
847.179248
 20
-149.884928
 10
890.121196
 20
-149.884928
 42
-0.264772
 10
896.141409
 20
-153.313229
 10
929.679693
 20
-209.843077
 42
0.126022
 10
932.137748
 20
-212.297241
 10
938.016806
 20
-215.772615
 42
-0.126022
 10
940.474861
 20
-218.22678
 10
948.033359
 20
-230.96687
 42
0.264772
 10
954.913603
 20
-234.884928
 10
970.357883
 20
-234.884928
 10
985.802162
 20
-234.884928
 42
0.264772
 10
992.682406
 20
-230.96687
 10
1000.240904
 20
-218.22678
 42
-0.126022
 10
1002.698959
 20
-215.772615
 10
1008.578017
 20
-212.297241
 42
0.126022
 10
1011.036072
 20
-209.843077
 10
1044.574356
 20
-153.313229
 42
-0.264772
 10
1050.594569
 20
-149.884928
 10
1093.536517
 20
-149.884928
 42
-0.131652
 10
1096.036517
 20
-150.554801
 10
1104.108313
 20
-155.215055
 42
0.131652
 10
1106.608313
 20
-155.884928
 42
0.131652
 10
1109.108313
 20
-155.215055
 10
1117.18011
 20
-150.554801
 42
-0.131652
 10
1119.68011
 20
-149.884928
 10
1162.622058
 20
-149.884928
 42
-0.264772
 10
1168.642271
 20
-153.313229
 10
1202.180555
 20
-209.843077
 42
0.126022
 10
1204.63861
 20
-212.297241
 10
1210.517667
 20
-215.772615
 42
-0.126022
 10
1212.975723
 20
-218.22678
 10
1220.534221
 20
-230.96687
 42
0.264772
 10
1227.414465
 20
-234.884928
 10
1242.858744
 20
-234.884928
 10
1258.303024
 20
-234.884928
 42
0.264772
 10
1265.183268
 20
-230.96687
 10
1270.922743
 20
-221.2928
  0
MTEXT
  5
4C
100
AcDbEntity
  8
POPIS
100
AcDbMText
 10
661.730741
 20
-42.124031
 30
0.0
 40
40.0
 41
1.0
 71
     5
 72
     1
  1
TR 84/273
  7
STYLE1
  0
LWPOLYLINE
  5
4F
100
AcDbEntity
  8
RAMEC
100
AcDbPolyline
 90
        4
 70
     1
 43
0.0
 10
0.0
 20
0.0
 10
0.0
 20
-404.001233
 10
1349.672502
 20
-404.001233
 10
1349.672502
 20
0.0
  0
DIMENSION
  5
51
100
AcDbEntity
  8
KOTY-UPLNE
100
AcDbDimension
  2
*D4
 10
152.855297
 20
-294.884928
 30
0.0
 11
289.105728
 21
-277.384928
 31
0.0
 12
-2443.32739
 22
-1237.342654
 32
0.0
  1
272,5
  3
UPLNE
100
AcDbAlignedDimension
 13
425.356159
 23
-236.902463
 33
0.0
 14
152.855297
 24
-236.902463
 34
0.0
100
AcDbRotatedDimension
1001
ACAD
1000
DSTYLE
1002
{
1070
    40
1040
3.0
1070
   147
1040
2.0
1002
}
  0
DIMENSION
  5
5E
100
AcDbEntity
  8
KOTY-UPLNE
100
AcDbDimension
  2
*D2
 10
405.356159
 20
-111.073246
 30
0.0
 11
377.230943
 21
-93.573246
 31
0.0
 12
-2443.32739
 22
-1237.342654
 32
0.0
  1
56,25
  3
UPLNE
100
AcDbAlignedDimension
 13
349.105728
 23
-151.902463
 33
0.0
 14
405.356159
 24
-236.902463
 34
0.0
100
AcDbRotatedDimension
1001
ACAD
1000
DSTYLE
1002
{
1070
    40
1040
3.0
1070
   147
1040
2.0
1002
}
  0
DIMENSION
  5
6D
100
AcDbEntity
  8
KOTY-UPLNE
100
AcDbDimension
  2
*D1
 10
349.105728
 20
-111.073246
 30
0.0
 11
289.105728
 21
-95.413246
 31
0.0
 12
-2443.32739
 22
-1237.342654
 32
0.0
  3
UPLNE
100
AcDbAlignedDimension
 13
229.105728
 23
-151.902463
 33
0.0
 14
349.105728
 24
-151.902463
 34
0.0
100
AcDbRotatedDimension
1001
ACAD
1000
DSTYLE
1002
{
1070
    40
1040
3.0
1070
   147
1040
2.0
1002
}
  0
DIMENSION
  5
7A
100
AcDbEntity
  8
KOTY-UPLNE
100
AcDbDimension
  2
*D0
 10
229.105728
 20
-111.073246
 30
0.0
 11
200.980513
 21
-93.573246
 31
0.0
 12
-2443.32739
 22
-1237.342654
 32
0.0
  1
56,25
  3
UPLNE
100
AcDbAlignedDimension
 13
172.855297
 23
-236.902463
 33
0.0
 14
229.105728
 24
-151.902463
 34
0.0
100
AcDbRotatedDimension
1001
ACAD
1000
DSTYLE
1002
{
1070
    40
1040
3.0
1070
   147
1040
2.0
1002
}
  0
DIMENSION
  5
89
100
AcDbEntity
  8
KOTY-UPLNE
100
AcDbDimension
  2
*D8
 10
690.472622
 20
-236.902463
 30
0.0
 11
682.178064
 21
-270.059506
 31
0.0
 12
-2443.32739
 22
-1237.342654
 32
0.0
 70
   128
  1
18,2
  3
UPLNE
100
AcDbAlignedDimension
 13
667.059242
 23
-218.702463
 33
0.0
 14
677.857021
 24
-236.902463
 34
0.0
 50
90.0
100
AcDbRotatedDimension
1001
ACAD
1000
DSTYLE
1002
{
1070
    40
1040
3.0
1070
   147
1040
2.0
1002
}
  0
DIMENSION
  5
99
100
AcDbEntity
  8
KOTY-UPLNE
100
AcDbDimension
  2
*D3
 10
573.338641
 20
-294.884928
 30
0.0
 11
516.661392
 21
-274.507561
 31
0.0
 12
-2443.32739
 22
-1237.342654
 32
0.0
 70
   128
  1
23,5
  3
UPLNE
100
AcDbAlignedDimension
 13
549.874539
 23
-151.902463
 33
0.0
 14
573.338641
 24
-151.902463
 34
0.0
100
AcDbRotatedDimension
1001
ACAD
1000
DSTYLE
1002
{
1070
    40
1040
3.0
1070
   147
1040
2.0
1002
}
  0
MTEXT
  5
A9
102
{ACAD_REACTORS
330
AA
102
}
100
AcDbEntity
  8
KOTY-UPLNE
 62
     5
100
AcDbMText
 10
470.290818
 20
-120.959794
 30
0.0
 40
16.5
 41
0.0
 71
     4
 72
     1
  1
\A1;R=8
  0
LEADER
  5
AA
100
AcDbEntity
  8
KOTY-UPLNE
100
AcDbLeader
  3
UPLNE
 73
     0
 74
     0
 75
     1
 40
16.5
 41
43.135714
 76
     3
 10
405.356159
 20
-236.902463
 30
0.0
 10
449.290818
 20
-135.209794
 30
0.0
 10
464.290818
 20
-135.209794
 30
0.0
 77
   256
340
A9
1001
ACAD
1000
DSTYLE
1002
{
1070
    40
1040
3.0
1070
   147
1040
2.0
1002
}
  0
ARC
  5
AB
100
AcDbEntity
  8
TRAPEZ-VELKY
100
AcDbCircle
 10
390.698182
 20
-206.271377
 30
0.0
 40
7.0
100
AcDbArc
 50
210.68
 51
239.410765
  0
DIMENSION
  5
AC
100
AcDbEntity
  8
KOTY-UPLNE
100
AcDbDimension
  2
*D6
 10
690.472622
 20
-213.402463
 30
0.0
 11
672.972622
 21
-182.652463
 31
0.0
 12
-2443.32739
 22
-1237.342654
 32
0.0
  1
61,5
  3
UPLNE
100
AcDbAlignedDimension
 13
621.60659
 23
-151.902463
 33
0.0
 14
658.093588
 24
-213.402463
 34
0.0
 50
90.0
100
AcDbRotatedDimension
1001
ACAD
1000
DSTYLE
1002
{
1070
    40
1040
3.0
1070
   147
1040
2.0
1002
}
  0
DIMENSION
  5
BB
100
AcDbEntity
  8
KOTY-UPLNE
100
AcDbDimension
  2
*D7
 10
690.472622
 20
-218.702463
 30
0.0
 11
707.962201
 21
-210.330406
 31
0.0
 12
-2443.32739
 22
-1237.342654
 32
0.0
 70
   128
  1
5,3
  3
UPLNE
100
AcDbAlignedDimension
 13
658.093588
 23
-213.402463
 33
0.0
 14
667.059242
 24
-218.702463
 34
0.0
 50
90.0
100
AcDbRotatedDimension
1001
ACAD
1000
DSTYLE
1002
{
1070
    40
1040
3.0
1070
   147
1040
2.0
1002
}
  0
ARC
  5
CB
100
AcDbEntity
  8
TRAPEZ-VELKY
100
AcDbCircle
 10
663.199044
 20
-206.271377
 30
0.0
 40
7.0
100
AcDbArc
 50
210.68
 51
239.410765
  0
MTEXT
  5
CC
102
{ACAD_REACTORS
330
CD
102
}
100
AcDbEntity
  8
KOTY-UPLNE
 62
     5
100
AcDbMText
 10
1144.489526
 20
-102.928346
 30
0.0
 40
16.5
 41
0.0
 71
     4
 72
     1
  1
\A1;R=5
  0
LEADER
  5
CD
100
AcDbEntity
  8
KOTY-UPLNE
100
AcDbLeader
  3
UPLNE
 73
     0
 74
     0
 75
     1
 40
16.5
 41
43.135714
 76
     3
 10
1104.108313
 20
-157.23259
 30
0.0
 10
1123.489526
 20
-117.178346
 30
0.0
 10
1138.489526
 20
-117.178346
 30
0.0
 77
   256
340
CC
1001
ACAD
1000
DSTYLE
1002
{
1070
    40
1040
3.0
1070
   147
1040
2.0
1002
}
  0
MTEXT
  5
CE
100
AcDbEntity
  8
POZICE
100
AcDbMText
 10
971.529094
 20
-297.485723
 30
0.0
 40
41.73
 41
1.0
 71
     5
 72
     1
  1
B
  7
STYLE1
  0
DIMENSION
  5
D0
100
AcDbEntity
  8
KOTY-UPLNE
100
AcDbDimension
  2
*D9
 10
941.839335
 20
-151.902463
 30
0.0
 11
926.206485
 21
-137.986736
 31
0.0
 12
-2443.32739
 22
-1237.342654
 32
0.0
 70
   128
  3
UPLNE
100
AcDbAlignedDimension
 13
834.107452
 23
-157.902463
 33
0.0
 14
894.107452
 24
-151.902463
 34
0.0
 50
90.0
100
AcDbRotatedDimension
1001
ACAD
1000
DSTYLE
1002
{
1070
    40
1040
3.0
1070
   147
1040
2.0
1002
}
  0
MTEXT
  5
E0
102
{ACAD_REACTORS
330
E1
102
}
100
AcDbEntity
  8
KOTY-UPLNE
 62
     5
100
AcDbMText
 10
1021.98386
 20
-106.126936
 30
0.0
 40
16.5
 41
0.0
 71
     4
 72
     1
  1
\A1;R=7
  0
LEADER
  5
E1
100
AcDbEntity
  8
KOTY-UPLNE
100
AcDbLeader
  3
UPLNE
 73
     0
 74
     0
 75
     1
 40
16.5
 41
43.135714
 76
     3
 10
1010.121315
 20
-213.402463
 30
0.0
 10
1000.98386
 20
-120.376936
 30
0.0
 10
1015.98386
 20
-120.376936
 30
0.0
 77
   256
340
E0
1001
ACAD
1000
DSTYLE
1002
{
1070
    40
1040
3.0
1070
   147
1040
2.0
1002
}
  0
MTEXT
  5
E2
102
{ACAD_REACTORS
330
E3
102
}
100
AcDbEntity
  8
KOTY-UPLNE
 62
     5
100
AcDbMText
 10
1045.19403
 20
-240.417979
 30
0.0
 40
16.5
 41
0.0
 71
     4
 72
     1
  1
\A1;R=7
  0
LEADER
  5
E3
100
AcDbEntity
  8
KOTY-UPLNE
100
AcDbLeader
  3
UPLNE
 73
     0
 74
     0
 75
     1
 40
16.5
 41
43.135714
 76
     3
 10
1001.155661
 20
-218.702463
 30
0.0
 10
1024.19403
 20
-254.667979
 30
0.0
 10
1039.19403
 20
-254.667979
 30
0.0
 77
   256
340
E2
1001
ACAD
1000
DSTYLE
1002
{
1070
    40
1040
3.0
1070
   147
1040
2.0
1002
}
  0
LEADER
  5
E4
100
AcDbEntity
  8
KOTY-UPLNE
100
AcDbLeader
  3
UPLNE
 76
     2
 10
1046.608313
 20
-151.902463
 30
0.0
 10
1021.19403
 20
-256.167979
 30
0.0
 77
   256
1001
ACAD
1000
DSTYLE
1002
{
1070
    40
1040
3.0
1070
   147
1040
2.0
1002
}
  0
MTEXT
  5
E5
100
AcDbEntity
  8
POZICE
100
AcDbMText
 10
971.529094
 20
-169.975427
 30
0.0
 40
41.73
 41
1.0
 71
     5
 72
     1
  1
A
  7
STYLE1
  0
MTEXT
  5
E6
102
{ACAD_REACTORS
330
E7
102
}
100
AcDbEntity
  8
KOTY-UPLNE
 62
     5
100
AcDbMText
 10
1096.313505
 20
-205.846711
 30
0.0
 40
16.5
 41
0.0
 71
     4
 72
     1
  1
\A1;R=5
  0
LEADER
  5
E7
100
AcDbEntity
  8
KOTY-UPLNE
100
AcDbLeader
  3
UPLNE
 73
     0
 74
     0
 75
     1
 40
16.5
 41
43.135714
 76
     3
 10
1094.876263
 20
-151.902463
 30
0.0
 10
1075.313505
 20
-220.096711
 30
0.0
 10
1090.313505
 20
-220.096711
 30
0.0
 77
   256
340
E6
1001
ACAD
1000
DSTYLE
1002
{
1070
    40
1040
3.0
1070
   147
1040
2.0
1002
}
  0
MTEXT
  5
E8
102
{ACAD_REACTORS
330
E9
102
}
100
AcDbEntity
  8
KOTY-UPLNE
 62
     5
100
AcDbMText
 10
1287.793403
 20
-120.959794
 30
0.0
 40
16.5
 41
0.0
 71
     4
 72
     1
  1
\A1;R=8
  0
LEADER
  5
E9
100
AcDbEntity
  8
KOTY-UPLNE
100
AcDbLeader
  3
UPLNE
 73
     0
 74
     0
 75
     1
 40
16.5
 41
43.135714
 76
     3
 10
1222.858744
 20
-236.902463
 30
0.0
 10
1266.793403
 20
-135.209794
 30
0.0
 10
1281.793403
 20
-135.209794
 30
0.0
 77
   256
340
E8
1001
ACAD
1000
DSTYLE
1002
{
1070
    40
1040
3.0
1070
   147
1040
2.0
1002
}
  0
DIMENSION
  5
EA
100
AcDbEntity
  8
KOTY-UPLNE
100
AcDbDimension
  2
*D12
 10
1310.69949
 20
-236.902463
 30
0.0
 11
1295.03949
 21
-194.402463
 31
0.0
 12
-2443.32739
 22
-1237.342654
 32
0.0
  3
UPLNE
100
AcDbAlignedDimension
 13
1166.608313
 23
-151.902463
 33
0.0
 14
1262.858744
 24
-236.902463
 34
0.0
 50
90.0
100
AcDbRotatedDimension
1001
ACAD
1000
DSTYLE
1002
{
1070
    40
1040
3.0
1070
   147
1040
2.0
1002
}
  0
ENDSEC
  0
SECTION
  2
OBJECTS
  0
DICTIONARY
  5
1A
100
AcDbDictionary
  3
ACAD_GROUP
350
18
  3
ACAD_MLINESTYLE
350
19
  0
DICTIONARY
  5
18
102
{ACAD_REACTORS
330
1A
102
}
100
AcDbDictionary
  0
DICTIONARY
  5
19
102
{ACAD_REACTORS
330
1A
102
}
100
AcDbDictionary
  3
STANDARD
350
1C
  0
MLINESTYLE
  5
1C
102
{ACAD_REACTORS
330
19
102
}
100
AcDbMlineStyle
  2
STANDARD
 70
     0
  3

 62
   256
 51
90.0
 52
90.0
 71
     2
 49
0.5
 62
   256
  6
BYLAYER
 49
-0.5
 62
   256
  6
BYLAYER
  0
ENDSEC
  0
EOF
