  0
SECTION
  2
HEADER
  9
$ACADVER
  1
AC1014
  9
$ACADMAINTVER
 70
     0
  9
$DWGCODEPAGE
  3
ANSI_1250
  9
$INSBASE
 10
0.0
 20
0.0
 30
0.0
  9
$EXTMIN
 10
0.0
 20
-389.481233
 30
0.0
  9
$EXTMAX
 10
1349.672502
 20
0.0
 30
0.0
  9
$LIMMIN
 10
-1000.0
 20
-1000.0
  9
$LIMMAX
 10
1000.0
 20
1000.0
  9
$ORTHOMODE
 70
     0
  9
$REGENMODE
 70
     1
  9
$FILLMODE
 70
     1
  9
$QTEXTMODE
 70
     0
  9
$MIRRTEXT
 70
     0
  9
$DRAGMODE
 70
     2
  9
$LTSCALE
 40
3.0
  9
$OSMODE
 70
    32
  9
$ATTMODE
 70
     1
  9
$TEXTSIZE
 40
50.0
  9
$TRACEWID
 40
0.05
  9
$TEXTSTYLE
  7
STANDARD
  9
$CLAYER
  8
KOTY-UPLNE
  9
$CELTYPE
  6
BYLAYER
  9
$CECOLOR
 62
   256
  9
$CELTSCALE
 40
1.0
  9
$DELOBJ
 70
     1
  9
$DISPSILH
 70
     0
  9
$DIMSCALE
 40
3.0
  9
$DIMASZ
 40
5.0
  9
$DIMEXO
 40
1.0
  9
$DIMDLI
 40
0.0
  9
$DIMRND
 40
1.0
  9
$DIMDLE
 40
1.0
  9
$DIMEXE
 40
2.0
  9
$DIMTP
 40
0.0
  9
$DIMTM
 40
0.0
  9
$DIMTXT
 40
6.44
  9
$DIMCEN
 40
1.0
  9
$DIMTSZ
 40
0.0
  9
$DIMTOL
 70
     0
  9
$DIMLIM
 70
     0
  9
$DIMTIH
 70
     0
  9
$DIMTOH
 70
     0
  9
$DIMSE1
 70
     0
  9
$DIMSE2
 70
     0
  9
$DIMTAD
 70
     3
  9
$DIMZIN
 70
     0
  9
$DIMBLK
  1

  9
$DIMASO
 70
     1
  9
$DIMSHO
 70
     0
  9
$DIMPOST
  1

  9
$DIMAPOST
  1

  9
$DIMALT
 70
     0
  9
$DIMALTD
 70
     2
  9
$DIMALTF
 40
25.4
  9
$DIMLFAC
 40
1.0
  9
$DIMTOFL
 70
     1
  9
$DIMTVP
 40
0.0
  9
$DIMTIX
 70
     1
  9
$DIMSOXD
 70
     0
  9
$DIMSAH
 70
     0
  9
$DIMBLK1
  1

  9
$DIMBLK2
  1

  9
$DIMSTYLE
  2
UPLNE
  9
$DIMCLRD
 70
   256
  9
$DIMCLRE
 70
   256
  9
$DIMCLRT
 70
     5
  9
$DIMTFAC
 40
1.0
  9
$DIMGAP
 40
2.0
  9
$DIMJUST
 70
     0
  9
$DIMSD1
 70
     0
  9
$DIMSD2
 70
     0
  9
$DIMTOLJ
 70
     1
  9
$DIMTZIN
 70
     0
  9
$DIMALTZ
 70
     0
  9
$DIMALTTZ
 70
     0
  9
$DIMFIT
 70
     5
  9
$DIMUPT
 70
     0
  9
$DIMUNIT
 70
     2
  9
$DIMDEC
 70
     0
  9
$DIMTDEC
 70
     0
  9
$DIMALTU
 70
     2
  9
$DIMALTTD
 70
     2
  9
$DIMTXSTY
  7
STANDARD
  9
$DIMAUNIT
 70
     0
  9
$LUNITS
 70
     2
  9
$LUPREC
 70
     2
  9
$SKETCHINC
 40
0.1
  9
$FILLETRAD
 40
5.0
  9
$AUNITS
 70
     0
  9
$AUPREC
 70
     2
  9
$MENU
  1
acad
  9
$ELEVATION
 40
0.0
  9
$PELEVATION
 40
0.0
  9
$THICKNESS
 40
0.0
  9
$LIMCHECK
 70
     0
  9
$BLIPMODE
 70
     1
  9
$CHAMFERA
 40
0.0
  9
$CHAMFERB
 40
0.0
  9
$CHAMFERC
 40
0.0
  9
$CHAMFERD
 40
0.0
  9
$SKPOLY
 70
     0
  9
$TDCREATE
 40
2448722.252204629
  9
$TDUPDATE
 40
2452465.892548727
  9
$TDINDWG
 40
2.5235745370
  9
$TDUSRTIMER
 40
2.5235745370
  9
$USRTIMER
 70
     1
  9
$ANGBASE
 50
0.0
  9
$ANGDIR
 70
     0
  9
$PDMODE
 70
     0
  9
$PDSIZE
 40
0.0
  9
$PLINEWID
 40
0.0
  9
$COORDS
 70
     2
  9
$SPLFRAME
 70
     0
  9
$SPLINETYPE
 70
     6
  9
$SPLINESEGS
 70
     8
  9
$ATTDIA
 70
     0
  9
$ATTREQ
 70
     1
  9
$HANDLING
 70
     1
  9
$HANDSEED
  5
14A
  9
$SURFTAB1
 70
     6
  9
$SURFTAB2
 70
     6
  9
$SURFTYPE
 70
     6
  9
$SURFU
 70
     6
  9
$SURFV
 70
     6
  9
$UCSNAME
  2

  9
$UCSORG
 10
0.0
 20
0.0
 30
0.0
  9
$UCSXDIR
 10
1.0
 20
0.0
 30
0.0
  9
$UCSYDIR
 10
0.0
 20
1.0
 30
0.0
  9
$PUCSNAME
  2

  9
$PUCSORG
 10
0.0
 20
0.0
 30
0.0
  9
$PUCSXDIR
 10
1.0
 20
0.0
 30
0.0
  9
$PUCSYDIR
 10
0.0
 20
1.0
 30
0.0
  9
$USERI1
 70
     1
  9
$USERI2
 70
     0
  9
$USERI3
 70
     0
  9
$USERI4
 70
     0
  9
$USERI5
 70
     0
  9
$USERR1
 40
0.0
  9
$USERR2
 40
0.0
  9
$USERR3
 40
0.0
  9
$USERR4
 40
0.0
  9
$USERR5
 40
0.0
  9
$WORLDVIEW
 70
     1
  9
$SHADEDGE
 70
     3
  9
$SHADEDIF
 70
    70
  9
$TILEMODE
 70
     1
  9
$MAXACTVP
 70
    16
  9
$PINSBASE
 10
0.0
 20
0.0
 30
0.0
  9
$PLIMCHECK
 70
     0
  9
$PEXTMIN
 10
1.000000E+20
 20
1.000000E+20
 30
1.000000E+20
  9
$PEXTMAX
 10
-1.000000E+20
 20
-1.000000E+20
 30
-1.000000E+20
  9
$PLIMMIN
 10
0.0
 20
0.0
  9
$PLIMMAX
 10
12.0
 20
9.0
  9
$UNITMODE
 70
     0
  9
$VISRETAIN
 70
     0
  9
$PLINEGEN
 70
     0
  9
$PSLTSCALE
 70
     0
  9
$TREEDEPTH
 70
  3020
  9
$PICKSTYLE
 70
     0
  9
$CMLSTYLE
  2
STANDARD
  9
$CMLJUST
 70
     0
  9
$CMLSCALE
 40
1.0
  9
$PROXYGRAPHICS
 70
     1
  9
$MEASUREMENT
 70
     0
  0
ENDSEC
  0
SECTION
  2
CLASSES
  0
CLASS
  1
LWPOLYLINE
  2
AcDbPolyline
  3
"AutoCAD"
 90
        0
280
     0
281
     1
  0
CLASS
  1
DICTIONARYVAR
  2
AcDbDictionaryVar
  3
"AutoCAD"
 90
        0
280
     0
281
     0
  0
ENDSEC
  0
SECTION
  2
TABLES
  0
TABLE
  2
VPORT
  5
12
100
AcDbSymbolTable
 70
     2
  0
VPORT
  5
149
100
AcDbSymbolTableRecord
100
AcDbViewportTableRecord
  2
*ACTIVE
 70
     0
 10
0.0
 20
0.0
 11
1.0
 21
1.0
 12
692.881879
 22
-122.124611
 13
0.0
 23
0.0
 14
1.0
 24
1.0
 15
600.0
 25
600.0
 16
0.0
 26
0.0
 36
1.0
 17
0.0
 27
0.0
 37
0.0
 40
683.775662
 41
2.224444
 42
50.0
 43
0.0
 44
0.0
 50
0.0
 51
0.0
 71
     0
 72
   100
 73
     1
 74
     0
 75
     0
 76
     0
 77
     0
 78
     0
  0
ENDTAB
  0
TABLE
  2
LTYPE
  5
D
100
AcDbSymbolTable
 70
     1
  0
LTYPE
  5
E
100
AcDbSymbolTableRecord
100
AcDbLinetypeTableRecord
  2
BYBLOCK
 70
     0
  3

 72
    65
 73
     0
 40
0.0
  0
LTYPE
  5
F
100
AcDbSymbolTableRecord
100
AcDbLinetypeTableRecord
  2
BYLAYER
 70
     0
  3

 72
    65
 73
     0
 40
0.0
  0
LTYPE
  5
5
100
AcDbSymbolTableRecord
100
AcDbLinetypeTableRecord
  2
CONTINUOUS
 70
     0
  3
Solid line
 72
    65
 73
     0
 40
0.0
  0
ENDTAB
  0
TABLE
  2
LAYER
  5
A
100
AcDbSymbolTable
 70
     7
  0
LAYER
  5
4
100
AcDbSymbolTableRecord
100
AcDbLayerTableRecord
  2
0
 70
     0
 62
     7
  6
CONTINUOUS
  0
LAYER
  5
1B
100
AcDbSymbolTableRecord
100
AcDbLayerTableRecord
  2
KOTY-UPLNE
 70
     0
 62
     7
  6
CONTINUOUS
  0
LAYER
  5
33
100
AcDbSymbolTableRecord
100
AcDbLayerTableRecord
  2
RAMEC
 70
     0
 62
     5
  6
CONTINUOUS
  0
LAYER
  5
115
100
AcDbSymbolTableRecord
100
AcDbLayerTableRecord
  2
POZICE
 70
     0
 62
     1
  6
CONTINUOUS
  0
LAYER
  5
30
100
AcDbSymbolTableRecord
100
AcDbLayerTableRecord
  2
POPIS
 70
     0
 62
     1
  6
CONTINUOUS
  0
LAYER
  5
28
100
AcDbSymbolTableRecord
100
AcDbLayerTableRecord
  2
DEFPOINTS
 70
     0
 62
     7
  6
CONTINUOUS
  0
LAYER
  5
2E
100
AcDbSymbolTableRecord
100
AcDbLayerTableRecord
  2
TRAPEZ-VELKY
 70
     0
 62
     7
  6
CONTINUOUS
  0
ENDTAB
  0
TABLE
  2
STYLE
  5
B
100
AcDbSymbolTable
 70
     2
  0
STYLE
  5
C
100
AcDbSymbolTableRecord
100
AcDbTextStyleTableRecord
  2
STANDARD
 70
     0
 40
0.0
 41
0.9
 50
0.0
 71
     0
 42
50.0
  3
simplex.shx
  4

  0
STYLE
  5
31
100
AcDbSymbolTableRecord
100
AcDbTextStyleTableRecord
  2
STYLE1
 70
     0
 40
0.0
 41
0.9
 50
0.0
 71
     0
 42
50.0
  3
simplex.shx
  4

  0
ENDTAB
  0
TABLE
  2
VIEW
  5
10
100
AcDbSymbolTable
 70
     0
  0
ENDTAB
  0
TABLE
  2
UCS
  5
11
100
AcDbSymbolTable
 70
     0
  0
ENDTAB
  0
TABLE
  2
APPID
  5
14
100
AcDbSymbolTable
 70
     1
  0
APPID
  5
15
100
AcDbSymbolTableRecord
100
AcDbRegAppTableRecord
  2
ACAD
 70
     0
  0
ENDTAB
  0
TABLE
  2
DIMSTYLE
  5
16
100
AcDbSymbolTable
 70
     1
  0
DIMSTYLE
105
1D
102
{ACAD_REACTORS
330
34
330
1F
330
51
330
60
330
7D
330
41
330
6D
330
118
330
136
330
127
330
105
330
F6
330
E6
330
D6
330
C6
330
B6
330
A6
330
99
330
8A
102
}
100
AcDbSymbolTableRecord
100
AcDbDimStyleTableRecord
  2
UPLNE
 70
     0
  3

  4

  5

  6

  7

 40
5.0
 41
5.0
 42
1.0
 43
0.0
 44
2.0
 45
1.0
 46
1.0
 47
0.0
 48
0.0
140
6.44
141
1.0
142
0.0
143
25.4
144
1.0
145
0.0
146
1.0
147
1.0
 71
     0
 72
     0
 73
     0
 74
     0
 75
     0
 76
     0
 77
     3
 78
     0
170
     0
171
     2
172
     1
173
     0
174
     1
175
     0
176
   256
177
   256
178
     5
270
     2
271
     0
272
     0
273
     2
274
     2
340
C
275
     0
280
     0
281
     0
282
     0
283
     1
284
     0
285
     0
286
     0
287
     5
288
     0
  0
ENDTAB
  0
TABLE
  2
BLOCK_RECORD
  5
1
100
AcDbSymbolTable
 70
    19
  0
BLOCK_RECORD
  5
2
100
AcDbSymbolTableRecord
100
AcDbBlockTableRecord
  2
*MODEL_SPACE
  0
BLOCK_RECORD
  5
7
100
AcDbSymbolTableRecord
100
AcDbBlockTableRecord
  2
*PAPER_SPACE
  0
BLOCK_RECORD
  5
35
100
AcDbSymbolTableRecord
100
AcDbBlockTableRecord
  2
*D0
  0
BLOCK_RECORD
  5
20
100
AcDbSymbolTableRecord
100
AcDbBlockTableRecord
  2
*D1
  0
BLOCK_RECORD
  5
52
100
AcDbSymbolTableRecord
100
AcDbBlockTableRecord
  2
*D2
  0
BLOCK_RECORD
  5
61
100
AcDbSymbolTableRecord
100
AcDbBlockTableRecord
  2
*D3
  0
BLOCK_RECORD
  5
7E
100
AcDbSymbolTableRecord
100
AcDbBlockTableRecord
  2
*D4
  0
BLOCK_RECORD
  5
42
100
AcDbSymbolTableRecord
100
AcDbBlockTableRecord
  2
*D5
  0
BLOCK_RECORD
  5
6E
100
AcDbSymbolTableRecord
100
AcDbBlockTableRecord
  2
*D6
  0
BLOCK_RECORD
  5
119
100
AcDbSymbolTableRecord
100
AcDbBlockTableRecord
  2
*D7
  0
BLOCK_RECORD
  5
137
100
AcDbSymbolTableRecord
100
AcDbBlockTableRecord
  2
*D8
  0
BLOCK_RECORD
  5
128
100
AcDbSymbolTableRecord
100
AcDbBlockTableRecord
  2
*D9
  0
BLOCK_RECORD
  5
106
100
AcDbSymbolTableRecord
100
AcDbBlockTableRecord
  2
*D10
  0
BLOCK_RECORD
  5
F7
100
AcDbSymbolTableRecord
100
AcDbBlockTableRecord
  2
*D11
  0
BLOCK_RECORD
  5
E7
100
AcDbSymbolTableRecord
100
AcDbBlockTableRecord
  2
*D12
  0
BLOCK_RECORD
  5
D7
100
AcDbSymbolTableRecord
100
AcDbBlockTableRecord
  2
*D13
  0
BLOCK_RECORD
  5
C7
100
AcDbSymbolTableRecord
100
AcDbBlockTableRecord
  2
*D14
  0
BLOCK_RECORD
  5
B7
100
AcDbSymbolTableRecord
100
AcDbBlockTableRecord
  2
*D15
  0
BLOCK_RECORD
  5
A7
100
AcDbSymbolTableRecord
100
AcDbBlockTableRecord
  2
*D16
  0
BLOCK_RECORD
  5
9A
100
AcDbSymbolTableRecord
100
AcDbBlockTableRecord
  2
*D17
  0
BLOCK_RECORD
  5
8B
100
AcDbSymbolTableRecord
100
AcDbBlockTableRecord
  2
*D18
  0
ENDTAB
  0
ENDSEC
  0
SECTION
  2
BLOCKS
  0
BLOCK
  5
3
100
AcDbEntity
  8
0
100
AcDbBlockBegin
  2
*MODEL_SPACE
 70
     0
 10
0.0
 20
0.0
 30
0.0
  3
*MODEL_SPACE
  1

  0
ENDBLK
  5
6
100
AcDbEntity
  8
0
100
AcDbBlockEnd
  0
BLOCK
  5
8
100
AcDbEntity
 67
     1
  8
0
100
AcDbBlockBegin
  2
*PAPER_SPACE
 70
     0
 10
0.0
 20
0.0
 30
0.0
  3
*PAPER_SPACE
  1

  0
ENDBLK
  5
9
100
AcDbEntity
 67
     1
  8
0
100
AcDbBlockEnd
  0
BLOCK
  5
3F
100
AcDbEntity
  8
0
100
AcDbBlockBegin
  2
*D0
 70
     1
 10
0.0
 20
0.0
 30
0.0
  3
*D0
  1

  0
LINE
  5
36
100
AcDbEntity
  8
0
  6
BYBLOCK
100
AcDbLine
 10
1095.111699
 20
-4919.599082
 30
0.0
 11
1095.111699
 21
-5049.022274
 31
0.0
  0
LINE
  5
37
100
AcDbEntity
  8
0
  6
BYBLOCK
100
AcDbLine
 10
1295.111699
 20
-4919.599082
 30
0.0
 11
1295.111699
 21
-5049.022274
 31
0.0
  0
LINE
  5
38
100
AcDbEntity
  8
0
  6
BYBLOCK
100
AcDbLine
 10
1110.111699
 20
-5043.022274
 30
0.0
 11
1280.111699
 21
-5043.022274
 31
0.0
  0
SOLID
  5
39
100
AcDbEntity
  8
0
  6
BYBLOCK
100
AcDbTrace
 10
1110.111699
 20
-5040.522274
 30
0.0
 11
1110.111699
 21
-5045.522274
 31
0.0
 12
1095.111699
 22
-5043.022274
 32
0.0
 13
1095.111699
 23
-5043.022274
 33
0.0
  0
SOLID
  5
3A
100
AcDbEntity
  8
0
  6
BYBLOCK
100
AcDbTrace
 10
1280.111699
 20
-5040.522274
 30
0.0
 11
1280.111699
 21
-5045.522274
 31
0.0
 12
1295.111699
 22
-5043.022274
 32
0.0
 13
1295.111699
 23
-5043.022274
 33
0.0
  0
MTEXT
  5
3B
100
AcDbEntity
  8
0
  6
BYBLOCK
 62
     5
100
AcDbMText
 10
1195.111699
 20
-5027.362274
 30
0.0
 40
19.32
 41
0.0
 71
     5
 72
     1
  1
\A1;200
  0
POINT
  5
3C
100
AcDbEntity
  8
DEFPOINTS
  6
BYBLOCK
 62
     0
100
AcDbPoint
 10
1095.111699
 20
-4916.599082
 30
0.0
  0
POINT
  5
3D
100
AcDbEntity
  8
DEFPOINTS
  6
BYBLOCK
 62
     0
100
AcDbPoint
 10
1295.111699
 20
-4916.599082
 30
0.0
  0
POINT
  5
3E
100
AcDbEntity
  8
DEFPOINTS
  6
BYBLOCK
 62
     0
100
AcDbPoint
 10
1295.111699
 20
-5043.022274
 30
0.0
  0
ENDBLK
  5
40
100
AcDbEntity
  8
0
100
AcDbBlockEnd
  0
BLOCK
  5
2B
100
AcDbEntity
  8
0
100
AcDbBlockBegin
  2
*D1
 70
     1
 10
0.0
 20
0.0
 30
0.0
  3
*D1
  1

  0
LINE
  5
21
100
AcDbEntity
  8
0
  6
BYBLOCK
100
AcDbLine
 10
1895.111699
 20
-4919.599082
 30
0.0
 11
1895.111699
 21
-5109.022274
 31
0.0
  0
LINE
  5
22
100
AcDbEntity
  8
0
  6
BYBLOCK
100
AcDbLine
 10
1095.111699
 20
-4919.599082
 30
0.0
 11
1095.111699
 21
-5109.022274
 31
0.0
  0
LINE
  5
23
100
AcDbEntity
  8
0
  6
BYBLOCK
100
AcDbLine
 10
1880.111699
 20
-5103.022274
 30
0.0
 11
1110.111699
 21
-5103.022274
 31
0.0
  0
SOLID
  5
24
100
AcDbEntity
  8
0
  6
BYBLOCK
100
AcDbTrace
 10
1880.111699
 20
-5100.522274
 30
0.0
 11
1880.111699
 21
-5105.522274
 31
0.0
 12
1895.111699
 22
-5103.022274
 32
0.0
 13
1895.111699
 23
-5103.022274
 33
0.0
  0
SOLID
  5
25
100
AcDbEntity
  8
0
  6
BYBLOCK
100
AcDbTrace
 10
1110.111699
 20
-5100.522274
 30
0.0
 11
1110.111699
 21
-5105.522274
 31
0.0
 12
1095.111699
 22
-5103.022274
 32
0.0
 13
1095.111699
 23
-5103.022274
 33
0.0
  0
MTEXT
  5
26
100
AcDbEntity
  8
0
  6
BYBLOCK
 62
     5
100
AcDbMText
 10
1495.111699
 20
-5087.362274
 30
0.0
 40
19.32
 41
0.0
 71
     5
 72
     1
  1
\A1;800
  0
POINT
  5
27
100
AcDbEntity
  8
DEFPOINTS
  6
BYBLOCK
 62
     0
100
AcDbPoint
 10
1895.111699
 20
-4916.599082
 30
0.0
  0
POINT
  5
29
100
AcDbEntity
  8
DEFPOINTS
  6
BYBLOCK
 62
     0
100
AcDbPoint
 10
1095.111699
 20
-4916.599082
 30
0.0
  0
POINT
  5
2A
100
AcDbEntity
  8
DEFPOINTS
  6
BYBLOCK
 62
     0
100
AcDbPoint
 10
1095.111699
 20
-5103.022274
 30
0.0
  0
ENDBLK
  5
2C
100
AcDbEntity
  8
0
100
AcDbBlockEnd
  0
BLOCK
  5
5E
100
AcDbEntity
  8
0
100
AcDbBlockBegin
  2
*D2
 70
     1
 10
0.0
 20
0.0
 30
0.0
  3
*D2
  1

  0
LINE
  5
53
100
AcDbEntity
  8
0
  6
BYBLOCK
100
AcDbLine
 10
1222.611699
 20
-4979.079082
 30
0.0
 11
1222.611699
 21
-4867.731824
 31
0.0
  0
LINE
  5
54
100
AcDbEntity
  8
0
  6
BYBLOCK
100
AcDbLine
 10
1262.611699
 20
-4908.599082
 30
0.0
 11
1262.611699
 21
-4867.731824
 31
0.0
  0
LINE
  5
55
100
AcDbEntity
  8
0
  6
BYBLOCK
100
AcDbLine
 10
1207.611699
 20
-4873.731824
 30
0.0
 11
1192.611699
 21
-4873.731824
 31
0.0
  0
LINE
  5
56
100
AcDbEntity
  8
0
  6
BYBLOCK
100
AcDbLine
 10
1277.611699
 20
-4873.731824
 30
0.0
 11
1292.611699
 21
-4873.731824
 31
0.0
  0
LINE
  5
57
100
AcDbEntity
  8
0
  6
BYBLOCK
100
AcDbLine
 10
1222.611699
 20
-4873.731824
 30
0.0
 11
1262.611699
 21
-4873.731824
 31
0.0
  0
SOLID
  5
58
100
AcDbEntity
  8
0
  6
BYBLOCK
100
AcDbTrace
 10
1207.611699
 20
-4871.231824
 30
0.0
 11
1207.611699
 21
-4876.231824
 31
0.0
 12
1222.611699
 22
-4873.731824
 32
0.0
 13
1222.611699
 23
-4873.731824
 33
0.0
  0
SOLID
  5
59
100
AcDbEntity
  8
0
  6
BYBLOCK
100
AcDbTrace
 10
1277.611699
 20
-4871.231824
 30
0.0
 11
1277.611699
 21
-4876.231824
 31
0.0
 12
1262.611699
 22
-4873.731824
 32
0.0
 13
1262.611699
 23
-4873.731824
 33
0.0
  0
MTEXT
  5
5A
100
AcDbEntity
  8
0
  6
BYBLOCK
 62
     5
100
AcDbMText
 10
1242.611699
 20
-4858.071824
 30
0.0
 40
19.32
 41
0.0
 71
     5
 72
     1
  1
\A1;40
  0
POINT
  5
5B
100
AcDbEntity
  8
DEFPOINTS
  6
BYBLOCK
 62
     0
100
AcDbPoint
 10
1222.611699
 20
-4982.079082
 30
0.0
  0
POINT
  5
5C
100
AcDbEntity
  8
DEFPOINTS
  6
BYBLOCK
 62
     0
100
AcDbPoint
 10
1262.611699
 20
-4911.599082
 30
0.0
  0
POINT
  5
5D
100
AcDbEntity
  8
DEFPOINTS
  6
BYBLOCK
 62
     0
100
AcDbPoint
 10
1262.611699
 20
-4873.731824
 30
0.0
  0
ENDBLK
  5
5F
100
AcDbEntity
  8
0
100
AcDbBlockEnd
  0
BLOCK
  5
6B
100
AcDbEntity
  8
0
100
AcDbBlockBegin
  2
*D3
 70
     1
 10
0.0
 20
0.0
 30
0.0
  3
*D3
  1

  0
LINE
  5
62
100
AcDbEntity
  8
0
  6
BYBLOCK
100
AcDbLine
 10
1262.611699
 20
-4908.599082
 30
0.0
 11
1262.611699
 21
-4867.731824
 31
0.0
  0
LINE
  5
63
100
AcDbEntity
  8
0
  6
BYBLOCK
100
AcDbLine
 10
1327.611699
 20
-4908.599082
 30
0.0
 11
1327.611699
 21
-4867.731824
 31
0.0
  0
LINE
  5
64
100
AcDbEntity
  8
0
  6
BYBLOCK
100
AcDbLine
 10
1277.611699
 20
-4873.731824
 30
0.0
 11
1312.611699
 21
-4873.731824
 31
0.0
  0
SOLID
  5
65
100
AcDbEntity
  8
0
  6
BYBLOCK
100
AcDbTrace
 10
1277.611699
 20
-4871.231824
 30
0.0
 11
1277.611699
 21
-4876.231824
 31
0.0
 12
1262.611699
 22
-4873.731824
 32
0.0
 13
1262.611699
 23
-4873.731824
 33
0.0
  0
SOLID
  5
66
100
AcDbEntity
  8
0
  6
BYBLOCK
100
AcDbTrace
 10
1312.611699
 20
-4871.231824
 30
0.0
 11
1312.611699
 21
-4876.231824
 31
0.0
 12
1327.611699
 22
-4873.731824
 32
0.0
 13
1327.611699
 23
-4873.731824
 33
0.0
  0
MTEXT
  5
67
100
AcDbEntity
  8
0
  6
BYBLOCK
 62
     5
100
AcDbMText
 10
1295.111699
 20
-4858.071824
 30
0.0
 40
19.32
 41
0.0
 71
     5
 72
     1
  1
\A1;65
  0
POINT
  5
68
100
AcDbEntity
  8
DEFPOINTS
  6
BYBLOCK
 62
     0
100
AcDbPoint
 10
1262.611699
 20
-4911.599082
 30
0.0
  0
POINT
  5
69
100
AcDbEntity
  8
DEFPOINTS
  6
BYBLOCK
 62
     0
100
AcDbPoint
 10
1327.611699
 20
-4911.599082
 30
0.0
  0
POINT
  5
6A
100
AcDbEntity
  8
DEFPOINTS
  6
BYBLOCK
 62
     0
100
AcDbPoint
 10
1327.611699
 20
-4873.731824
 30
0.0
  0
ENDBLK
  5
6C
100
AcDbEntity
  8
0
100
AcDbBlockEnd
  0
BLOCK
  5
88
100
AcDbEntity
  8
0
100
AcDbBlockBegin
  2
*D4
 70
     1
 10
0.0
 20
0.0
 30
0.0
  3
*D4
  1

  0
LINE
  5
7F
100
AcDbEntity
  8
0
  6
BYBLOCK
100
AcDbLine
 10
1367.611699
 20
-4985.079082
 30
0.0
 11
1367.611699
 21
-5049.022274
 31
0.0
  0
LINE
  5
80
100
AcDbEntity
  8
0
  6
BYBLOCK
100
AcDbLine
 10
1422.611699
 20
-4985.079082
 30
0.0
 11
1422.611699
 21
-5049.022274
 31
0.0
  0
LINE
  5
81
100
AcDbEntity
  8
0
  6
BYBLOCK
100
AcDbLine
 10
1382.611699
 20
-5043.022274
 30
0.0
 11
1407.611699
 21
-5043.022274
 31
0.0
  0
SOLID
  5
82
100
AcDbEntity
  8
0
  6
BYBLOCK
100
AcDbTrace
 10
1382.611699
 20
-5040.522274
 30
0.0
 11
1382.611699
 21
-5045.522274
 31
0.0
 12
1367.611699
 22
-5043.022274
 32
0.0
 13
1367.611699
 23
-5043.022274
 33
0.0
  0
SOLID
  5
83
100
AcDbEntity
  8
0
  6
BYBLOCK
100
AcDbTrace
 10
1407.611699
 20
-5040.522274
 30
0.0
 11
1407.611699
 21
-5045.522274
 31
0.0
 12
1422.611699
 22
-5043.022274
 32
0.0
 13
1422.611699
 23
-5043.022274
 33
0.0
  0
MTEXT
  5
84
100
AcDbEntity
  8
0
  6
BYBLOCK
 62
     5
100
AcDbMText
 10
1395.111699
 20
-5027.362274
 30
0.0
 40
19.32
 41
0.0
 71
     5
 72
     1
  1
\A1;55
  0
POINT
  5
85
100
AcDbEntity
  8
DEFPOINTS
  6
BYBLOCK
 62
     0
100
AcDbPoint
 10
1367.611699
 20
-4982.079082
 30
0.0
  0
POINT
  5
86
100
AcDbEntity
  8
DEFPOINTS
  6
BYBLOCK
 62
     0
100
AcDbPoint
 10
1422.611699
 20
-4982.079082
 30
0.0
  0
POINT
  5
87
100
AcDbEntity
  8
DEFPOINTS
  6
BYBLOCK
 62
     0
100
AcDbPoint
 10
1422.611699
 20
-5043.022274
 30
0.0
  0
ENDBLK
  5
89
100
AcDbEntity
  8
0
100
AcDbBlockEnd
  0
BLOCK
  5
4F
100
AcDbEntity
  8
0
100
AcDbBlockBegin
  2
*D5
 70
     1
 10
0.0
 20
0.0
 30
0.0
  3
*D5
  1

  0
LINE
  5
43
100
AcDbEntity
  8
0
  6
BYBLOCK
100
AcDbLine
 10
1298.111699
 20
-4916.599082
 30
0.0
 11
1372.190036
 21
-4916.599082
 31
0.0
  0
LINE
  5
44
100
AcDbEntity
  8
0
  6
BYBLOCK
100
AcDbLine
 10
1330.611699
 20
-4911.599082
 30
0.0
 11
1372.190036
 21
-4911.599082
 31
0.0
  0
LINE
  5
45
100
AcDbEntity
  8
0
  6
BYBLOCK
100
AcDbLine
 10
1366.190036
 20
-4931.599082
 30
0.0
 11
1366.190036
 21
-4946.599082
 31
0.0
  0
LINE
  5
46
100
AcDbEntity
  8
0
  6
BYBLOCK
100
AcDbLine
 10
1366.190036
 20
-4896.599082
 30
0.0
 11
1366.190036
 21
-4881.599082
 31
0.0
  0
MTEXT
  5
47
100
AcDbEntity
  8
0
  6
BYBLOCK
 62
     5
100
AcDbMText
 10
1350.440036
 20
-4895.166768
 30
0.0
 40
19.32
 41
0.0
 71
     5
 72
     1
  1
\A1;5
 11
0.0
 21
1.0
 31
0.0
  0
LINE
  5
48
100
AcDbEntity
  8
0
  6
BYBLOCK
100
AcDbLine
 10
1366.190036
 20
-4916.599082
 30
0.0
 11
1366.190036
 21
-4911.599082
 31
0.0
  0
LINE
  5
49
100
AcDbEntity
  8
0
  6
BYBLOCK
100
AcDbLine
 10
1366.190036
 20
-4916.599082
 30
0.0
 11
1366.190036
 21
-4911.599082
 31
0.0
  0
SOLID
  5
4A
100
AcDbEntity
  8
0
  6
BYBLOCK
100
AcDbTrace
 10
1363.690036
 20
-4931.599082
 30
0.0
 11
1368.690036
 21
-4931.599082
 31
0.0
 12
1366.190036
 22
-4916.599082
 32
0.0
 13
1366.190036
 23
-4916.599082
 33
0.0
  0
SOLID
  5
4B
100
AcDbEntity
  8
0
  6
BYBLOCK
100
AcDbTrace
 10
1363.690036
 20
-4896.599082
 30
0.0
 11
1368.690036
 21
-4896.599082
 31
0.0
 12
1366.190036
 22
-4911.599082
 32
0.0
 13
1366.190036
 23
-4911.599082
 33
0.0
  0
POINT
  5
4C
100
AcDbEntity
  8
DEFPOINTS
  6
BYBLOCK
 62
     0
100
AcDbPoint
 10
1295.111699
 20
-4916.599082
 30
0.0
  0
POINT
  5
4D
100
AcDbEntity
  8
DEFPOINTS
  6
BYBLOCK
 62
     0
100
AcDbPoint
 10
1327.611699
 20
-4911.599082
 30
0.0
  0
POINT
  5
4E
100
AcDbEntity
  8
DEFPOINTS
  6
BYBLOCK
 62
     0
100
AcDbPoint
 10
1366.190036
 20
-4911.599082
 30
0.0
  0
ENDBLK
  5
50
100
AcDbEntity
  8
0
100
AcDbBlockEnd
  0
BLOCK
  5
7B
100
AcDbEntity
  8
0
100
AcDbBlockBegin
  2
*D6
 70
     1
 10
0.0
 20
0.0
 30
0.0
  3
*D6
  1

  0
LINE
  5
6F
100
AcDbEntity
  8
0
  6
BYBLOCK
100
AcDbLine
 10
1398.111699
 20
-4975.079082
 30
0.0
 11
1477.93324
 21
-4975.079082
 31
0.0
  0
LINE
  5
70
100
AcDbEntity
  8
0
  6
BYBLOCK
100
AcDbLine
 10
1425.611699
 20
-4982.079082
 30
0.0
 11
1477.93324
 21
-4982.079082
 31
0.0
  0
LINE
  5
71
100
AcDbEntity
  8
0
  6
BYBLOCK
100
AcDbLine
 10
1471.93324
 20
-4960.079082
 30
0.0
 11
1471.93324
 21
-4945.079082
 31
0.0
  0
LINE
  5
72
100
AcDbEntity
  8
0
  6
BYBLOCK
100
AcDbLine
 10
1471.93324
 20
-4997.079082
 30
0.0
 11
1471.93324
 21
-5012.079082
 31
0.0
  0
MTEXT
  5
73
100
AcDbEntity
  8
0
  6
BYBLOCK
 62
     5
100
AcDbMText
 10
1456.18324
 20
-4998.437193
 30
0.0
 40
19.32
 41
0.0
 71
     5
 72
     1
  1
\A1;7
 11
0.0
 21
1.0
 31
0.0
  0
LINE
  5
74
100
AcDbEntity
  8
0
  6
BYBLOCK
100
AcDbLine
 10
1471.93324
 20
-4975.079082
 30
0.0
 11
1471.93324
 21
-4982.079082
 31
0.0
  0
LINE
  5
75
100
AcDbEntity
  8
0
  6
BYBLOCK
100
AcDbLine
 10
1471.93324
 20
-4975.079082
 30
0.0
 11
1471.93324
 21
-4982.079082
 31
0.0
  0
SOLID
  5
76
100
AcDbEntity
  8
0
  6
BYBLOCK
100
AcDbTrace
 10
1469.43324
 20
-4960.079082
 30
0.0
 11
1474.43324
 21
-4960.079082
 31
0.0
 12
1471.93324
 22
-4975.079082
 32
0.0
 13
1471.93324
 23
-4975.079082
 33
0.0
  0
SOLID
  5
77
100
AcDbEntity
  8
0
  6
BYBLOCK
100
AcDbTrace
 10
1469.43324
 20
-4997.079082
 30
0.0
 11
1474.43324
 21
-4997.079082
 31
0.0
 12
1471.93324
 22
-4982.079082
 32
0.0
 13
1471.93324
 23
-4982.079082
 33
0.0
  0
POINT
  5
78
100
AcDbEntity
  8
DEFPOINTS
  6
BYBLOCK
 62
     0
100
AcDbPoint
 10
1395.111699
 20
-4975.079082
 30
0.0
  0
POINT
  5
79
100
AcDbEntity
  8
DEFPOINTS
  6
BYBLOCK
 62
     0
100
AcDbPoint
 10
1422.611699
 20
-4982.079082
 30
0.0
  0
POINT
  5
7A
100
AcDbEntity
  8
DEFPOINTS
  6
BYBLOCK
 62
     0
100
AcDbPoint
 10
1471.93324
 20
-4982.079082
 30
0.0
  0
ENDBLK
  5
7C
100
AcDbEntity
  8
0
100
AcDbBlockEnd
  0
BLOCK
  5
125
100
AcDbEntity
  8
0
100
AcDbBlockBegin
  2
*D7
 70
     1
 10
0.0
 20
0.0
 30
0.0
  3
*D7
  1

  0
LINE
  5
11A
100
AcDbEntity
  8
0
  6
BYBLOCK
100
AcDbLine
 10
1828.70238
 20
-4964.555364
 30
0.0
 11
1879.420903
 21
-4818.631273
 31
0.0
  0
LINE
  5
11B
100
AcDbEntity
  8
0
  6
BYBLOCK
100
AcDbLine
 10
1837.347642
 20
-4967.560179
 30
0.0
 11
1888.066165
 21
-4821.636088
 31
0.0
  0
LINE
  5
11C
100
AcDbEntity
  8
0
  6
BYBLOCK
100
AcDbLine
 10
1863.282498
 20
-4819.374162
 30
0.0
 11
1849.113911
 21
-4814.449617
 31
0.0
  0
LINE
  5
11D
100
AcDbEntity
  8
0
  6
BYBLOCK
100
AcDbLine
 10
1900.264934
 20
-4832.228068
 30
0.0
 11
1914.433521
 21
-4837.152613
 31
0.0
  0
LINE
  5
11E
100
AcDbEntity
  8
0
  6
BYBLOCK
100
AcDbLine
 10
1877.451085
 20
-4824.298707
 30
0.0
 11
1886.096347
 21
-4827.303523
 31
0.0
  0
SOLID
  5
11F
100
AcDbEntity
  8
0
  6
BYBLOCK
100
AcDbTrace
 10
1864.103256
 20
-4817.012731
 30
0.0
 11
1862.461741
 21
-4821.735593
 31
0.0
 12
1877.451085
 22
-4824.298707
 32
0.0
 13
1877.451085
 23
-4824.298707
 33
0.0
  0
SOLID
  5
120
100
AcDbEntity
  8
0
  6
BYBLOCK
100
AcDbTrace
 10
1901.085692
 20
-4829.866637
 30
0.0
 11
1899.444177
 21
-4834.589499
 31
0.0
 12
1886.096347
 22
-4827.303523
 32
0.0
 13
1886.096347
 23
-4827.303523
 33
0.0
  0
MTEXT
  5
121
100
AcDbEntity
  8
0
  6
BYBLOCK
 62
     5
100
AcDbMText
 10
1887.519019
 20
-4809.271097
 30
0.0
 40
19.32
 41
0.0
 71
     5
 72
     1
  1
\A1;9,2
 11
0.944572
 21
-0.328303
 31
0.0
  0
POINT
  5
122
100
AcDbEntity
  8
DEFPOINTS
  6
BYBLOCK
 62
     0
100
AcDbPoint
 10
1827.717471
 20
-4967.389082
 30
0.0
  0
POINT
  5
123
100
AcDbEntity
  8
DEFPOINTS
  6
BYBLOCK
 62
     0
100
AcDbPoint
 10
1836.362733
 20
-4970.393897
 30
0.0
  0
POINT
  5
124
100
AcDbEntity
  8
DEFPOINTS
  6
BYBLOCK
 62
     0
100
AcDbPoint
 10
1886.096347
 20
-4827.303523
 30
0.0
  0
ENDBLK
  5
126
100
AcDbEntity
  8
0
100
AcDbBlockEnd
  0
BLOCK
  5
144
100
AcDbEntity
  8
0
100
AcDbBlockBegin
  2
*D8
 70
     1
 10
0.0
 20
0.0
 30
0.0
  3
*D8
  1

  0
LINE
  5
138
100
AcDbEntity
  8
0
  6
BYBLOCK
100
AcDbLine
 10
1863.596608
 20
-4908.765364
 30
0.0
 11
1882.643457
 21
-4853.964989
 31
0.0
  0
LINE
  5
139
100
AcDbEntity
  8
0
  6
BYBLOCK
100
AcDbLine
 10
1858.409456
 20
-4906.962477
 30
0.0
 11
1877.456304
 21
-4852.162101
 31
0.0
  0
LINE
  5
13A
100
AcDbEntity
  8
0
  6
BYBLOCK
100
AcDbLine
 10
1894.842226
 20
-4864.556969
 30
0.0
 11
1909.010813
 21
-4869.481514
 31
0.0
  0
LINE
  5
13B
100
AcDbEntity
  8
0
  6
BYBLOCK
100
AcDbLine
 10
1861.317899
 20
-4852.904991
 30
0.0
 11
1847.149313
 21
-4847.980446
 31
0.0
  0
MTEXT
  5
13C
100
AcDbEntity
  8
0
  6
BYBLOCK
 62
     5
100
AcDbMText
 10
1905.440046
 20
-4849.897253
 30
0.0
 40
19.32
 41
0.0
 71
     5
 72
     1
  1
\A1;5,5
 11
0.944572
 21
-0.328303
 31
0.0
  0
LINE
  5
13D
100
AcDbEntity
  8
0
  6
BYBLOCK
100
AcDbLine
 10
1880.673639
 20
-4859.632424
 30
0.0
 11
1875.486486
 21
-4857.829536
 31
0.0
  0
LINE
  5
13E
100
AcDbEntity
  8
0
  6
BYBLOCK
100
AcDbLine
 10
1880.673639
 20
-4859.632424
 30
0.0
 11
1875.486486
 21
-4857.829536
 31
0.0
  0
SOLID
  5
13F
100
AcDbEntity
  8
0
  6
BYBLOCK
100
AcDbTrace
 10
1895.662983
 20
-4862.195538
 30
0.0
 11
1894.021468
 21
-4866.9184
 31
0.0
 12
1880.673639
 22
-4859.632424
 32
0.0
 13
1880.673639
 23
-4859.632424
 33
0.0
  0
SOLID
  5
140
100
AcDbEntity
  8
0
  6
BYBLOCK
100
AcDbTrace
 10
1862.138657
 20
-4850.54356
 30
0.0
 11
1860.497142
 21
-4855.266422
 31
0.0
 12
1875.486486
 22
-4857.829536
 32
0.0
 13
1875.486486
 23
-4857.829536
 33
0.0
  0
POINT
  5
141
100
AcDbEntity
  8
DEFPOINTS
  6
BYBLOCK
 62
     0
100
AcDbPoint
 10
1862.611699
 20
-4911.599082
 30
0.0
  0
POINT
  5
142
100
AcDbEntity
  8
DEFPOINTS
  6
BYBLOCK
 62
     0
100
AcDbPoint
 10
1857.424547
 20
-4909.796194
 30
0.0
  0
POINT
  5
143
100
AcDbEntity
  8
DEFPOINTS
  6
BYBLOCK
 62
     0
100
AcDbPoint
 10
1875.486486
 20
-4857.829536
 30
0.0
  0
ENDBLK
  5
145
100
AcDbEntity
  8
0
100
AcDbBlockEnd
  0
BLOCK
  5
134
100
AcDbEntity
  8
0
100
AcDbBlockBegin
  2
*D9
 70
     1
 10
0.0
 20
0.0
 30
0.0
  3
*D9
  1

  0
LINE
  5
129
100
AcDbEntity
  8
0
  6
BYBLOCK
100
AcDbLine
 10
1810.771953
 20
-4983.579082
 30
0.0
 11
1909.185328
 21
-5040.39807
 31
0.0
  0
LINE
  5
12A
100
AcDbEntity
  8
0
  6
BYBLOCK
100
AcDbLine
 10
1825.611699
 20
-4982.079082
 30
0.0
 11
1924.811854
 21
-4982.079082
 31
0.0
  0
ARC
  5
12B
100
AcDbEntity
  8
0
  6
BYBLOCK
100
AcDbCircle
 10
1808.173877
 20
-4982.079082
 30
0.0
 40
110.637977
100
AcDbArc
 50
337.77397
 51
352.22603
  0
SOLID
  5
12C
100
AcDbEntity
  8
0
  6
BYBLOCK
100
AcDbTrace
 10
1912.836142
 20
-5025.029513
 30
0.0
 11
1908.346504
 21
-5022.828798
 31
0.0
 12
1903.989175
 22
-5037.39807
 32
0.0
 13
1903.989175
 23
-5037.39807
 33
0.0
  0
SOLID
  5
12D
100
AcDbEntity
  8
0
  6
BYBLOCK
100
AcDbTrace
 10
1915.300774
 20
-4996.875105
 30
0.0
 11
1920.289273
 21
-4997.214049
 31
0.0
 12
1918.811854
 22
-4982.079082
 32
0.0
 13
1918.811854
 23
-4982.079082
 33
0.0
  0
MTEXT
  5
12E
100
AcDbEntity
  8
0
  6
BYBLOCK
 62
     5
100
AcDbMText
 10
1899.915558
 20
-5006.661191
 30
0.0
 40
19.32
 41
0.0
 71
     5
 72
     1
  1
\A1;30°
 11
0.258819
 21
0.965926
 31
0.0
  0
POINT
  5
12F
100
AcDbEntity
  8
DEFPOINTS
  6
BYBLOCK
 62
     0
100
AcDbPoint
 10
1912.139567
 20
-5019.919498
 30
0.0
  0
POINT
  5
130
100
AcDbEntity
  8
DEFPOINTS
  6
BYBLOCK
 62
     0
100
AcDbPoint
 10
1808.173877
 20
-4982.079082
 30
0.0
  0
POINT
  5
131
100
AcDbEntity
  8
DEFPOINTS
  6
BYBLOCK
 62
     0
100
AcDbPoint
 10
1796.861699
 20
-4975.547993
 30
0.0
  0
POINT
  5
132
100
AcDbEntity
  8
DEFPOINTS
  6
BYBLOCK
 62
     0
100
AcDbPoint
 10
1808.173877
 20
-4982.079082
 30
0.0
  0
POINT
  5
133
100
AcDbEntity
  8
DEFPOINTS
  6
BYBLOCK
 62
     0
100
AcDbPoint
 10
1822.611699
 20
-4982.079082
 30
0.0
  0
ENDBLK
  5
135
100
AcDbEntity
  8
0
100
AcDbBlockEnd
  0
BLOCK
  5
112
100
AcDbEntity
  8
0
100
AcDbBlockBegin
  2
*D10
 70
     1
 10
0.0
 20
0.0
 30
0.0
  3
*D10
  1

  0
LINE
  5
107
100
AcDbEntity
  8
0
  6
BYBLOCK
100
AcDbLine
 10
1625.611699
 20
-4982.079082
 30
0.0
 11
1679.297889
 21
-4982.079082
 31
0.0
  0
LINE
  5
108
100
AcDbEntity
  8
0
  6
BYBLOCK
100
AcDbLine
 10
1628.70238
 20
-4964.555364
 30
0.0
 11
1641.221946
 21
-4928.534868
 31
0.0
  0
ARC
  5
109
100
AcDbEntity
  8
0
  6
BYBLOCK
100
AcDbCircle
 10
1622.611699
 20
-4982.079082
 30
0.0
 40
50.68619
100
AcDbArc
 50
17.018526
 51
53.815666
  0
SOLID
  5
10A
100
AcDbEntity
  8
0
  6
BYBLOCK
100
AcDbTrace
 10
1673.550829
 20
-4966.874279
 30
0.0
 11
1668.605869
 21
-4967.614125
 31
0.0
 12
1673.297889
 22
-4982.079082
 32
0.0
 13
1673.297889
 23
-4982.079082
 33
0.0
  0
SOLID
  5
10B
100
AcDbEntity
  8
0
  6
BYBLOCK
100
AcDbTrace
 10
1651.374923
 20
-4943.383144
 30
0.0
 11
1653.697207
 21
-4938.955165
 31
0.0
 12
1639.252128
 22
-4934.202303
 32
0.0
 13
1639.252128
 23
-4934.202303
 33
0.0
  0
MTEXT
  5
10C
100
AcDbEntity
  8
0
  6
BYBLOCK
 62
     5
100
AcDbMText
 10
1691.578728
 20
-4964.382524
 30
0.0
 40
19.32
 41
0.0
 71
     5
 72
     1
  1
\A1;66,11°
 11
0.248543
 21
-0.968621
 31
0.0
  0
POINT
  5
10D
100
AcDbEntity
  8
DEFPOINTS
  6
BYBLOCK
 62
     0
100
AcDbPoint
 10
1657.035192
 20
-4944.875412
 30
0.0
  0
POINT
  5
10E
100
AcDbEntity
  8
DEFPOINTS
  6
BYBLOCK
 62
     0
100
AcDbPoint
 10
1622.611699
 20
-4982.079082
 30
0.0
  0
POINT
  5
10F
100
AcDbEntity
  8
DEFPOINTS
  6
BYBLOCK
 62
     0
100
AcDbPoint
 10
1608.173877
 20
-4982.079082
 30
0.0
  0
POINT
  5
110
100
AcDbEntity
  8
DEFPOINTS
  6
BYBLOCK
 62
     0
100
AcDbPoint
 10
1622.611699
 20
-4982.079082
 30
0.0
  0
POINT
  5
111
100
AcDbEntity
  8
DEFPOINTS
  6
BYBLOCK
 62
     0
100
AcDbPoint
 10
1627.717471
 20
-4967.389082
 30
0.0
  0
ENDBLK
  5
113
100
AcDbEntity
  8
0
100
AcDbBlockEnd
  0
BLOCK
  5
103
100
AcDbEntity
  8
0
100
AcDbBlockBegin
  2
*D11
 70
     1
 10
0.0
 20
0.0
 30
0.0
  3
*D11
  1

  0
LINE
  5
F8
100
AcDbEntity
  8
0
  6
BYBLOCK
100
AcDbLine
 10
1716.080862
 20
-4931.259082
 30
0.0
 11
1754.159756
 21
-4931.259082
 31
0.0
  0
LINE
  5
F9
100
AcDbEntity
  8
0
  6
BYBLOCK
100
AcDbLine
 10
1660.013152
 20
-4924.626435
 30
0.0
 11
1736.924123
 21
-4873.85989
 31
0.0
  0
ARC
  5
FA
100
AcDbEntity
  8
0
  6
BYBLOCK
100
AcDbCircle
 10
1649.964737
 20
-4931.259082
 30
0.0
 40
98.195019
100
AcDbArc
 50
8.760877
 51
24.666686
  0
SOLID
  5
FB
100
AcDbEntity
  8
0
  6
BYBLOCK
100
AcDbTrace
 10
1749.506774
 20
-4916.111952
 30
0.0
 11
1744.521379
 21
-4916.493845
 31
0.0
 12
1748.159756
 22
-4931.259082
 32
0.0
 13
1748.159756
 23
-4931.259082
 33
0.0
  0
SOLID
  5
FC
100
AcDbEntity
  8
0
  6
BYBLOCK
100
AcDbTrace
 10
1737.014006
 20
-4891.492316
 30
0.0
 11
1741.385109
 21
-4889.064672
 31
0.0
 12
1731.916625
 22
-4877.165184
 32
0.0
 13
1731.916625
 23
-4877.165184
 33
0.0
  0
MTEXT
  5
FD
100
AcDbEntity
  8
0
  6
BYBLOCK
 62
     5
100
AcDbMText
 10
1760.772028
 20
-4897.986247
 30
0.0
 40
19.32
 41
0.0
 71
     5
 72
     1
  1
\A1;42,33°
 11
0.287591
 21
-0.957753
 31
0.0
  0
POINT
  5
FE
100
AcDbEntity
  8
DEFPOINTS
  6
BYBLOCK
 62
     0
100
AcDbPoint
 10
1746.308732
 20
-4912.282878
 30
0.0
  0
POINT
  5
FF
100
AcDbEntity
  8
DEFPOINTS
  6
BYBLOCK
 62
     0
100
AcDbPoint
 10
1649.964737
 20
-4931.259082
 30
0.0
  0
POINT
  5
100
100
AcDbEntity
  8
DEFPOINTS
  6
BYBLOCK
 62
     0
100
AcDbPoint
 10
1649.964737
 20
-4931.259082
 30
0.0
  0
POINT
  5
101
100
AcDbEntity
  8
DEFPOINTS
  6
BYBLOCK
 62
     0
100
AcDbPoint
 10
1713.080862
 20
-4931.259082
 30
0.0
  0
POINT
  5
102
100
AcDbEntity
  8
DEFPOINTS
  6
BYBLOCK
 62
     0
100
AcDbPoint
 10
1657.509403
 20
-4926.279082
 30
0.0
  0
ENDBLK
  5
104
100
AcDbEntity
  8
0
100
AcDbBlockEnd
  0
BLOCK
  5
F4
100
AcDbEntity
  8
0
100
AcDbBlockBegin
  2
*D12
 70
     1
 10
0.0
 20
0.0
 30
0.0
  3
*D12
  1

  0
LINE
  5
E8
100
AcDbEntity
  8
0
  6
BYBLOCK
100
AcDbLine
 10
1825.611699
 20
-4982.079082
 30
0.0
 11
1975.913583
 21
-4982.079082
 31
0.0
  0
LINE
  5
E9
100
AcDbEntity
  8
0
  6
BYBLOCK
100
AcDbLine
 10
1830.717471
 20
-4967.389082
 30
0.0
 11
1975.913583
 21
-4967.389082
 31
0.0
  0
LINE
  5
EA
100
AcDbEntity
  8
0
  6
BYBLOCK
100
AcDbLine
 10
1969.913583
 20
-4997.079082
 30
0.0
 11
1969.913583
 21
-5012.079082
 31
0.0
  0
LINE
  5
EB
100
AcDbEntity
  8
0
  6
BYBLOCK
100
AcDbLine
 10
1969.913583
 20
-4952.389082
 30
0.0
 11
1969.913583
 21
-4937.389082
 31
0.0
  0
MTEXT
  5
EC
100
AcDbEntity
  8
0
  6
BYBLOCK
 62
     5
100
AcDbMText
 10
1952.592154
 20
-5018.071465
 30
0.0
 40
19.32
 41
0.0
 71
     5
 72
     1
  1
\A1;14,7
 11
0.0
 21
1.0
 31
0.0
  0
LINE
  5
ED
100
AcDbEntity
  8
0
  6
BYBLOCK
100
AcDbLine
 10
1969.913583
 20
-4982.079082
 30
0.0
 11
1969.913583
 21
-4967.389082
 31
0.0
  0
LINE
  5
EE
100
AcDbEntity
  8
0
  6
BYBLOCK
100
AcDbLine
 10
1969.913583
 20
-4982.079082
 30
0.0
 11
1969.913583
 21
-4967.389082
 31
0.0
  0
SOLID
  5
EF
100
AcDbEntity
  8
0
  6
BYBLOCK
100
AcDbTrace
 10
1967.413583
 20
-4997.079082
 30
0.0
 11
1972.413583
 21
-4997.079082
 31
0.0
 12
1969.913583
 22
-4982.079082
 32
0.0
 13
1969.913583
 23
-4982.079082
 33
0.0
  0
SOLID
  5
F0
100
AcDbEntity
  8
0
  6
BYBLOCK
100
AcDbTrace
 10
1967.413583
 20
-4952.389082
 30
0.0
 11
1972.413583
 21
-4952.389082
 31
0.0
 12
1969.913583
 22
-4967.389082
 32
0.0
 13
1969.913583
 23
-4967.389082
 33
0.0
  0
POINT
  5
F1
100
AcDbEntity
  8
DEFPOINTS
  6
BYBLOCK
 62
     0
100
AcDbPoint
 10
1822.611699
 20
-4982.079082
 30
0.0
  0
POINT
  5
F2
100
AcDbEntity
  8
DEFPOINTS
  6
BYBLOCK
 62
     0
100
AcDbPoint
 10
1827.717471
 20
-4967.389082
 30
0.0
  0
POINT
  5
F3
100
AcDbEntity
  8
DEFPOINTS
  6
BYBLOCK
 62
     0
100
AcDbPoint
 10
1969.913583
 20
-4967.389082
 30
0.0
  0
ENDBLK
  5
F5
100
AcDbEntity
  8
0
100
AcDbBlockEnd
  0
BLOCK
  5
E4
100
AcDbEntity
  8
0
100
AcDbBlockBegin
  2
*D13
 70
     1
 10
0.0
 20
0.0
 30
0.0
  3
*D13
  1

  0
LINE
  5
D8
100
AcDbEntity
  8
0
  6
BYBLOCK
100
AcDbLine
 10
1830.717471
 20
-4967.389082
 30
0.0
 11
1975.913583
 21
-4967.389082
 31
0.0
  0
LINE
  5
D9
100
AcDbEntity
  8
0
  6
BYBLOCK
100
AcDbLine
 10
1843.291923
 20
-4959.089082
 30
0.0
 11
1975.913583
 21
-4959.089082
 31
0.0
  0
LINE
  5
DA
100
AcDbEntity
  8
0
  6
BYBLOCK
100
AcDbLine
 10
1969.913583
 20
-4982.389082
 30
0.0
 11
1969.913583
 21
-4997.389082
 31
0.0
  0
LINE
  5
DB
100
AcDbEntity
  8
0
  6
BYBLOCK
100
AcDbLine
 10
1969.913583
 20
-4944.089082
 30
0.0
 11
1969.913583
 21
-4929.089082
 31
0.0
  0
MTEXT
  5
DC
100
AcDbEntity
  8
0
  6
BYBLOCK
 62
     5
100
AcDbMText
 10
1991.415716
 20
-4963.239082
 30
0.0
 40
19.32
 41
0.0
 71
     5
 72
     1
  1
\A1;8,3
 11
0.0
 21
1.0
 31
0.0
  0
LINE
  5
DD
100
AcDbEntity
  8
0
  6
BYBLOCK
100
AcDbLine
 10
1969.913583
 20
-4967.389082
 30
0.0
 11
1969.913583
 21
-4959.089082
 31
0.0
  0
LINE
  5
DE
100
AcDbEntity
  8
0
  6
BYBLOCK
100
AcDbLine
 10
1969.913583
 20
-4967.389082
 30
0.0
 11
1969.913583
 21
-4959.089082
 31
0.0
  0
SOLID
  5
DF
100
AcDbEntity
  8
0
  6
BYBLOCK
100
AcDbTrace
 10
1967.413583
 20
-4982.389082
 30
0.0
 11
1972.413583
 21
-4982.389082
 31
0.0
 12
1969.913583
 22
-4967.389082
 32
0.0
 13
1969.913583
 23
-4967.389082
 33
0.0
  0
SOLID
  5
E0
100
AcDbEntity
  8
0
  6
BYBLOCK
100
AcDbTrace
 10
1967.413583
 20
-4944.089082
 30
0.0
 11
1972.413583
 21
-4944.089082
 31
0.0
 12
1969.913583
 22
-4959.089082
 32
0.0
 13
1969.913583
 23
-4959.089082
 33
0.0
  0
POINT
  5
E1
100
AcDbEntity
  8
DEFPOINTS
  6
BYBLOCK
 62
     0
100
AcDbPoint
 10
1827.717471
 20
-4967.389082
 30
0.0
  0
POINT
  5
E2
100
AcDbEntity
  8
DEFPOINTS
  6
BYBLOCK
 62
     0
100
AcDbPoint
 10
1840.291923
 20
-4959.089082
 30
0.0
  0
POINT
  5
E3
100
AcDbEntity
  8
DEFPOINTS
  6
BYBLOCK
 62
     0
100
AcDbPoint
 10
1969.913583
 20
-4959.089082
 30
0.0
  0
ENDBLK
  5
E5
100
AcDbEntity
  8
0
100
AcDbBlockEnd
  0
BLOCK
  5
D4
100
AcDbEntity
  8
0
100
AcDbBlockBegin
  2
*D14
 70
     1
 10
0.0
 20
0.0
 30
0.0
  3
*D14
  1

  0
LINE
  5
C8
100
AcDbEntity
  8
0
  6
BYBLOCK
100
AcDbLine
 10
1843.291923
 20
-4959.089082
 30
0.0
 11
1976.944833
 21
-4959.089082
 31
0.0
  0
LINE
  5
C9
100
AcDbEntity
  8
0
  6
BYBLOCK
100
AcDbLine
 10
1852.964737
 20
-4931.259082
 30
0.0
 11
1976.944833
 21
-4931.259082
 31
0.0
  0
LINE
  5
CA
100
AcDbEntity
  8
0
  6
BYBLOCK
100
AcDbLine
 10
1970.944833
 20
-4974.089082
 30
0.0
 11
1970.944833
 21
-4989.089082
 31
0.0
  0
LINE
  5
CB
100
AcDbEntity
  8
0
  6
BYBLOCK
100
AcDbLine
 10
1970.944833
 20
-4916.259082
 30
0.0
 11
1970.944833
 21
-4901.259082
 31
0.0
  0
MTEXT
  5
CC
100
AcDbEntity
  8
0
  6
BYBLOCK
 62
     5
100
AcDbMText
 10
2022.380394
 20
-4944.83153
 30
0.0
 40
19.32
 41
0.0
 71
     5
 72
     1
  1
\A1;27,8
 11
0.0
 21
1.0
 31
0.0
  0
LINE
  5
CD
100
AcDbEntity
  8
0
  6
BYBLOCK
100
AcDbLine
 10
1970.944833
 20
-4959.089082
 30
0.0
 11
1970.944833
 21
-4931.259082
 31
0.0
  0
LINE
  5
CE
100
AcDbEntity
  8
0
  6
BYBLOCK
100
AcDbLine
 10
1970.944833
 20
-4959.089082
 30
0.0
 11
1970.944833
 21
-4931.259082
 31
0.0
  0
SOLID
  5
CF
100
AcDbEntity
  8
0
  6
BYBLOCK
100
AcDbTrace
 10
1968.444833
 20
-4974.089082
 30
0.0
 11
1973.444833
 21
-4974.089082
 31
0.0
 12
1970.944833
 22
-4959.089082
 32
0.0
 13
1970.944833
 23
-4959.089082
 33
0.0
  0
SOLID
  5
D0
100
AcDbEntity
  8
0
  6
BYBLOCK
100
AcDbTrace
 10
1968.444833
 20
-4916.259082
 30
0.0
 11
1973.444833
 21
-4916.259082
 31
0.0
 12
1970.944833
 22
-4931.259082
 32
0.0
 13
1970.944833
 23
-4931.259082
 33
0.0
  0
POINT
  5
D1
100
AcDbEntity
  8
DEFPOINTS
  6
BYBLOCK
 62
     0
100
AcDbPoint
 10
1840.291923
 20
-4959.089082
 30
0.0
  0
POINT
  5
D2
100
AcDbEntity
  8
DEFPOINTS
  6
BYBLOCK
 62
     0
100
AcDbPoint
 10
1849.964737
 20
-4931.259082
 30
0.0
  0
POINT
  5
D3
100
AcDbEntity
  8
DEFPOINTS
  6
BYBLOCK
 62
     0
100
AcDbPoint
 10
1970.944833
 20
-4931.259082
 30
0.0
  0
ENDBLK
  5
D5
100
AcDbEntity
  8
0
100
AcDbBlockEnd
  0
BLOCK
  5
C4
100
AcDbEntity
  8
0
100
AcDbBlockBegin
  2
*D15
 70
     1
 10
0.0
 20
0.0
 30
0.0
  3
*D15
  1

  0
LINE
  5
B8
100
AcDbEntity
  8
0
  6
BYBLOCK
100
AcDbLine
 10
1852.964737
 20
-4931.259082
 30
0.0
 11
1975.913583
 21
-4931.259082
 31
0.0
  0
LINE
  5
B9
100
AcDbEntity
  8
0
  6
BYBLOCK
100
AcDbLine
 10
1860.509403
 20
-4926.279082
 30
0.0
 11
1975.913583
 21
-4926.279082
 31
0.0
  0
LINE
  5
BA
100
AcDbEntity
  8
0
  6
BYBLOCK
100
AcDbLine
 10
1969.913583
 20
-4946.259082
 30
0.0
 11
1969.913583
 21
-4961.259082
 31
0.0
  0
LINE
  5
BB
100
AcDbEntity
  8
0
  6
BYBLOCK
100
AcDbLine
 10
1969.913583
 20
-4911.279082
 30
0.0
 11
1969.913583
 21
-4896.279082
 31
0.0
  0
MTEXT
  5
BC
100
AcDbEntity
  8
0
  6
BYBLOCK
 62
     5
100
AcDbMText
 10
1992.183669
 20
-4928.769082
 30
0.0
 40
19.32
 41
0.0
 71
     5
 72
     1
  1
\A1;5
 11
0.0
 21
1.0
 31
0.0
  0
LINE
  5
BD
100
AcDbEntity
  8
0
  6
BYBLOCK
100
AcDbLine
 10
1969.913583
 20
-4931.259082
 30
0.0
 11
1969.913583
 21
-4926.279082
 31
0.0
  0
LINE
  5
BE
100
AcDbEntity
  8
0
  6
BYBLOCK
100
AcDbLine
 10
1969.913583
 20
-4931.259082
 30
0.0
 11
1969.913583
 21
-4926.279082
 31
0.0
  0
SOLID
  5
BF
100
AcDbEntity
  8
0
  6
BYBLOCK
100
AcDbTrace
 10
1967.413583
 20
-4946.259082
 30
0.0
 11
1972.413583
 21
-4946.259082
 31
0.0
 12
1969.913583
 22
-4931.259082
 32
0.0
 13
1969.913583
 23
-4931.259082
 33
0.0
  0
SOLID
  5
C0
100
AcDbEntity
  8
0
  6
BYBLOCK
100
AcDbTrace
 10
1967.413583
 20
-4911.279082
 30
0.0
 11
1972.413583
 21
-4911.279082
 31
0.0
 12
1969.913583
 22
-4926.279082
 32
0.0
 13
1969.913583
 23
-4926.279082
 33
0.0
  0
POINT
  5
C1
100
AcDbEntity
  8
DEFPOINTS
  6
BYBLOCK
 62
     0
100
AcDbPoint
 10
1849.964737
 20
-4931.259082
 30
0.0
  0
POINT
  5
C2
100
AcDbEntity
  8
DEFPOINTS
  6
BYBLOCK
 62
     0
100
AcDbPoint
 10
1857.509403
 20
-4926.279082
 30
0.0
  0
POINT
  5
C3
100
AcDbEntity
  8
DEFPOINTS
  6
BYBLOCK
 62
     0
100
AcDbPoint
 10
1969.913583
 20
-4926.279082
 30
0.0
  0
ENDBLK
  5
C5
100
AcDbEntity
  8
0
100
AcDbBlockEnd
  0
BLOCK
  5
B4
100
AcDbEntity
  8
0
100
AcDbBlockBegin
  2
*D16
 70
     1
 10
0.0
 20
0.0
 30
0.0
  3
*D16
  1

  0
LINE
  5
A8
100
AcDbEntity
  8
0
  6
BYBLOCK
100
AcDbLine
 10
1860.509403
 20
-4926.279082
 30
0.0
 11
1975.913583
 21
-4926.279082
 31
0.0
  0
LINE
  5
A9
100
AcDbEntity
  8
0
  6
BYBLOCK
100
AcDbLine
 10
1930.611699
 20
-4911.599082
 30
0.0
 11
1975.913583
 21
-4911.599082
 31
0.0
  0
LINE
  5
AA
100
AcDbEntity
  8
0
  6
BYBLOCK
100
AcDbLine
 10
1969.913583
 20
-4941.279082
 30
0.0
 11
1969.913583
 21
-4956.279082
 31
0.0
  0
LINE
  5
AB
100
AcDbEntity
  8
0
  6
BYBLOCK
100
AcDbLine
 10
1969.913583
 20
-4896.599082
 30
0.0
 11
1969.913583
 21
-4881.599082
 31
0.0
  0
MTEXT
  5
AC
100
AcDbEntity
  8
0
  6
BYBLOCK
 62
     5
100
AcDbMText
 10
1952.592154
 20
-4879.247201
 30
0.0
 40
19.32
 41
0.0
 71
     5
 72
     1
  1
\A1;14,7
 11
0.0
 21
1.0
 31
0.0
  0
LINE
  5
AD
100
AcDbEntity
  8
0
  6
BYBLOCK
100
AcDbLine
 10
1969.913583
 20
-4926.279082
 30
0.0
 11
1969.913583
 21
-4911.599082
 31
0.0
  0
LINE
  5
AE
100
AcDbEntity
  8
0
  6
BYBLOCK
100
AcDbLine
 10
1969.913583
 20
-4926.279082
 30
0.0
 11
1969.913583
 21
-4911.599082
 31
0.0
  0
SOLID
  5
AF
100
AcDbEntity
  8
0
  6
BYBLOCK
100
AcDbTrace
 10
1967.413583
 20
-4941.279082
 30
0.0
 11
1972.413583
 21
-4941.279082
 31
0.0
 12
1969.913583
 22
-4926.279082
 32
0.0
 13
1969.913583
 23
-4926.279082
 33
0.0
  0
SOLID
  5
B0
100
AcDbEntity
  8
0
  6
BYBLOCK
100
AcDbTrace
 10
1967.413583
 20
-4896.599082
 30
0.0
 11
1972.413583
 21
-4896.599082
 31
0.0
 12
1969.913583
 22
-4911.599082
 32
0.0
 13
1969.913583
 23
-4911.599082
 33
0.0
  0
POINT
  5
B1
100
AcDbEntity
  8
DEFPOINTS
  6
BYBLOCK
 62
     0
100
AcDbPoint
 10
1857.509403
 20
-4926.279082
 30
0.0
  0
POINT
  5
B2
100
AcDbEntity
  8
DEFPOINTS
  6
BYBLOCK
 62
     0
100
AcDbPoint
 10
1927.611699
 20
-4911.599082
 30
0.0
  0
POINT
  5
B3
100
AcDbEntity
  8
DEFPOINTS
  6
BYBLOCK
 62
     0
100
AcDbPoint
 10
1969.913583
 20
-4911.599082
 30
0.0
  0
ENDBLK
  5
B5
100
AcDbEntity
  8
0
100
AcDbBlockEnd
  0
BLOCK
  5
A4
100
AcDbEntity
  8
0
100
AcDbBlockBegin
  2
*D17
 70
     1
 10
0.0
 20
0.0
 30
0.0
  3
*D17
  1

  0
LINE
  5
9B
100
AcDbEntity
  8
0
  6
BYBLOCK
100
AcDbLine
 10
1930.611699
 20
-4911.599082
 30
0.0
 11
2092.639466
 21
-4911.599082
 31
0.0
  0
LINE
  5
9C
100
AcDbEntity
  8
0
  6
BYBLOCK
100
AcDbLine
 10
1825.611699
 20
-4982.079082
 30
0.0
 11
2092.639466
 21
-4982.079082
 31
0.0
  0
LINE
  5
9D
100
AcDbEntity
  8
0
  6
BYBLOCK
100
AcDbLine
 10
2086.639466
 20
-4926.599082
 30
0.0
 11
2086.639466
 21
-4967.079082
 31
0.0
  0
SOLID
  5
9E
100
AcDbEntity
  8
0
  6
BYBLOCK
100
AcDbTrace
 10
2084.139466
 20
-4926.599082
 30
0.0
 11
2089.139466
 21
-4926.599082
 31
0.0
 12
2086.639466
 22
-4911.599082
 32
0.0
 13
2086.639466
 23
-4911.599082
 33
0.0
  0
SOLID
  5
9F
100
AcDbEntity
  8
0
  6
BYBLOCK
100
AcDbTrace
 10
2084.139466
 20
-4967.079082
 30
0.0
 11
2089.139466
 21
-4967.079082
 31
0.0
 12
2086.639466
 22
-4982.079082
 32
0.0
 13
2086.639466
 23
-4982.079082
 33
0.0
  0
MTEXT
  5
A0
100
AcDbEntity
  8
0
  6
BYBLOCK
 62
     5
100
AcDbMText
 10
2069.139466
 20
-4946.839082
 30
0.0
 40
19.32
 41
0.0
 71
     5
 72
     1
  1
\A1;70,5
 11
0.0
 21
1.0
 31
0.0
  0
POINT
  5
A1
100
AcDbEntity
  8
DEFPOINTS
  6
BYBLOCK
 62
     0
100
AcDbPoint
 10
1927.611699
 20
-4911.599082
 30
0.0
  0
POINT
  5
A2
100
AcDbEntity
  8
DEFPOINTS
  6
BYBLOCK
 62
     0
100
AcDbPoint
 10
1822.611699
 20
-4982.079082
 30
0.0
  0
POINT
  5
A3
100
AcDbEntity
  8
DEFPOINTS
  6
BYBLOCK
 62
     0
100
AcDbPoint
 10
2086.639466
 20
-4982.079082
 30
0.0
  0
ENDBLK
  5
A5
100
AcDbEntity
  8
0
100
AcDbBlockEnd
  0
BLOCK
  5
97
100
AcDbEntity
  8
0
100
AcDbBlockBegin
  2
*D18
 70
     1
 10
0.0
 20
0.0
 30
0.0
  3
*D18
  1

  0
LINE
  5
8C
100
AcDbEntity
  8
0
  6
BYBLOCK
100
AcDbLine
 10
1482.915547
 20
-4910.099082
 30
0.0
 11
1423.222511
 21
-4875.635291
 31
0.0
  0
LINE
  5
8D
100
AcDbEntity
  8
0
  6
BYBLOCK
100
AcDbLine
 10
1459.611699
 20
-4911.599082
 30
0.0
 11
1413.586043
 21
-4911.599082
 31
0.0
  0
ARC
  5
8E
100
AcDbEntity
  8
0
  6
BYBLOCK
100
AcDbCircle
 10
1485.513623
 20
-4911.599082
 30
0.0
 40
65.92758
100
AcDbArc
 50
163.064355
 51
166.935645
  0
SOLID
  5
8F
100
AcDbEntity
  8
0
  6
BYBLOCK
100
AcDbTrace
 10
1420.151944
 20
-4891.398965
 30
0.0
 11
1424.738364
 21
-4893.390134
 31
0.0
 12
1428.418664
 22
-4878.635291
 32
0.0
 13
1428.418664
 23
-4878.635291
 33
0.0
  0
SOLID
  5
90
100
AcDbEntity
  8
0
  6
BYBLOCK
100
AcDbTrace
 10
1423.776231
 20
-4896.980863
 30
0.0
 11
1418.80869
 21
-4896.412057
 31
0.0
 12
1419.586043
 22
-4911.599082
 32
0.0
 13
1419.586043
 23
-4911.599082
 33
0.0
  0
MTEXT
  5
91
100
AcDbEntity
  8
0
  6
BYBLOCK
 62
     5
100
AcDbMText
 10
1407.834773
 20
-4880.479051
 30
0.0
 40
19.32
 41
0.0
 71
     5
 72
     1
  1
\A1;30°
 11
0.37189
 21
0.928277
 31
0.0
  0
POINT
  5
92
100
AcDbEntity
  8
DEFPOINTS
  6
BYBLOCK
 62
     0
100
AcDbPoint
 10
1420.587631
 20
-4900.150877
 30
0.0
  0
POINT
  5
93
100
AcDbEntity
  8
DEFPOINTS
  6
BYBLOCK
 62
     0
100
AcDbPoint
 10
1485.513623
 20
-4911.599082
 30
0.0
  0
POINT
  5
94
100
AcDbEntity
  8
DEFPOINTS
  6
BYBLOCK
 62
     0
100
AcDbPoint
 10
1462.611699
 20
-4911.599082
 30
0.0
  0
POINT
  5
95
100
AcDbEntity
  8
DEFPOINTS
  6
BYBLOCK
 62
     0
100
AcDbPoint
 10
1485.513623
 20
-4911.599082
 30
0.0
  0
POINT
  5
96
100
AcDbEntity
  8
DEFPOINTS
  6
BYBLOCK
 62
     0
100
AcDbPoint
 10
1493.361699
 20
-4916.13017
 30
0.0
  0
ENDBLK
  5
98
100
AcDbEntity
  8
0
100
AcDbBlockEnd
  0
ENDSEC
  0
SECTION
  2
ENTITIES
  0
MTEXT
  5
1E
100
AcDbEntity
  8
KOTY-UPLNE
  6
BYBLOCK
 62
     5
100
AcDbMText
 10
646.110112
 20
-85.198963
 30
0.0
 40
16.5
 41
0.0
 71
     5
 72
     1
  1
všechna zaoblení R=3,5
  0
DIMENSION
  5
1F
100
AcDbEntity
  8
KOTY-UPLNE
100
AcDbDimension
  2
*D1
 10
151.784309
 20
-340.364928
 30
0.0
 11
551.784309
 21
-324.704928
 31
0.0
 12
-943.32739
 22
4762.657346
 32
0.0
  3
UPLNE
100
AcDbAlignedDimension
 13
951.784309
 23
-153.941735
 33
0.0
 14
151.784309
 24
-153.941735
 34
0.0
100
AcDbRotatedDimension
1001
ACAD
1000
DSTYLE
1002
{
1070
    40
1040
3.0
1070
   147
1040
2.0
1002
}
  0
LWPOLYLINE
  5
2D
100
AcDbEntity
  8
TRAPEZ-VELKY
100
AcDbPolyline
 90
      156
 70
     0
 43
5.0
 10
114.182013
 20
-163.621735
 10
118.117008
 20
-152.30022
 42
-0.319305
 10
122.83987
 20
-148.941735
 10
140.846487
 20
-148.941735
 42
-0.131652
 10
143.346487
 20
-149.611608
 10
149.284309
 20
-153.039812
 42
0.267949
 10
154.284309
 20
-153.039812
 10
160.222131
 20
-149.611608
 42
-0.131652
 10
162.722131
 20
-148.941735
 10
180.728748
 20
-148.941735
 42
-0.319305
 10
185.45161
 20
-152.30022
 10
188.830877
 20
-162.02283
 42
0.164682
 10
190.799328
 20
-164.55423
 10
195.518549
 20
-167.669241
 42
-0.164682
 10
197.486999
 20
-170.200641
 10
206.048356
 20
-194.832829
 42
0.164682
 10
208.016809
 20
-197.36423
 10
217.765813
 20
-203.799241
 42
-0.164682
 10
219.734266
 20
-206.330641
 10
223.117008
 20
-216.063251
 42
0.319305
 10
227.83987
 20
-219.421735
 10
237.382385
 20
-219.421735
 42
0.131652
 10
239.882385
 20
-218.751862
 10
249.284309
 20
-213.323659
 42
-0.267949
 10
254.284309
 20
-213.323659
 10
263.686233
 20
-218.751862
 42
0.131652
 10
266.186233
 20
-219.421735
 10
275.728748
 20
-219.421735
 42
0.319305
 10
280.45161
 20
-216.063251
 10
283.834352
 20
-206.330641
 42
-0.164682
 10
285.802805
 20
-203.799241
 10
295.55181
 20
-197.36423
 42
0.164682
 10
297.520262
 20
-194.832829
 10
306.081619
 20
-170.200641
 42
-0.164682
 10
308.050069
 20
-167.669241
 10
312.76929
 20
-164.55423
 42
0.164682
 10
314.737741
 20
-162.02283
 10
318.117008
 20
-152.30022
 42
-0.319305
 10
322.83987
 20
-148.941735
 10
340.846487
 20
-148.941735
 42
-0.131652
 10
343.346487
 20
-149.611608
 10
349.284309
 20
-153.039812
 42
0.267949
 10
354.284309
 20
-153.039812
 10
360.222131
 20
-149.611608
 42
-0.131652
 10
362.722131
 20
-148.941735
 10
380.728748
 20
-148.941735
 42
-0.319305
 10
385.45161
 20
-152.30022
 10
388.830877
 20
-162.02283
 42
0.164682
 10
390.799328
 20
-164.55423
 10
395.518549
 20
-167.669241
 42
-0.164682
 10
397.486999
 20
-170.200641
 10
406.048356
 20
-194.832829
 42
0.164682
 10
408.016809
 20
-197.36423
 10
417.765813
 20
-203.799241
 42
-0.164682
 10
419.734266
 20
-206.330641
 10
423.117008
 20
-216.063251
 42
0.319305
 10
427.83987
 20
-219.421735
 10
437.382385
 20
-219.421735
 42
0.131652
 10
439.882385
 20
-218.751862
 10
449.284309
 20
-213.323659
 42
-0.267949
 10
454.284309
 20
-213.323659
 10
463.686233
 20
-218.751862
 42
0.131652
 10
466.186233
 20
-219.421735
 10
475.728748
 20
-219.421735
 42
0.319305
 10
480.45161
 20
-216.063251
 10
483.834352
 20
-206.330641
 42
-0.164682
 10
485.802805
 20
-203.799241
 10
495.55181
 20
-197.36423
 42
0.164682
 10
497.520262
 20
-194.832829
 10
506.081619
 20
-170.200641
 42
-0.164682
 10
508.050069
 20
-167.669241
 10
512.76929
 20
-164.55423
 42
0.164682
 10
514.737741
 20
-162.02283
 10
518.117008
 20
-152.30022
 42
-0.319305
 10
522.83987
 20
-148.941735
 10
540.846487
 20
-148.941735
 42
-0.131652
 10
543.346487
 20
-149.611608
 10
549.284309
 20
-153.039812
 42
0.267949
 10
554.284309
 20
-153.039812
 10
560.222131
 20
-149.611608
 42
-0.131652
 10
562.722131
 20
-148.941735
 10
580.728748
 20
-148.941735
 42
-0.319305
 10
585.45161
 20
-152.30022
 10
588.830877
 20
-162.02283
 42
0.164682
 10
590.799328
 20
-164.55423
 10
595.518549
 20
-167.669241
 42
-0.164682
 10
597.486999
 20
-170.200641
 10
606.048356
 20
-194.832829
 42
0.164682
 10
608.016809
 20
-197.36423
 10
617.765813
 20
-203.799241
 42
-0.164682
 10
619.734266
 20
-206.330641
 10
623.117008
 20
-216.063251
 42
0.319305
 10
627.83987
 20
-219.421735
 10
637.382385
 20
-219.421735
 42
0.131652
 10
639.882385
 20
-218.751862
 10
649.284309
 20
-213.323659
 42
-0.267949
 10
654.284309
 20
-213.323659
 10
663.686233
 20
-218.751862
 42
0.131652
 10
666.186233
 20
-219.421735
 10
675.728748
 20
-219.421735
 42
0.319305
 10
680.45161
 20
-216.063251
 10
683.834352
 20
-206.330641
 42
-0.164682
 10
685.802805
 20
-203.799241
 10
695.55181
 20
-197.36423
 42
0.164682
 10
697.520262
 20
-194.832829
 10
706.081619
 20
-170.200641
 42
-0.164682
 10
708.050069
 20
-167.669241
 10
712.76929
 20
-164.55423
 42
0.164682
 10
714.737741
 20
-162.02283
 10
718.117008
 20
-152.30022
 42
-0.319305
 10
722.83987
 20
-148.941735
 10
740.846487
 20
-148.941735
 42
-0.131652
 10
743.346487
 20
-149.611608
 10
749.284309
 20
-153.039812
 42
0.267949
 10
754.284309
 20
-153.039812
 10
760.222131
 20
-149.611608
 42
-0.131652
 10
762.722131
 20
-148.941735
 10
780.728748
 20
-148.941735
 42
-0.319305
 10
785.45161
 20
-152.30022
 10
788.830877
 20
-162.02283
 42
0.164682
 10
790.799328
 20
-164.55423
 10
795.518549
 20
-167.669241
 42
-0.164682
 10
797.486999
 20
-170.200641
 10
806.048356
 20
-194.832829
 42
0.164682
 10
808.016809
 20
-197.36423
 10
817.765813
 20
-203.799241
 42
-0.164682
 10
819.734266
 20
-206.330641
 10
823.117008
 20
-216.063251
 42
0.319305
 10
827.83987
 20
-219.421735
 10
837.382385
 20
-219.421735
 42
0.131652
 10
839.882385
 20
-218.751862
 10
849.284309
 20
-213.323659
 42
-0.267949
 10
854.284309
 20
-213.323659
 10
863.686233
 20
-218.751862
 42
0.131652
 10
866.186233
 20
-219.421735
 10
875.728748
 20
-219.421735
 42
0.319305
 10
880.45161
 20
-216.063251
 10
883.834352
 20
-206.330641
 42
-0.164682
 10
885.802805
 20
-203.799241
 10
895.55181
 20
-197.36423
 42
0.164682
 10
897.520262
 20
-194.832829
 10
906.081619
 20
-170.200641
 42
-0.164682
 10
908.050069
 20
-167.669241
 10
912.76929
 20
-164.55423
 42
0.164682
 10
914.737741
 20
-162.02283
 10
918.117008
 20
-152.30022
 42
-0.319305
 10
922.83987
 20
-148.941735
 10
940.846487
 20
-148.941735
 42
-0.131652
 10
943.346487
 20
-149.611608
 10
949.284309
 20
-153.039812
 42
0.267949
 10
954.284309
 20
-153.039812
 10
960.222131
 20
-149.611608
 42
-0.131652
 10
962.722131
 20
-148.941735
 10
980.728748
 20
-148.941735
 42
-0.319305
 10
985.45161
 20
-152.30022
 10
989.386605
 20
-163.621735
  0
MTEXT
  5
2F
100
AcDbEntity
  8
POPIS
100
AcDbMText
 10
661.730741
 20
-42.124031
 30
0.0
 40
40.0
 41
1.0
 71
     5
 72
     1
  1
TR 70/200
  7
STYLE1
  0
LWPOLYLINE
  5
32
100
AcDbEntity
  8
RAMEC
100
AcDbPolyline
 90
        4
 70
     1
 43
0.0
 10
0.0
 20
0.0
 10
0.0
 20
-389.481233
 10
1349.672502
 20
-389.481233
 10
1349.672502
 20
0.0
  0
DIMENSION
  5
34
100
AcDbEntity
  8
KOTY-UPLNE
100
AcDbDimension
  2
*D0
 10
351.784309
 20
-280.364928
 30
0.0
 11
251.784309
 21
-264.704928
 31
0.0
 12
-943.32739
 22
4762.657346
 32
0.0
  3
UPLNE
100
AcDbAlignedDimension
 13
151.784309
 23
-153.941735
 33
0.0
 14
351.784309
 24
-153.941735
 34
0.0
100
AcDbRotatedDimension
1001
ACAD
1000
DSTYLE
1002
{
1070
    40
1040
3.0
1070
   147
1040
2.0
1002
}
  0
DIMENSION
  5
41
100
AcDbEntity
  8
KOTY-UPLNE
100
AcDbDimension
  2
*D5
 10
422.862646
 20
-148.941735
 30
0.0
 11
407.112646
 21
-132.509422
 31
0.0
 12
-943.32739
 22
4762.657346
 32
0.0
 70
   128
  3
UPLNE
100
AcDbAlignedDimension
 13
351.784309
 23
-153.941735
 33
0.0
 14
384.284309
 24
-148.941735
 34
0.0
 50
90.0
100
AcDbRotatedDimension
1001
ACAD
1000
DSTYLE
1002
{
1070
    40
1040
3.0
1070
   147
1040
2.0
1002
}
  0
DIMENSION
  5
51
100
AcDbEntity
  8
KOTY-UPLNE
100
AcDbDimension
  2
*D2
 10
319.284309
 20
-111.074478
 30
0.0
 11
299.284309
 21
-95.414478
 31
0.0
 12
-943.32739
 22
4762.657346
 32
0.0
  3
UPLNE
100
AcDbAlignedDimension
 13
279.284309
 23
-219.421735
 33
0.0
 14
319.284309
 24
-148.941735
 34
0.0
100
AcDbRotatedDimension
1001
ACAD
1000
DSTYLE
1002
{
1070
    40
1040
3.0
1070
   147
1040
2.0
1002
}
  0
DIMENSION
  5
60
100
AcDbEntity
  8
KOTY-UPLNE
100
AcDbDimension
  2
*D3
 10
384.284309
 20
-111.074478
 30
0.0
 11
351.784309
 21
-95.414478
 31
0.0
 12
-943.32739
 22
4762.657346
 32
0.0
  3
UPLNE
100
AcDbAlignedDimension
 13
319.284309
 23
-148.941735
 33
0.0
 14
384.284309
 24
-148.941735
 34
0.0
100
AcDbRotatedDimension
1001
ACAD
1000
DSTYLE
1002
{
1070
    40
1040
3.0
1070
   147
1040
2.0
1002
}
  0
DIMENSION
  5
6D
100
AcDbEntity
  8
KOTY-UPLNE
100
AcDbDimension
  2
*D6
 10
528.60585
 20
-219.421735
 30
0.0
 11
512.85585
 21
-235.779847
 31
0.0
 12
-943.32739
 22
4762.657346
 32
0.0
 70
   128
  3
UPLNE
100
AcDbAlignedDimension
 13
451.784309
 23
-212.421735
 33
0.0
 14
479.284309
 24
-219.421735
 34
0.0
 50
90.0
100
AcDbRotatedDimension
1001
ACAD
1000
DSTYLE
1002
{
1070
    40
1040
3.0
1070
   147
1040
2.0
1002
}
  0
DIMENSION
  5
7D
100
AcDbEntity
  8
KOTY-UPLNE
100
AcDbDimension
  2
*D4
 10
479.284309
 20
-280.364928
 30
0.0
 11
451.784309
 21
-264.704928
 31
0.0
 12
-943.32739
 22
4762.657346
 32
0.0
  3
UPLNE
100
AcDbAlignedDimension
 13
424.284309
 23
-219.421735
 33
0.0
 14
479.284309
 24
-219.421735
 34
0.0
100
AcDbRotatedDimension
1001
ACAD
1000
DSTYLE
1002
{
1070
    40
1040
3.0
1070
   147
1040
2.0
1002
}
  0
DIMENSION
  5
8A
100
AcDbEntity
  8
KOTY-UPLNE
100
AcDbDimension
  2
*D18
 10
550.034309
 20
-153.472824
 30
0.0
 11
464.507383
 21
-117.821705
 31
0.0
 12
-943.32739
 22
4762.657346
 32
0.0
 70
   130
  3
UPLNE
100
AcDb2LineAngularDimension
 13
519.284309
 23
-148.941735
 33
0.0
 14
542.186233
 24
-148.941735
 34
0.0
 15
542.186233
 25
-148.941735
 35
0.0
 16
477.260241
 26
-137.493531
 36
0.0
1001
ACAD
1000
DSTYLE
1002
{
1070
    40
1040
3.0
1070
   147
1040
2.0
1002
}
  0
DIMENSION
  5
99
100
AcDbEntity
  8
KOTY-UPLNE
100
AcDbDimension
  2
*D17
 10
1143.312076
 20
-219.421735
 30
0.0
 11
1125.812076
 21
-184.181735
 31
0.0
 12
-943.32739
 22
4762.657346
 32
0.0
  1
70,5
  3
UPLNE
100
AcDbAlignedDimension
 13
984.284309
 23
-148.941735
 33
0.0
 14
879.284309
 24
-219.421735
 34
0.0
 50
90.0
100
AcDbRotatedDimension
1001
ACAD
1000
DSTYLE
1002
{
1070
    40
1040
3.0
1070
   147
1040
2.0
1002
}
  0
DIMENSION
  5
A6
100
AcDbEntity
  8
KOTY-UPLNE
100
AcDbDimension
  2
*D16
 10
1026.586193
 20
-148.941735
 30
0.0
 11
1009.264764
 21
-116.589855
 31
0.0
 12
-943.32739
 22
4762.657346
 32
0.0
 70
   128
  1
14,7
  3
UPLNE
100
AcDbAlignedDimension
 13
914.182013
 23
-163.621735
 33
0.0
 14
984.284309
 24
-148.941735
 34
0.0
 50
90.0
100
AcDbRotatedDimension
1001
ACAD
1000
DSTYLE
1002
{
1070
    40
1040
3.0
1070
   147
1040
2.0
1002
}
  0
DIMENSION
  5
B6
100
AcDbEntity
  8
KOTY-UPLNE
100
AcDbDimension
  2
*D15
 10
1026.586193
 20
-163.621735
 30
0.0
 11
1048.856279
 21
-166.111735
 31
0.0
 12
-943.32739
 22
4762.657346
 32
0.0
 70
   128
  3
UPLNE
100
AcDbAlignedDimension
 13
906.637347
 23
-168.601735
 33
0.0
 14
914.182013
 24
-163.621735
 34
0.0
 50
90.0
100
AcDbRotatedDimension
1001
ACAD
1000
DSTYLE
1002
{
1070
    40
1040
3.0
1070
   147
1040
2.0
1002
}
  0
DIMENSION
  5
C6
100
AcDbEntity
  8
KOTY-UPLNE
100
AcDbDimension
  2
*D14
 10
1027.617443
 20
-168.601735
 30
0.0
 11
1079.053004
 21
-182.174184
 31
0.0
 12
-943.32739
 22
4762.657346
 32
0.0
 70
   128
  1
27,8
  3
UPLNE
100
AcDbAlignedDimension
 13
896.964533
 23
-196.431735
 33
0.0
 14
906.637347
 24
-168.601735
 34
0.0
 50
90.0
100
AcDbRotatedDimension
1001
ACAD
1000
DSTYLE
1002
{
1070
    40
1040
3.0
1070
   147
1040
2.0
1002
}
  0
DIMENSION
  5
D6
100
AcDbEntity
  8
KOTY-UPLNE
100
AcDbDimension
  2
*D13
 10
1026.586193
 20
-196.431735
 30
0.0
 11
1048.088326
 21
-200.581735
 31
0.0
 12
-943.32739
 22
4762.657346
 32
0.0
 70
   128
  1
8,3
  3
UPLNE
100
AcDbAlignedDimension
 13
884.390081
 23
-204.731735
 33
0.0
 14
896.964533
 24
-196.431735
 34
0.0
 50
90.0
100
AcDbRotatedDimension
1001
ACAD
1000
DSTYLE
1002
{
1070
    40
1040
3.0
1070
   147
1040
2.0
1002
}
  0
DIMENSION
  5
E6
100
AcDbEntity
  8
KOTY-UPLNE
100
AcDbDimension
  2
*D12
 10
1026.586193
 20
-204.731735
 30
0.0
 11
1009.264764
 21
-255.414119
 31
0.0
 12
-943.32739
 22
4762.657346
 32
0.0
 70
   128
  1
14,7
  3
UPLNE
100
AcDbAlignedDimension
 13
879.284309
 23
-219.421735
 33
0.0
 14
884.390081
 24
-204.731735
 34
0.0
 50
90.0
100
AcDbRotatedDimension
1001
ACAD
1000
DSTYLE
1002
{
1070
    40
1040
3.0
1070
   147
1040
2.0
1002
}
  0
DIMENSION
  5
F6
100
AcDbEntity
  8
KOTY-UPLNE
100
AcDbDimension
  2
*D11
 10
714.182013
 20
-163.621735
 30
0.0
 11
817.444638
 21
-135.328901
 31
0.0
 12
-943.32739
 22
4762.657346
 32
0.0
 70
     2
  1
42,33%%D
  3
UPLNE
100
AcDb2LineAngularDimension
 13
706.637347
 23
-168.601735
 33
0.0
 14
769.753471
 24
-168.601735
 34
0.0
 15
706.637347
 25
-168.601735
 35
0.0
 16
802.981342
 26
-149.625532
 36
0.0
1001
ACAD
1000
DSTYLE
1002
{
1070
    40
1040
3.0
1070
   147
1040
2.0
1002
}
  0
DIMENSION
  5
105
100
AcDbEntity
  8
KOTY-UPLNE
100
AcDbDimension
  2
*D10
 10
684.390081
 20
-204.731735
 30
0.0
 11
748.251338
 21
-201.725178
 31
0.0
 12
-943.32739
 22
4762.657346
 32
0.0
 70
   130
  1
66,11%%D
  3
UPLNE
100
AcDb2LineAngularDimension
 13
664.846487
 23
-219.421735
 33
0.0
 14
679.284309
 24
-219.421735
 34
0.0
 15
679.284309
 25
-219.421735
 35
0.0
 16
713.707801
 26
-182.218066
 36
0.0
1001
ACAD
1000
DSTYLE
1002
{
1070
    40
1040
3.0
1070
   147
1040
2.0
1002
}
  0
MTEXT
  5
114
100
AcDbEntity
  8
POZICE
100
AcDbMText
 10
649.898125
 20
-273.171983
 30
0.0
 40
41.73
 41
1.0
 71
     5
 72
     1
  1
B
  7
STYLE1
  0
LINE
  5
116
100
AcDbEntity
  8
KOTY-UPLNE
100
AcDbLine
 10
706.637347
 20
-168.601735
 30
0.0
 11
769.753471
 21
-168.601735
 31
0.0
  0
MTEXT
  5
117
100
AcDbEntity
  8
POZICE
100
AcDbMText
 10
649.898125
 20
-145.661687
 30
0.0
 40
41.73
 41
1.0
 71
     5
 72
     1
  1
A
  7
STYLE1
  0
DIMENSION
  5
118
100
AcDbEntity
  8
KOTY-UPLNE
100
AcDbDimension
  2
*D7
 10
942.768957
 20
-64.646177
 30
0.0
 11
944.191629
 21
-46.613751
 31
0.0
 12
-943.32739
 22
4762.657346
 32
0.0
 70
     1
  1
9,2
  3
UPLNE
100
AcDbAlignedDimension
 13
884.390081
 23
-204.731735
 33
0.0
 14
893.035343
 24
-207.736551
 34
0.0
1001
ACAD
1000
DSTYLE
1002
{
1070
    40
1040
3.0
1070
   147
1040
2.0
1002
}
  0
DIMENSION
  5
127
100
AcDbEntity
  8
KOTY-UPLNE
100
AcDbDimension
  2
*D9
 10
879.284309
 20
-219.421735
 30
0.0
 11
956.588167
 21
-244.003845
 31
0.0
 12
-943.32739
 22
4762.657346
 32
0.0
 70
     2
  3
UPLNE
100
AcDb2LineAngularDimension
 13
853.534309
 23
-212.890647
 33
0.0
 14
864.846487
 24
-219.421735
 34
0.0
 15
864.846487
 25
-219.421735
 35
0.0
 16
968.812177
 26
-257.262152
 36
0.0
1001
ACAD
1000
DSTYLE
1002
{
1070
    40
1040
3.0
1070
   147
1040
2.0
1002
}
  0
DIMENSION
  5
136
100
AcDbEntity
  8
KOTY-UPLNE
100
AcDbDimension
  2
*D8
 10
932.159096
 20
-95.17219
 30
0.0
 11
962.112656
 21
-87.239907
 31
0.0
 12
-943.32739
 22
4762.657346
 32
0.0
 70
   129
  1
5,5
  3
UPLNE
100
AcDbAlignedDimension
 13
919.284309
 23
-148.941735
 33
0.0
 14
914.097156
 24
-147.138848
 34
0.0
1001
ACAD
1000
DSTYLE
1002
{
1070
    40
1040
3.0
1070
   147
1040
2.0
1002
}
  0
ENDSEC
  0
SECTION
  2
OBJECTS
  0
DICTIONARY
  5
1A
100
AcDbDictionary
  3
ACAD_GROUP
350
18
  3
ACAD_MLINESTYLE
350
19
  0
DICTIONARY
  5
18
102
{ACAD_REACTORS
330
1A
102
}
100
AcDbDictionary
  0
DICTIONARY
  5
19
102
{ACAD_REACTORS
330
1A
102
}
100
AcDbDictionary
  3
STANDARD
350
1C
  0
MLINESTYLE
  5
1C
102
{ACAD_REACTORS
330
19
102
}
100
AcDbMlineStyle
  2
STANDARD
 70
     0
  3

 62
   256
 51
90.0
 52
90.0
 71
     2
 49
0.5
 62
   256
  6
BYLAYER
 49
-0.5
 62
   256
  6
BYLAYER
  0
ENDSEC
  0
EOF
