  0
SECTION
  2
HEADER
  9
$ACADVER
  1
AC1014
  9
$ACADMAINTVER
 70
     0
  9
$DWGCODEPAGE
  3
ANSI_1250
  9
$INSBASE
 10
0.0
 20
0.0
 30
0.0
  9
$EXTMIN
 10
0.0
 20
-375.001233
 30
0.0
  9
$EXTMAX
 10
1349.672502
 20
0.0
 30
0.0
  9
$LIMMIN
 10
-1000.0
 20
-1000.0
  9
$LIMMAX
 10
1000.0
 20
1000.0
  9
$ORTHOMODE
 70
     0
  9
$REGENMODE
 70
     1
  9
$FILLMODE
 70
     1
  9
$QTEXTMODE
 70
     0
  9
$MIRRTEXT
 70
     0
  9
$DRAGMODE
 70
     2
  9
$LTSCALE
 40
3.0
  9
$OSMODE
 70
    32
  9
$ATTMODE
 70
     1
  9
$TEXTSIZE
 40
50.0
  9
$TRACEWID
 40
0.05
  9
$TEXTSTYLE
  7
STANDARD
  9
$CLAYER
  8
KOTY-UPLNE
  9
$CELTYPE
  6
BYLAYER
  9
$CECOLOR
 62
   256
  9
$CELTSCALE
 40
1.0
  9
$DELOBJ
 70
     1
  9
$DISPSILH
 70
     0
  9
$DIMSCALE
 40
3.0
  9
$DIMASZ
 40
5.0
  9
$DIMEXO
 40
1.0
  9
$DIMDLI
 40
0.0
  9
$DIMRND
 40
1.0
  9
$DIMDLE
 40
1.0
  9
$DIMEXE
 40
2.0
  9
$DIMTP
 40
0.0
  9
$DIMTM
 40
0.0
  9
$DIMTXT
 40
6.44
  9
$DIMCEN
 40
1.0
  9
$DIMTSZ
 40
0.0
  9
$DIMTOL
 70
     0
  9
$DIMLIM
 70
     0
  9
$DIMTIH
 70
     0
  9
$DIMTOH
 70
     0
  9
$DIMSE1
 70
     0
  9
$DIMSE2
 70
     0
  9
$DIMTAD
 70
     3
  9
$DIMZIN
 70
     0
  9
$DIMBLK
  1

  9
$DIMASO
 70
     1
  9
$DIMSHO
 70
     0
  9
$DIMPOST
  1

  9
$DIMAPOST
  1

  9
$DIMALT
 70
     0
  9
$DIMALTD
 70
     2
  9
$DIMALTF
 40
25.4
  9
$DIMLFAC
 40
1.0
  9
$DIMTOFL
 70
     1
  9
$DIMTVP
 40
0.0
  9
$DIMTIX
 70
     1
  9
$DIMSOXD
 70
     0
  9
$DIMSAH
 70
     0
  9
$DIMBLK1
  1

  9
$DIMBLK2
  1

  9
$DIMSTYLE
  2
UPLNE
  9
$DIMCLRD
 70
   256
  9
$DIMCLRE
 70
   256
  9
$DIMCLRT
 70
     5
  9
$DIMTFAC
 40
1.0
  9
$DIMGAP
 40
2.0
  9
$DIMJUST
 70
     0
  9
$DIMSD1
 70
     0
  9
$DIMSD2
 70
     0
  9
$DIMTOLJ
 70
     1
  9
$DIMTZIN
 70
     0
  9
$DIMALTZ
 70
     0
  9
$DIMALTTZ
 70
     0
  9
$DIMFIT
 70
     5
  9
$DIMUPT
 70
     0
  9
$DIMUNIT
 70
     2
  9
$DIMDEC
 70
     0
  9
$DIMTDEC
 70
     0
  9
$DIMALTU
 70
     2
  9
$DIMALTTD
 70
     2
  9
$DIMTXSTY
  7
STANDARD
  9
$DIMAUNIT
 70
     0
  9
$LUNITS
 70
     2
  9
$LUPREC
 70
     2
  9
$SKETCHINC
 40
0.1
  9
$FILLETRAD
 40
5.0
  9
$AUNITS
 70
     0
  9
$AUPREC
 70
     2
  9
$MENU
  1
acad
  9
$ELEVATION
 40
0.0
  9
$PELEVATION
 40
0.0
  9
$THICKNESS
 40
0.0
  9
$LIMCHECK
 70
     0
  9
$BLIPMODE
 70
     1
  9
$CHAMFERA
 40
0.0
  9
$CHAMFERB
 40
0.0
  9
$CHAMFERC
 40
0.0
  9
$CHAMFERD
 40
0.0
  9
$SKPOLY
 70
     0
  9
$TDCREATE
 40
2448722.252204629
  9
$TDUPDATE
 40
2452465.891385995
  9
$TDINDWG
 40
2.5235802083
  9
$TDUSRTIMER
 40
2.5235802083
  9
$USRTIMER
 70
     1
  9
$ANGBASE
 50
0.0
  9
$ANGDIR
 70
     0
  9
$PDMODE
 70
     0
  9
$PDSIZE
 40
0.0
  9
$PLINEWID
 40
0.0
  9
$COORDS
 70
     2
  9
$SPLFRAME
 70
     0
  9
$SPLINETYPE
 70
     6
  9
$SPLINESEGS
 70
     8
  9
$ATTDIA
 70
     0
  9
$ATTREQ
 70
     1
  9
$HANDLING
 70
     1
  9
$HANDSEED
  5
F9
  9
$SURFTAB1
 70
     6
  9
$SURFTAB2
 70
     6
  9
$SURFTYPE
 70
     6
  9
$SURFU
 70
     6
  9
$SURFV
 70
     6
  9
$UCSNAME
  2

  9
$UCSORG
 10
0.0
 20
0.0
 30
0.0
  9
$UCSXDIR
 10
1.0
 20
0.0
 30
0.0
  9
$UCSYDIR
 10
0.0
 20
1.0
 30
0.0
  9
$PUCSNAME
  2

  9
$PUCSORG
 10
0.0
 20
0.0
 30
0.0
  9
$PUCSXDIR
 10
1.0
 20
0.0
 30
0.0
  9
$PUCSYDIR
 10
0.0
 20
1.0
 30
0.0
  9
$USERI1
 70
     1
  9
$USERI2
 70
     0
  9
$USERI3
 70
     0
  9
$USERI4
 70
     0
  9
$USERI5
 70
     0
  9
$USERR1
 40
0.0
  9
$USERR2
 40
0.0
  9
$USERR3
 40
0.0
  9
$USERR4
 40
0.0
  9
$USERR5
 40
0.0
  9
$WORLDVIEW
 70
     1
  9
$SHADEDGE
 70
     3
  9
$SHADEDIF
 70
    70
  9
$TILEMODE
 70
     1
  9
$MAXACTVP
 70
    16
  9
$PINSBASE
 10
0.0
 20
0.0
 30
0.0
  9
$PLIMCHECK
 70
     0
  9
$PEXTMIN
 10
1.000000E+20
 20
1.000000E+20
 30
1.000000E+20
  9
$PEXTMAX
 10
-1.000000E+20
 20
-1.000000E+20
 30
-1.000000E+20
  9
$PLIMMIN
 10
0.0
 20
0.0
  9
$PLIMMAX
 10
12.0
 20
9.0
  9
$UNITMODE
 70
     0
  9
$VISRETAIN
 70
     0
  9
$PLINEGEN
 70
     0
  9
$PSLTSCALE
 70
     0
  9
$TREEDEPTH
 70
  3020
  9
$PICKSTYLE
 70
     0
  9
$CMLSTYLE
  2
STANDARD
  9
$CMLJUST
 70
     0
  9
$CMLSCALE
 40
1.0
  9
$PROXYGRAPHICS
 70
     1
  9
$MEASUREMENT
 70
     0
  0
ENDSEC
  0
SECTION
  2
CLASSES
  0
CLASS
  1
LWPOLYLINE
  2
AcDbPolyline
  3
"AutoCAD"
 90
        0
280
     0
281
     1
  0
CLASS
  1
DICTIONARYVAR
  2
AcDbDictionaryVar
  3
"AutoCAD"
 90
        0
280
     0
281
     0
  0
ENDSEC
  0
SECTION
  2
TABLES
  0
TABLE
  2
VPORT
  5
12
100
AcDbSymbolTable
 70
     2
  0
VPORT
  5
F8
100
AcDbSymbolTableRecord
100
AcDbViewportTableRecord
  2
*ACTIVE
 70
     0
 10
0.0
 20
0.0
 11
1.0
 21
1.0
 12
660.138
 22
-194.440171
 13
0.0
 23
0.0
 14
1.0
 24
1.0
 15
600.0
 25
600.0
 16
0.0
 26
0.0
 36
1.0
 17
0.0
 27
0.0
 37
0.0
 40
689.307148
 41
2.224444
 42
50.0
 43
0.0
 44
0.0
 50
0.0
 51
0.0
 71
     0
 72
   100
 73
     1
 74
     0
 75
     0
 76
     0
 77
     0
 78
     0
  0
ENDTAB
  0
TABLE
  2
LTYPE
  5
D
100
AcDbSymbolTable
 70
     1
  0
LTYPE
  5
E
100
AcDbSymbolTableRecord
100
AcDbLinetypeTableRecord
  2
BYBLOCK
 70
     0
  3

 72
    65
 73
     0
 40
0.0
  0
LTYPE
  5
F
100
AcDbSymbolTableRecord
100
AcDbLinetypeTableRecord
  2
BYLAYER
 70
     0
  3

 72
    65
 73
     0
 40
0.0
  0
LTYPE
  5
5
100
AcDbSymbolTableRecord
100
AcDbLinetypeTableRecord
  2
CONTINUOUS
 70
     0
  3
Solid line
 72
    65
 73
     0
 40
0.0
  0
ENDTAB
  0
TABLE
  2
LAYER
  5
A
100
AcDbSymbolTable
 70
     7
  0
LAYER
  5
4
100
AcDbSymbolTableRecord
100
AcDbLayerTableRecord
  2
0
 70
     0
 62
     7
  6
CONTINUOUS
  0
LAYER
  5
1B
100
AcDbSymbolTableRecord
100
AcDbLayerTableRecord
  2
KOTY-UPLNE
 70
     0
 62
     7
  6
CONTINUOUS
  0
LAYER
  5
52
100
AcDbSymbolTableRecord
100
AcDbLayerTableRecord
  2
RAMEC
 70
     0
 62
     5
  6
CONTINUOUS
  0
LAYER
  5
E3
100
AcDbSymbolTableRecord
100
AcDbLayerTableRecord
  2
POZICE
 70
     0
 62
     1
  6
CONTINUOUS
  0
LAYER
  5
4F
100
AcDbSymbolTableRecord
100
AcDbLayerTableRecord
  2
POPIS
 70
     0
 62
     1
  6
CONTINUOUS
  0
LAYER
  5
29
100
AcDbSymbolTableRecord
100
AcDbLayerTableRecord
  2
DEFPOINTS
 70
     0
 62
     7
  6
CONTINUOUS
  0
LAYER
  5
4D
100
AcDbSymbolTableRecord
100
AcDbLayerTableRecord
  2
TRAPEZ-VELKY
 70
     0
 62
     7
  6
CONTINUOUS
  0
ENDTAB
  0
TABLE
  2
STYLE
  5
B
100
AcDbSymbolTable
 70
     2
  0
STYLE
  5
C
100
AcDbSymbolTableRecord
100
AcDbTextStyleTableRecord
  2
STANDARD
 70
     0
 40
0.0
 41
0.9
 50
0.0
 71
     0
 42
50.0
  3
simplex.shx
  4

  0
STYLE
  5
50
100
AcDbSymbolTableRecord
100
AcDbTextStyleTableRecord
  2
STYLE1
 70
     0
 40
0.0
 41
0.9
 50
0.0
 71
     0
 42
50.0
  3
simplex.shx
  4

  0
ENDTAB
  0
TABLE
  2
VIEW
  5
10
100
AcDbSymbolTable
 70
     0
  0
ENDTAB
  0
TABLE
  2
UCS
  5
11
100
AcDbSymbolTable
 70
     0
  0
ENDTAB
  0
TABLE
  2
APPID
  5
14
100
AcDbSymbolTable
 70
     1
  0
APPID
  5
15
100
AcDbSymbolTableRecord
100
AcDbRegAppTableRecord
  2
ACAD
 70
     0
  0
ENDTAB
  0
TABLE
  2
DIMSTYLE
  5
16
100
AcDbSymbolTable
 70
     1
  0
DIMSTYLE
105
1D
102
{ACAD_REACTORS
330
7A
330
6D
330
60
330
88
330
53
330
3E
330
2E
330
1E
330
D2
330
C2
330
B5
330
E5
330
A5
330
95
102
}
100
AcDbSymbolTableRecord
100
AcDbDimStyleTableRecord
  2
UPLNE
 70
     0
  3

  4

  5

  6

  7

 40
5.0
 41
5.0
 42
1.0
 43
0.0
 44
2.0
 45
1.0
 46
1.0
 47
0.0
 48
0.0
140
6.44
141
1.0
142
0.0
143
25.4
144
1.0
145
0.0
146
1.0
147
1.0
 71
     0
 72
     0
 73
     0
 74
     0
 75
     0
 76
     0
 77
     3
 78
     0
170
     0
171
     2
172
     1
173
     0
174
     1
175
     0
176
   256
177
   256
178
     5
270
     2
271
     0
272
     0
273
     2
274
     2
340
C
275
     0
280
     0
281
     0
282
     0
283
     1
284
     0
285
     0
286
     0
287
     5
288
     0
  0
ENDTAB
  0
TABLE
  2
BLOCK_RECORD
  5
1
100
AcDbSymbolTable
 70
    14
  0
BLOCK_RECORD
  5
2
100
AcDbSymbolTableRecord
100
AcDbBlockTableRecord
  2
*MODEL_SPACE
  0
BLOCK_RECORD
  5
7
100
AcDbSymbolTableRecord
100
AcDbBlockTableRecord
  2
*PAPER_SPACE
  0
BLOCK_RECORD
  5
7B
100
AcDbSymbolTableRecord
100
AcDbBlockTableRecord
  2
*D0
  0
BLOCK_RECORD
  5
6E
100
AcDbSymbolTableRecord
100
AcDbBlockTableRecord
  2
*D1
  0
BLOCK_RECORD
  5
61
100
AcDbSymbolTableRecord
100
AcDbBlockTableRecord
  2
*D2
  0
BLOCK_RECORD
  5
89
100
AcDbSymbolTableRecord
100
AcDbBlockTableRecord
  2
*D3
  0
BLOCK_RECORD
  5
54
100
AcDbSymbolTableRecord
100
AcDbBlockTableRecord
  2
*D4
  0
BLOCK_RECORD
  5
3F
100
AcDbSymbolTableRecord
100
AcDbBlockTableRecord
  2
*D5
  0
BLOCK_RECORD
  5
2F
100
AcDbSymbolTableRecord
100
AcDbBlockTableRecord
  2
*D6
  0
BLOCK_RECORD
  5
1F
100
AcDbSymbolTableRecord
100
AcDbBlockTableRecord
  2
*D7
  0
BLOCK_RECORD
  5
D3
100
AcDbSymbolTableRecord
100
AcDbBlockTableRecord
  2
*D8
  0
BLOCK_RECORD
  5
C3
100
AcDbSymbolTableRecord
100
AcDbBlockTableRecord
  2
*D9
  0
BLOCK_RECORD
  5
B6
100
AcDbSymbolTableRecord
100
AcDbBlockTableRecord
  2
*D10
  0
BLOCK_RECORD
  5
E6
100
AcDbSymbolTableRecord
100
AcDbBlockTableRecord
  2
*D11
  0
BLOCK_RECORD
  5
A6
100
AcDbSymbolTableRecord
100
AcDbBlockTableRecord
  2
*D12
  0
BLOCK_RECORD
  5
96
100
AcDbSymbolTableRecord
100
AcDbBlockTableRecord
  2
*D13
  0
ENDTAB
  0
ENDSEC
  0
SECTION
  2
BLOCKS
  0
BLOCK
  5
3
100
AcDbEntity
  8
0
100
AcDbBlockBegin
  2
*MODEL_SPACE
 70
     0
 10
0.0
 20
0.0
 30
0.0
  3
*MODEL_SPACE
  1

  0
ENDBLK
  5
6
100
AcDbEntity
  8
0
100
AcDbBlockEnd
  0
BLOCK
  5
8
100
AcDbEntity
 67
     1
  8
0
100
AcDbBlockBegin
  2
*PAPER_SPACE
 70
     0
 10
0.0
 20
0.0
 30
0.0
  3
*PAPER_SPACE
  1

  0
ENDBLK
  5
9
100
AcDbEntity
 67
     1
  8
0
100
AcDbBlockEnd
  0
BLOCK
  5
85
100
AcDbEntity
  8
0
100
AcDbBlockBegin
  2
*D0
 70
     1
 10
0.0
 20
0.0
 30
0.0
  3
*D0
  1

  0
LINE
  5
7C
100
AcDbEntity
  8
0
  6
BYBLOCK
100
AcDbLine
 10
1121.182687
 20
-2509.542274
 30
0.0
 11
1121.182687
 21
-2467.731824
 31
0.0
  0
LINE
  5
7D
100
AcDbEntity
  8
0
  6
BYBLOCK
100
AcDbLine
 10
1172.182687
 20
-2565.542274
 30
0.0
 11
1172.182687
 21
-2467.731824
 31
0.0
  0
LINE
  5
7E
100
AcDbEntity
  8
0
  6
BYBLOCK
100
AcDbLine
 10
1136.182687
 20
-2473.731824
 30
0.0
 11
1157.182687
 21
-2473.731824
 31
0.0
  0
SOLID
  5
7F
100
AcDbEntity
  8
0
  6
BYBLOCK
100
AcDbTrace
 10
1136.182687
 20
-2471.231824
 30
0.0
 11
1136.182687
 21
-2476.231824
 31
0.0
 12
1121.182687
 22
-2473.731824
 32
0.0
 13
1121.182687
 23
-2473.731824
 33
0.0
  0
SOLID
  5
80
100
AcDbEntity
  8
0
  6
BYBLOCK
100
AcDbTrace
 10
1157.182687
 20
-2471.231824
 30
0.0
 11
1157.182687
 21
-2476.231824
 31
0.0
 12
1172.182687
 22
-2473.731824
 32
0.0
 13
1172.182687
 23
-2473.731824
 33
0.0
  0
MTEXT
  5
81
100
AcDbEntity
  8
0
  6
BYBLOCK
 62
     5
100
AcDbMText
 10
1146.682687
 20
-2458.071824
 30
0.0
 40
19.32
 41
0.0
 71
     5
 72
     1
  1
\A1;51
  0
POINT
  5
82
100
AcDbEntity
  8
DEFPOINTS
  6
BYBLOCK
 62
     0
100
AcDbPoint
 10
1121.182687
 20
-2512.542274
 30
0.0
  0
POINT
  5
83
100
AcDbEntity
  8
DEFPOINTS
  6
BYBLOCK
 62
     0
100
AcDbPoint
 10
1172.182687
 20
-2568.542274
 30
0.0
  0
POINT
  5
84
100
AcDbEntity
  8
DEFPOINTS
  6
BYBLOCK
 62
     0
100
AcDbPoint
 10
1172.182687
 20
-2473.731824
 30
0.0
  0
ENDBLK
  5
86
100
AcDbEntity
  8
0
100
AcDbBlockEnd
  0
BLOCK
  5
78
100
AcDbEntity
  8
0
100
AcDbBlockBegin
  2
*D1
 70
     1
 10
0.0
 20
0.0
 30
0.0
  3
*D1
  1

  0
LINE
  5
6F
100
AcDbEntity
  8
0
  6
BYBLOCK
100
AcDbLine
 10
1172.182687
 20
-2565.542274
 30
0.0
 11
1172.182687
 21
-2467.731824
 31
0.0
  0
LINE
  5
70
100
AcDbEntity
  8
0
  6
BYBLOCK
100
AcDbLine
 10
1335.182687
 20
-2565.542274
 30
0.0
 11
1335.182687
 21
-2467.731824
 31
0.0
  0
LINE
  5
71
100
AcDbEntity
  8
0
  6
BYBLOCK
100
AcDbLine
 10
1187.182687
 20
-2473.731824
 30
0.0
 11
1320.182687
 21
-2473.731824
 31
0.0
  0
SOLID
  5
72
100
AcDbEntity
  8
0
  6
BYBLOCK
100
AcDbTrace
 10
1187.182687
 20
-2471.231824
 30
0.0
 11
1187.182687
 21
-2476.231824
 31
0.0
 12
1172.182687
 22
-2473.731824
 32
0.0
 13
1172.182687
 23
-2473.731824
 33
0.0
  0
SOLID
  5
73
100
AcDbEntity
  8
0
  6
BYBLOCK
100
AcDbTrace
 10
1320.182687
 20
-2471.231824
 30
0.0
 11
1320.182687
 21
-2476.231824
 31
0.0
 12
1335.182687
 22
-2473.731824
 32
0.0
 13
1335.182687
 23
-2473.731824
 33
0.0
  0
MTEXT
  5
74
100
AcDbEntity
  8
0
  6
BYBLOCK
 62
     5
100
AcDbMText
 10
1253.682687
 20
-2458.071824
 30
0.0
 40
19.32
 41
0.0
 71
     5
 72
     1
  1
\A1;163
  0
POINT
  5
75
100
AcDbEntity
  8
DEFPOINTS
  6
BYBLOCK
 62
     0
100
AcDbPoint
 10
1172.182687
 20
-2568.542274
 30
0.0
  0
POINT
  5
76
100
AcDbEntity
  8
DEFPOINTS
  6
BYBLOCK
 62
     0
100
AcDbPoint
 10
1335.182687
 20
-2568.542274
 30
0.0
  0
POINT
  5
77
100
AcDbEntity
  8
DEFPOINTS
  6
BYBLOCK
 62
     0
100
AcDbPoint
 10
1335.182687
 20
-2473.731824
 30
0.0
  0
ENDBLK
  5
79
100
AcDbEntity
  8
0
100
AcDbBlockEnd
  0
BLOCK
  5
6B
100
AcDbEntity
  8
0
100
AcDbBlockBegin
  2
*D2
 70
     1
 10
0.0
 20
0.0
 30
0.0
  3
*D2
  1

  0
LINE
  5
62
100
AcDbEntity
  8
0
  6
BYBLOCK
100
AcDbLine
 10
1335.182687
 20
-2565.542274
 30
0.0
 11
1335.182687
 21
-2467.731824
 31
0.0
  0
LINE
  5
63
100
AcDbEntity
  8
0
  6
BYBLOCK
100
AcDbLine
 10
1386.182687
 20
-2509.542274
 30
0.0
 11
1386.182687
 21
-2467.731824
 31
0.0
  0
LINE
  5
64
100
AcDbEntity
  8
0
  6
BYBLOCK
100
AcDbLine
 10
1350.182687
 20
-2473.731824
 30
0.0
 11
1371.182687
 21
-2473.731824
 31
0.0
  0
SOLID
  5
65
100
AcDbEntity
  8
0
  6
BYBLOCK
100
AcDbTrace
 10
1350.182687
 20
-2471.231824
 30
0.0
 11
1350.182687
 21
-2476.231824
 31
0.0
 12
1335.182687
 22
-2473.731824
 32
0.0
 13
1335.182687
 23
-2473.731824
 33
0.0
  0
SOLID
  5
66
100
AcDbEntity
  8
0
  6
BYBLOCK
100
AcDbTrace
 10
1371.182687
 20
-2471.231824
 30
0.0
 11
1371.182687
 21
-2476.231824
 31
0.0
 12
1386.182687
 22
-2473.731824
 32
0.0
 13
1386.182687
 23
-2473.731824
 33
0.0
  0
MTEXT
  5
67
100
AcDbEntity
  8
0
  6
BYBLOCK
 62
     5
100
AcDbMText
 10
1360.682687
 20
-2458.071824
 30
0.0
 40
19.32
 41
0.0
 71
     5
 72
     1
  1
\A1;51
  0
POINT
  5
68
100
AcDbEntity
  8
DEFPOINTS
  6
BYBLOCK
 62
     0
100
AcDbPoint
 10
1335.182687
 20
-2568.542274
 30
0.0
  0
POINT
  5
69
100
AcDbEntity
  8
DEFPOINTS
  6
BYBLOCK
 62
     0
100
AcDbPoint
 10
1386.182687
 20
-2512.542274
 30
0.0
  0
POINT
  5
6A
100
AcDbEntity
  8
DEFPOINTS
  6
BYBLOCK
 62
     0
100
AcDbPoint
 10
1386.182687
 20
-2473.731824
 30
0.0
  0
ENDBLK
  5
6C
100
AcDbEntity
  8
0
100
AcDbBlockEnd
  0
BLOCK
  5
93
100
AcDbEntity
  8
0
100
AcDbBlockBegin
  2
*D3
 70
     1
 10
0.0
 20
0.0
 30
0.0
  3
*D3
  1

  0
LINE
  5
8A
100
AcDbEntity
  8
0
  6
BYBLOCK
100
AcDbLine
 10
1386.182687
 20
-2509.542274
 30
0.0
 11
1386.182687
 21
-2467.731824
 31
0.0
  0
LINE
  5
8B
100
AcDbEntity
  8
0
  6
BYBLOCK
100
AcDbLine
 10
1436.182687
 20
-2509.542274
 30
0.0
 11
1436.182687
 21
-2467.731824
 31
0.0
  0
LINE
  5
8C
100
AcDbEntity
  8
0
  6
BYBLOCK
100
AcDbLine
 10
1401.182687
 20
-2473.731824
 30
0.0
 11
1421.182687
 21
-2473.731824
 31
0.0
  0
SOLID
  5
8D
100
AcDbEntity
  8
0
  6
BYBLOCK
100
AcDbTrace
 10
1401.182687
 20
-2471.231824
 30
0.0
 11
1401.182687
 21
-2476.231824
 31
0.0
 12
1386.182687
 22
-2473.731824
 32
0.0
 13
1386.182687
 23
-2473.731824
 33
0.0
  0
SOLID
  5
8E
100
AcDbEntity
  8
0
  6
BYBLOCK
100
AcDbTrace
 10
1421.182687
 20
-2471.231824
 30
0.0
 11
1421.182687
 21
-2476.231824
 31
0.0
 12
1436.182687
 22
-2473.731824
 32
0.0
 13
1436.182687
 23
-2473.731824
 33
0.0
  0
MTEXT
  5
8F
100
AcDbEntity
  8
0
  6
BYBLOCK
 62
     5
100
AcDbMText
 10
1411.182687
 20
-2458.071824
 30
0.0
 40
19.32
 41
0.0
 71
     5
 72
     1
  1
\A1;50
  0
POINT
  5
90
100
AcDbEntity
  8
DEFPOINTS
  6
BYBLOCK
 62
     0
100
AcDbPoint
 10
1386.182687
 20
-2512.542274
 30
0.0
  0
POINT
  5
91
100
AcDbEntity
  8
DEFPOINTS
  6
BYBLOCK
 62
     0
100
AcDbPoint
 10
1436.182687
 20
-2512.542274
 30
0.0
  0
POINT
  5
92
100
AcDbEntity
  8
DEFPOINTS
  6
BYBLOCK
 62
     0
100
AcDbPoint
 10
1436.182687
 20
-2473.731824
 30
0.0
  0
ENDBLK
  5
94
100
AcDbEntity
  8
0
100
AcDbBlockEnd
  0
BLOCK
  5
5E
100
AcDbEntity
  8
0
100
AcDbBlockBegin
  2
*D4
 70
     1
 10
0.0
 20
0.0
 30
0.0
  3
*D4
  1

  0
LINE
  5
55
100
AcDbEntity
  8
0
  6
BYBLOCK
100
AcDbLine
 10
1096.182687
 20
-2515.542274
 30
0.0
 11
1096.182687
 21
-2634.542274
 31
0.0
  0
LINE
  5
56
100
AcDbEntity
  8
0
  6
BYBLOCK
100
AcDbLine
 10
1411.182687
 20
-2515.542274
 30
0.0
 11
1411.182687
 21
-2634.542274
 31
0.0
  0
LINE
  5
57
100
AcDbEntity
  8
0
  6
BYBLOCK
100
AcDbLine
 10
1111.182687
 20
-2628.542274
 30
0.0
 11
1396.182687
 21
-2628.542274
 31
0.0
  0
SOLID
  5
58
100
AcDbEntity
  8
0
  6
BYBLOCK
100
AcDbTrace
 10
1111.182687
 20
-2626.042274
 30
0.0
 11
1111.182687
 21
-2631.042274
 31
0.0
 12
1096.182687
 22
-2628.542274
 32
0.0
 13
1096.182687
 23
-2628.542274
 33
0.0
  0
SOLID
  5
59
100
AcDbEntity
  8
0
  6
BYBLOCK
100
AcDbTrace
 10
1396.182687
 20
-2626.042274
 30
0.0
 11
1396.182687
 21
-2631.042274
 31
0.0
 12
1411.182687
 22
-2628.542274
 32
0.0
 13
1411.182687
 23
-2628.542274
 33
0.0
  0
MTEXT
  5
5A
100
AcDbEntity
  8
0
  6
BYBLOCK
 62
     5
100
AcDbMText
 10
1253.682687
 20
-2612.882274
 30
0.0
 40
19.32
 41
0.0
 71
     5
 72
     1
  1
\A1;315
  0
POINT
  5
5B
100
AcDbEntity
  8
DEFPOINTS
  6
BYBLOCK
 62
     0
100
AcDbPoint
 10
1096.182687
 20
-2512.542274
 30
0.0
  0
POINT
  5
5C
100
AcDbEntity
  8
DEFPOINTS
  6
BYBLOCK
 62
     0
100
AcDbPoint
 10
1411.182687
 20
-2512.542274
 30
0.0
  0
POINT
  5
5D
100
AcDbEntity
  8
DEFPOINTS
  6
BYBLOCK
 62
     0
100
AcDbPoint
 10
1411.182687
 20
-2628.542274
 30
0.0
  0
ENDBLK
  5
5F
100
AcDbEntity
  8
0
100
AcDbBlockEnd
  0
BLOCK
  5
49
100
AcDbEntity
  8
0
100
AcDbBlockBegin
  2
*D5
 70
     1
 10
0.0
 20
0.0
 30
0.0
  3
*D5
  1

  0
LINE
  5
40
100
AcDbEntity
  8
0
  6
BYBLOCK
100
AcDbLine
 10
1096.182687
 20
-2515.542274
 30
0.0
 11
1096.182687
 21
-2694.542274
 31
0.0
  0
LINE
  5
41
100
AcDbEntity
  8
0
  6
BYBLOCK
100
AcDbLine
 10
2041.182687
 20
-2515.542274
 30
0.0
 11
2041.182687
 21
-2694.542274
 31
0.0
  0
LINE
  5
42
100
AcDbEntity
  8
0
  6
BYBLOCK
100
AcDbLine
 10
1111.182687
 20
-2688.542274
 30
0.0
 11
2026.182687
 21
-2688.542274
 31
0.0
  0
SOLID
  5
43
100
AcDbEntity
  8
0
  6
BYBLOCK
100
AcDbTrace
 10
1111.182687
 20
-2686.042274
 30
0.0
 11
1111.182687
 21
-2691.042274
 31
0.0
 12
1096.182687
 22
-2688.542274
 32
0.0
 13
1096.182687
 23
-2688.542274
 33
0.0
  0
SOLID
  5
44
100
AcDbEntity
  8
0
  6
BYBLOCK
100
AcDbTrace
 10
2026.182687
 20
-2686.042274
 30
0.0
 11
2026.182687
 21
-2691.042274
 31
0.0
 12
2041.182687
 22
-2688.542274
 32
0.0
 13
2041.182687
 23
-2688.542274
 33
0.0
  0
MTEXT
  5
45
100
AcDbEntity
  8
0
  6
BYBLOCK
 62
     5
100
AcDbMText
 10
1568.682687
 20
-2672.882274
 30
0.0
 40
19.32
 41
0.0
 71
     5
 72
     1
  1
\A1;945
  0
POINT
  5
46
100
AcDbEntity
  8
DEFPOINTS
  6
BYBLOCK
 62
     0
100
AcDbPoint
 10
1096.182687
 20
-2512.542274
 30
0.0
  0
POINT
  5
47
100
AcDbEntity
  8
DEFPOINTS
  6
BYBLOCK
 62
     0
100
AcDbPoint
 10
2041.182687
 20
-2512.542274
 30
0.0
  0
POINT
  5
48
100
AcDbEntity
  8
DEFPOINTS
  6
BYBLOCK
 62
     0
100
AcDbPoint
 10
2041.182687
 20
-2688.542274
 30
0.0
  0
ENDBLK
  5
4A
100
AcDbEntity
  8
0
100
AcDbBlockEnd
  0
BLOCK
  5
3C
100
AcDbEntity
  8
0
100
AcDbBlockBegin
  2
*D6
 70
     1
 10
0.0
 20
0.0
 30
0.0
  3
*D6
  1

  0
LINE
  5
30
100
AcDbEntity
  8
0
  6
BYBLOCK
100
AcDbLine
 10
1547.182687
 20
-2571.542274
 30
0.0
 11
1547.182687
 21
-2634.542274
 31
0.0
  0
LINE
  5
31
100
AcDbEntity
  8
0
  6
BYBLOCK
100
AcDbLine
 10
1550.182687
 20
-2569.542274
 30
0.0
 11
1550.182687
 21
-2634.542274
 31
0.0
  0
LINE
  5
32
100
AcDbEntity
  8
0
  6
BYBLOCK
100
AcDbLine
 10
1532.182687
 20
-2628.542274
 30
0.0
 11
1517.182687
 21
-2628.542274
 31
0.0
  0
LINE
  5
33
100
AcDbEntity
  8
0
  6
BYBLOCK
100
AcDbLine
 10
1565.182687
 20
-2628.542274
 30
0.0
 11
1580.182687
 21
-2628.542274
 31
0.0
  0
MTEXT
  5
34
100
AcDbEntity
  8
0
  6
BYBLOCK
 62
     5
100
AcDbMText
 10
1529.535554
 20
-2612.792274
 30
0.0
 40
19.32
 41
0.0
 71
     5
 72
     1
  1
\A1;3
  0
LINE
  5
35
100
AcDbEntity
  8
0
  6
BYBLOCK
100
AcDbLine
 10
1547.182687
 20
-2628.542274
 30
0.0
 11
1550.182687
 21
-2628.542274
 31
0.0
  0
LINE
  5
36
100
AcDbEntity
  8
0
  6
BYBLOCK
100
AcDbLine
 10
1547.182687
 20
-2628.542274
 30
0.0
 11
1550.182687
 21
-2628.542274
 31
0.0
  0
SOLID
  5
37
100
AcDbEntity
  8
0
  6
BYBLOCK
100
AcDbTrace
 10
1532.182687
 20
-2626.042274
 30
0.0
 11
1532.182687
 21
-2631.042274
 31
0.0
 12
1547.182687
 22
-2628.542274
 32
0.0
 13
1547.182687
 23
-2628.542274
 33
0.0
  0
SOLID
  5
38
100
AcDbEntity
  8
0
  6
BYBLOCK
100
AcDbTrace
 10
1565.182687
 20
-2626.042274
 30
0.0
 11
1565.182687
 21
-2631.042274
 31
0.0
 12
1550.182687
 22
-2628.542274
 32
0.0
 13
1550.182687
 23
-2628.542274
 33
0.0
  0
POINT
  5
39
100
AcDbEntity
  8
DEFPOINTS
  6
BYBLOCK
 62
     0
100
AcDbPoint
 10
1547.182687
 20
-2568.542274
 30
0.0
  0
POINT
  5
3A
100
AcDbEntity
  8
DEFPOINTS
  6
BYBLOCK
 62
     0
100
AcDbPoint
 10
1550.182687
 20
-2566.542274
 30
0.0
  0
POINT
  5
3B
100
AcDbEntity
  8
DEFPOINTS
  6
BYBLOCK
 62
     0
100
AcDbPoint
 10
1550.182687
 20
-2628.542274
 30
0.0
  0
ENDBLK
  5
3D
100
AcDbEntity
  8
0
100
AcDbBlockEnd
  0
BLOCK
  5
2C
100
AcDbEntity
  8
0
100
AcDbBlockBegin
  2
*D7
 70
     1
 10
0.0
 20
0.0
 30
0.0
  3
*D7
  1

  0
LINE
  5
20
100
AcDbEntity
  8
0
  6
BYBLOCK
100
AcDbLine
 10
1550.182687
 20
-2569.542274
 30
0.0
 11
1550.182687
 21
-2634.542274
 31
0.0
  0
LINE
  5
21
100
AcDbEntity
  8
0
  6
BYBLOCK
100
AcDbLine
 10
1587.182687
 20
-2569.542274
 30
0.0
 11
1587.182687
 21
-2634.542274
 31
0.0
  0
LINE
  5
22
100
AcDbEntity
  8
0
  6
BYBLOCK
100
AcDbLine
 10
1535.182687
 20
-2628.542274
 30
0.0
 11
1520.182687
 21
-2628.542274
 31
0.0
  0
LINE
  5
23
100
AcDbEntity
  8
0
  6
BYBLOCK
100
AcDbLine
 10
1602.182687
 20
-2628.542274
 30
0.0
 11
1617.182687
 21
-2628.542274
 31
0.0
  0
LINE
  5
24
100
AcDbEntity
  8
0
  6
BYBLOCK
100
AcDbLine
 10
1550.182687
 20
-2628.542274
 30
0.0
 11
1587.182687
 21
-2628.542274
 31
0.0
  0
SOLID
  5
25
100
AcDbEntity
  8
0
  6
BYBLOCK
100
AcDbTrace
 10
1535.182687
 20
-2626.042274
 30
0.0
 11
1535.182687
 21
-2631.042274
 31
0.0
 12
1550.182687
 22
-2628.542274
 32
0.0
 13
1550.182687
 23
-2628.542274
 33
0.0
  0
SOLID
  5
26
100
AcDbEntity
  8
0
  6
BYBLOCK
100
AcDbTrace
 10
1602.182687
 20
-2626.042274
 30
0.0
 11
1602.182687
 21
-2631.042274
 31
0.0
 12
1587.182687
 22
-2628.542274
 32
0.0
 13
1587.182687
 23
-2628.542274
 33
0.0
  0
MTEXT
  5
27
100
AcDbEntity
  8
0
  6
BYBLOCK
 62
     5
100
AcDbMText
 10
1568.682687
 20
-2612.882274
 30
0.0
 40
19.32
 41
0.0
 71
     5
 72
     1
  1
\A1;37
  0
POINT
  5
28
100
AcDbEntity
  8
DEFPOINTS
  6
BYBLOCK
 62
     0
100
AcDbPoint
 10
1550.182687
 20
-2566.542274
 30
0.0
  0
POINT
  5
2A
100
AcDbEntity
  8
DEFPOINTS
  6
BYBLOCK
 62
     0
100
AcDbPoint
 10
1587.182687
 20
-2566.542274
 30
0.0
  0
POINT
  5
2B
100
AcDbEntity
  8
DEFPOINTS
  6
BYBLOCK
 62
     0
100
AcDbPoint
 10
1587.182687
 20
-2628.542274
 30
0.0
  0
ENDBLK
  5
2D
100
AcDbEntity
  8
0
100
AcDbBlockEnd
  0
BLOCK
  5
E0
100
AcDbEntity
  8
0
100
AcDbBlockBegin
  2
*D8
 70
     1
 10
0.0
 20
0.0
 30
0.0
  3
*D8
  1

  0
LINE
  5
D4
100
AcDbEntity
  8
0
  6
BYBLOCK
100
AcDbLine
 10
1587.182687
 20
-2569.542274
 30
0.0
 11
1587.182687
 21
-2634.542274
 31
0.0
  0
LINE
  5
D5
100
AcDbEntity
  8
0
  6
BYBLOCK
100
AcDbLine
 10
1590.182687
 20
-2571.542274
 30
0.0
 11
1590.182687
 21
-2634.542274
 31
0.0
  0
LINE
  5
D6
100
AcDbEntity
  8
0
  6
BYBLOCK
100
AcDbLine
 10
1572.182687
 20
-2628.542274
 30
0.0
 11
1557.182687
 21
-2628.542274
 31
0.0
  0
LINE
  5
D7
100
AcDbEntity
  8
0
  6
BYBLOCK
100
AcDbLine
 10
1605.182687
 20
-2628.542274
 30
0.0
 11
1620.182687
 21
-2628.542274
 31
0.0
  0
MTEXT
  5
D8
100
AcDbEntity
  8
0
  6
BYBLOCK
 62
     5
100
AcDbMText
 10
1602.744934
 20
-2612.792274
 30
0.0
 40
19.32
 41
0.0
 71
     5
 72
     1
  1
\A1;3
  0
LINE
  5
D9
100
AcDbEntity
  8
0
  6
BYBLOCK
100
AcDbLine
 10
1587.182687
 20
-2628.542274
 30
0.0
 11
1590.182687
 21
-2628.542274
 31
0.0
  0
LINE
  5
DA
100
AcDbEntity
  8
0
  6
BYBLOCK
100
AcDbLine
 10
1587.182687
 20
-2628.542274
 30
0.0
 11
1590.182687
 21
-2628.542274
 31
0.0
  0
SOLID
  5
DB
100
AcDbEntity
  8
0
  6
BYBLOCK
100
AcDbTrace
 10
1572.182687
 20
-2626.042274
 30
0.0
 11
1572.182687
 21
-2631.042274
 31
0.0
 12
1587.182687
 22
-2628.542274
 32
0.0
 13
1587.182687
 23
-2628.542274
 33
0.0
  0
SOLID
  5
DC
100
AcDbEntity
  8
0
  6
BYBLOCK
100
AcDbTrace
 10
1605.182687
 20
-2626.042274
 30
0.0
 11
1605.182687
 21
-2631.042274
 31
0.0
 12
1590.182687
 22
-2628.542274
 32
0.0
 13
1590.182687
 23
-2628.542274
 33
0.0
  0
POINT
  5
DD
100
AcDbEntity
  8
DEFPOINTS
  6
BYBLOCK
 62
     0
100
AcDbPoint
 10
1587.182687
 20
-2566.542274
 30
0.0
  0
POINT
  5
DE
100
AcDbEntity
  8
DEFPOINTS
  6
BYBLOCK
 62
     0
100
AcDbPoint
 10
1590.182687
 20
-2568.542274
 30
0.0
  0
POINT
  5
DF
100
AcDbEntity
  8
DEFPOINTS
  6
BYBLOCK
 62
     0
100
AcDbPoint
 10
1590.182687
 20
-2628.542274
 30
0.0
  0
ENDBLK
  5
E1
100
AcDbEntity
  8
0
100
AcDbBlockEnd
  0
BLOCK
  5
D0
100
AcDbEntity
  8
0
100
AcDbBlockBegin
  2
*D9
 70
     1
 10
0.0
 20
0.0
 30
0.0
  3
*D9
  1

  0
LINE
  5
C4
100
AcDbEntity
  8
0
  6
BYBLOCK
100
AcDbLine
 10
1590.182687
 20
-2566.542274
 30
0.0
 11
1716.303436
 21
-2566.542274
 31
0.0
  0
LINE
  5
C5
100
AcDbEntity
  8
0
  6
BYBLOCK
100
AcDbLine
 10
1653.182687
 20
-2568.542274
 30
0.0
 11
1716.303436
 21
-2568.542274
 31
0.0
  0
LINE
  5
C6
100
AcDbEntity
  8
0
  6
BYBLOCK
100
AcDbLine
 10
1710.303436
 20
-2551.542274
 30
0.0
 11
1710.303436
 21
-2536.542274
 31
0.0
  0
LINE
  5
C7
100
AcDbEntity
  8
0
  6
BYBLOCK
100
AcDbLine
 10
1710.303436
 20
-2583.542274
 30
0.0
 11
1710.303436
 21
-2598.542274
 31
0.0
  0
MTEXT
  5
C8
100
AcDbEntity
  8
0
  6
BYBLOCK
 62
     5
100
AcDbMText
 10
1694.553436
 20
-2582.799658
 30
0.0
 40
19.32
 41
0.0
 71
     5
 72
     1
  1
\A1;2
 11
0.0
 21
1.0
 31
0.0
  0
LINE
  5
C9
100
AcDbEntity
  8
0
  6
BYBLOCK
100
AcDbLine
 10
1710.303436
 20
-2566.542274
 30
0.0
 11
1710.303436
 21
-2568.542274
 31
0.0
  0
LINE
  5
CA
100
AcDbEntity
  8
0
  6
BYBLOCK
100
AcDbLine
 10
1710.303436
 20
-2566.542274
 30
0.0
 11
1710.303436
 21
-2568.542274
 31
0.0
  0
SOLID
  5
CB
100
AcDbEntity
  8
0
  6
BYBLOCK
100
AcDbTrace
 10
1707.803436
 20
-2551.542274
 30
0.0
 11
1712.803436
 21
-2551.542274
 31
0.0
 12
1710.303436
 22
-2566.542274
 32
0.0
 13
1710.303436
 23
-2566.542274
 33
0.0
  0
SOLID
  5
CC
100
AcDbEntity
  8
0
  6
BYBLOCK
100
AcDbTrace
 10
1707.803436
 20
-2583.542274
 30
0.0
 11
1712.803436
 21
-2583.542274
 31
0.0
 12
1710.303436
 22
-2568.542274
 32
0.0
 13
1710.303436
 23
-2568.542274
 33
0.0
  0
POINT
  5
CD
100
AcDbEntity
  8
DEFPOINTS
  6
BYBLOCK
 62
     0
100
AcDbPoint
 10
1587.182687
 20
-2566.542274
 30
0.0
  0
POINT
  5
CE
100
AcDbEntity
  8
DEFPOINTS
  6
BYBLOCK
 62
     0
100
AcDbPoint
 10
1650.182687
 20
-2568.542274
 30
0.0
  0
POINT
  5
CF
100
AcDbEntity
  8
DEFPOINTS
  6
BYBLOCK
 62
     0
100
AcDbPoint
 10
1710.303436
 20
-2568.542274
 30
0.0
  0
ENDBLK
  5
D1
100
AcDbEntity
  8
0
100
AcDbBlockEnd
  0
BLOCK
  5
C0
100
AcDbEntity
  8
0
100
AcDbBlockBegin
  2
*D10
 70
     1
 10
0.0
 20
0.0
 30
0.0
  3
*D10
  1

  0
LINE
  5
B7
100
AcDbEntity
  8
0
  6
BYBLOCK
100
AcDbLine
 10
2054.182687
 20
-2512.542274
 30
0.0
 11
2173.907887
 21
-2512.542274
 31
0.0
  0
LINE
  5
B8
100
AcDbEntity
  8
0
  6
BYBLOCK
100
AcDbLine
 10
2087.182687
 20
-2568.542274
 30
0.0
 11
2173.907887
 21
-2568.542274
 31
0.0
  0
LINE
  5
B9
100
AcDbEntity
  8
0
  6
BYBLOCK
100
AcDbLine
 10
2167.907887
 20
-2527.542274
 30
0.0
 11
2167.907887
 21
-2553.542274
 31
0.0
  0
SOLID
  5
BA
100
AcDbEntity
  8
0
  6
BYBLOCK
100
AcDbTrace
 10
2165.407887
 20
-2527.542274
 30
0.0
 11
2170.407887
 21
-2527.542274
 31
0.0
 12
2167.907887
 22
-2512.542274
 32
0.0
 13
2167.907887
 23
-2512.542274
 33
0.0
  0
SOLID
  5
BB
100
AcDbEntity
  8
0
  6
BYBLOCK
100
AcDbTrace
 10
2165.407887
 20
-2553.542274
 30
0.0
 11
2170.407887
 21
-2553.542274
 31
0.0
 12
2167.907887
 22
-2568.542274
 32
0.0
 13
2167.907887
 23
-2568.542274
 33
0.0
  0
MTEXT
  5
BC
100
AcDbEntity
  8
0
  6
BYBLOCK
 62
     5
100
AcDbMText
 10
2152.247887
 20
-2540.542274
 30
0.0
 40
19.32
 41
0.0
 71
     5
 72
     1
  1
\A1;56
 11
0.0
 21
1.0
 31
0.0
  0
POINT
  5
BD
100
AcDbEntity
  8
DEFPOINTS
  6
BYBLOCK
 62
     0
100
AcDbPoint
 10
2051.182687
 20
-2512.542274
 30
0.0
  0
POINT
  5
BE
100
AcDbEntity
  8
DEFPOINTS
  6
BYBLOCK
 62
     0
100
AcDbPoint
 10
2084.182687
 20
-2568.542274
 30
0.0
  0
POINT
  5
BF
100
AcDbEntity
  8
DEFPOINTS
  6
BYBLOCK
 62
     0
100
AcDbPoint
 10
2167.907887
 20
-2568.542274
 30
0.0
  0
ENDBLK
  5
C1
100
AcDbEntity
  8
0
100
AcDbBlockEnd
  0
BLOCK
  5
F3
100
AcDbEntity
  8
0
100
AcDbBlockBegin
  2
*D11
 70
     1
 10
0.0
 20
0.0
 30
0.0
  3
*D11
  1

  0
LINE
  5
E7
100
AcDbEntity
  8
0
  6
BYBLOCK
100
AcDbLine
 10
2016.182687
 20
-2509.542274
 30
0.0
 11
2016.182687
 21
-2467.731824
 31
0.0
  0
LINE
  5
E8
100
AcDbEntity
  8
0
  6
BYBLOCK
100
AcDbLine
 10
2051.182687
 20
-2509.542274
 30
0.0
 11
2051.182687
 21
-2467.731824
 31
0.0
  0
LINE
  5
E9
100
AcDbEntity
  8
0
  6
BYBLOCK
100
AcDbLine
 10
2001.182687
 20
-2473.731824
 30
0.0
 11
1986.182687
 21
-2473.731824
 31
0.0
  0
LINE
  5
EA
100
AcDbEntity
  8
0
  6
BYBLOCK
100
AcDbLine
 10
2066.182687
 20
-2473.731824
 30
0.0
 11
2081.182687
 21
-2473.731824
 31
0.0
  0
MTEXT
  5
EB
100
AcDbEntity
  8
0
  6
BYBLOCK
 62
     5
100
AcDbMText
 10
2019.064249
 20
-2457.981824
 30
0.0
 40
19.32
 41
0.0
 71
     5
 72
     1
  1
\A1;35
  0
LINE
  5
EC
100
AcDbEntity
  8
0
  6
BYBLOCK
100
AcDbLine
 10
2016.182687
 20
-2473.731824
 30
0.0
 11
2051.182687
 21
-2473.731824
 31
0.0
  0
LINE
  5
ED
100
AcDbEntity
  8
0
  6
BYBLOCK
100
AcDbLine
 10
2016.182687
 20
-2473.731824
 30
0.0
 11
2051.182687
 21
-2473.731824
 31
0.0
  0
SOLID
  5
EE
100
AcDbEntity
  8
0
  6
BYBLOCK
100
AcDbTrace
 10
2001.182687
 20
-2471.231824
 30
0.0
 11
2001.182687
 21
-2476.231824
 31
0.0
 12
2016.182687
 22
-2473.731824
 32
0.0
 13
2016.182687
 23
-2473.731824
 33
0.0
  0
SOLID
  5
EF
100
AcDbEntity
  8
0
  6
BYBLOCK
100
AcDbTrace
 10
2066.182687
 20
-2471.231824
 30
0.0
 11
2066.182687
 21
-2476.231824
 31
0.0
 12
2051.182687
 22
-2473.731824
 32
0.0
 13
2051.182687
 23
-2473.731824
 33
0.0
  0
POINT
  5
F0
100
AcDbEntity
  8
DEFPOINTS
  6
BYBLOCK
 62
     0
100
AcDbPoint
 10
2016.182687
 20
-2512.542274
 30
0.0
  0
POINT
  5
F1
100
AcDbEntity
  8
DEFPOINTS
  6
BYBLOCK
 62
     0
100
AcDbPoint
 10
2051.182687
 20
-2512.542274
 30
0.0
  0
POINT
  5
F2
100
AcDbEntity
  8
DEFPOINTS
  6
BYBLOCK
 62
     0
100
AcDbPoint
 10
2051.182687
 20
-2473.731824
 30
0.0
  0
ENDBLK
  5
F4
100
AcDbEntity
  8
0
100
AcDbBlockEnd
  0
BLOCK
  5
B3
100
AcDbEntity
  8
0
100
AcDbBlockBegin
  2
*D12
 70
     1
 10
0.0
 20
0.0
 30
0.0
  3
*D12
  1

  0
LINE
  5
A7
100
AcDbEntity
  8
0
  6
BYBLOCK
100
AcDbLine
 10
2051.182687
 20
-2509.542274
 30
0.0
 11
2051.182687
 21
-2467.731824
 31
0.0
  0
LINE
  5
A8
100
AcDbEntity
  8
0
  6
BYBLOCK
100
AcDbLine
 10
2069.182687
 20
-2565.542274
 30
0.0
 11
2069.182687
 21
-2467.731824
 31
0.0
  0
LINE
  5
A9
100
AcDbEntity
  8
0
  6
BYBLOCK
100
AcDbLine
 10
2036.182687
 20
-2473.731824
 30
0.0
 11
2021.182687
 21
-2473.731824
 31
0.0
  0
LINE
  5
AA
100
AcDbEntity
  8
0
  6
BYBLOCK
100
AcDbLine
 10
2084.182687
 20
-2473.731824
 30
0.0
 11
2099.182687
 21
-2473.731824
 31
0.0
  0
MTEXT
  5
AB
100
AcDbEntity
  8
0
  6
BYBLOCK
 62
     5
100
AcDbMText
 10
2060.182687
 20
-2448.517193
 30
0.0
 40
19.32
 41
0.0
 71
     5
 72
     1
  1
\A1;18
  0
LINE
  5
AC
100
AcDbEntity
  8
0
  6
BYBLOCK
100
AcDbLine
 10
2051.182687
 20
-2473.731824
 30
0.0
 11
2069.182687
 21
-2473.731824
 31
0.0
  0
LINE
  5
AD
100
AcDbEntity
  8
0
  6
BYBLOCK
100
AcDbLine
 10
2051.182687
 20
-2473.731824
 30
0.0
 11
2069.182687
 21
-2473.731824
 31
0.0
  0
SOLID
  5
AE
100
AcDbEntity
  8
0
  6
BYBLOCK
100
AcDbTrace
 10
2036.182687
 20
-2471.231824
 30
0.0
 11
2036.182687
 21
-2476.231824
 31
0.0
 12
2051.182687
 22
-2473.731824
 32
0.0
 13
2051.182687
 23
-2473.731824
 33
0.0
  0
SOLID
  5
AF
100
AcDbEntity
  8
0
  6
BYBLOCK
100
AcDbTrace
 10
2084.182687
 20
-2471.231824
 30
0.0
 11
2084.182687
 21
-2476.231824
 31
0.0
 12
2069.182687
 22
-2473.731824
 32
0.0
 13
2069.182687
 23
-2473.731824
 33
0.0
  0
POINT
  5
B0
100
AcDbEntity
  8
DEFPOINTS
  6
BYBLOCK
 62
     0
100
AcDbPoint
 10
2051.182687
 20
-2512.542274
 30
0.0
  0
POINT
  5
B1
100
AcDbEntity
  8
DEFPOINTS
  6
BYBLOCK
 62
     0
100
AcDbPoint
 10
2069.182687
 20
-2568.542274
 30
0.0
  0
POINT
  5
B2
100
AcDbEntity
  8
DEFPOINTS
  6
BYBLOCK
 62
     0
100
AcDbPoint
 10
2069.182687
 20
-2473.731824
 30
0.0
  0
ENDBLK
  5
B4
100
AcDbEntity
  8
0
100
AcDbBlockEnd
  0
BLOCK
  5
A3
100
AcDbEntity
  8
0
100
AcDbBlockBegin
  2
*D13
 70
     1
 10
0.0
 20
0.0
 30
0.0
  3
*D13
  1

  0
LINE
  5
97
100
AcDbEntity
  8
0
  6
BYBLOCK
100
AcDbLine
 10
2069.182687
 20
-2565.542274
 30
0.0
 11
2069.182687
 21
-2467.731824
 31
0.0
  0
LINE
  5
98
100
AcDbEntity
  8
0
  6
BYBLOCK
100
AcDbLine
 10
2084.182687
 20
-2565.542274
 30
0.0
 11
2084.182687
 21
-2467.731824
 31
0.0
  0
LINE
  5
99
100
AcDbEntity
  8
0
  6
BYBLOCK
100
AcDbLine
 10
2054.182687
 20
-2473.731824
 30
0.0
 11
2039.182687
 21
-2473.731824
 31
0.0
  0
LINE
  5
9A
100
AcDbEntity
  8
0
  6
BYBLOCK
100
AcDbLine
 10
2099.182687
 20
-2473.731824
 30
0.0
 11
2114.182687
 21
-2473.731824
 31
0.0
  0
MTEXT
  5
9B
100
AcDbEntity
  8
0
  6
BYBLOCK
 62
     5
100
AcDbMText
 10
2100.600793
 20
-2457.981824
 30
0.0
 40
19.32
 41
0.0
 71
     5
 72
     1
  1
\A1;15
  0
LINE
  5
9C
100
AcDbEntity
  8
0
  6
BYBLOCK
100
AcDbLine
 10
2069.182687
 20
-2473.731824
 30
0.0
 11
2084.182687
 21
-2473.731824
 31
0.0
  0
LINE
  5
9D
100
AcDbEntity
  8
0
  6
BYBLOCK
100
AcDbLine
 10
2069.182687
 20
-2473.731824
 30
0.0
 11
2084.182687
 21
-2473.731824
 31
0.0
  0
SOLID
  5
9E
100
AcDbEntity
  8
0
  6
BYBLOCK
100
AcDbTrace
 10
2054.182687
 20
-2471.231824
 30
0.0
 11
2054.182687
 21
-2476.231824
 31
0.0
 12
2069.182687
 22
-2473.731824
 32
0.0
 13
2069.182687
 23
-2473.731824
 33
0.0
  0
SOLID
  5
9F
100
AcDbEntity
  8
0
  6
BYBLOCK
100
AcDbTrace
 10
2099.182687
 20
-2471.231824
 30
0.0
 11
2099.182687
 21
-2476.231824
 31
0.0
 12
2084.182687
 22
-2473.731824
 32
0.0
 13
2084.182687
 23
-2473.731824
 33
0.0
  0
POINT
  5
A0
100
AcDbEntity
  8
DEFPOINTS
  6
BYBLOCK
 62
     0
100
AcDbPoint
 10
2069.182687
 20
-2568.542274
 30
0.0
  0
POINT
  5
A1
100
AcDbEntity
  8
DEFPOINTS
  6
BYBLOCK
 62
     0
100
AcDbPoint
 10
2084.182687
 20
-2568.542274
 30
0.0
  0
POINT
  5
A2
100
AcDbEntity
  8
DEFPOINTS
  6
BYBLOCK
 62
     0
100
AcDbPoint
 10
2084.182687
 20
-2473.731824
 30
0.0
  0
ENDBLK
  5
A4
100
AcDbEntity
  8
0
100
AcDbBlockEnd
  0
ENDSEC
  0
SECTION
  2
ENTITIES
  0
DIMENSION
  5
1E
100
AcDbEntity
  8
KOTY-UPLNE
100
AcDbDimension
  2
*D7
 10
643.855297
 20
-265.884928
 30
0.0
 11
625.355297
 21
-250.224928
 31
0.0
 12
-943.32739
 22
2362.657346
 32
0.0
  3
UPLNE
100
AcDbAlignedDimension
 13
606.855297
 23
-203.884928
 33
0.0
 14
643.855297
 24
-203.884928
 34
0.0
100
AcDbRotatedDimension
1001
ACAD
1000
DSTYLE
1002
{
1070
    40
1040
3.0
1070
   147
1040
2.0
1002
}
  0
DIMENSION
  5
2E
100
AcDbEntity
  8
KOTY-UPLNE
100
AcDbDimension
  2
*D6
 10
606.855297
 20
-265.884928
 30
0.0
 11
586.208164
 21
-250.134928
 31
0.0
 12
-943.32739
 22
2362.657346
 32
0.0
 70
   128
  3
UPLNE
100
AcDbAlignedDimension
 13
603.855297
 23
-205.884928
 33
0.0
 14
606.855297
 24
-203.884928
 34
0.0
100
AcDbRotatedDimension
1001
ACAD
1000
DSTYLE
1002
{
1070
    40
1040
3.0
1070
   147
1040
2.0
1002
}
  0
DIMENSION
  5
3E
100
AcDbEntity
  8
KOTY-UPLNE
100
AcDbDimension
  2
*D5
 10
1097.855297
 20
-325.884928
 30
0.0
 11
625.355297
 21
-310.224928
 31
0.0
 12
-943.32739
 22
2362.657346
 32
0.0
  3
UPLNE
100
AcDbAlignedDimension
 13
152.855297
 23
-149.884928
 33
0.0
 14
1097.855297
 24
-149.884928
 34
0.0
100
AcDbRotatedDimension
1001
ACAD
1000
DSTYLE
1002
{
1070
    40
1040
3.0
1070
   147
1040
2.0
1002
}
  0
MTEXT
  5
4B
100
AcDbEntity
  8
KOTY-UPLNE
  6
BYBLOCK
 62
     5
100
AcDbMText
 10
669.486575
 20
-85.198963
 30
0.0
 40
16.5
 41
0.0
 71
     5
 72
     1
  1
všechna zaoblení R=5
  0
LWPOLYLINE
  5
4C
100
AcDbEntity
  8
TRAPEZ-VELKY
100
AcDbPolyline
 90
       63
 70
     0
 43
5.0
 10
1145.445297
 20
-191.604928
 10
1141.97064
 20
-202.414974
 42
-0.325794
 10
1137.210497
 20
-205.884928
 10
1129.500098
 20
-205.884928
 42
-0.325794
 10
1124.739955
 20
-202.414974
 10
1108.97064
 20
-153.354882
 42
0.325794
 10
1104.210497
 20
-149.884928
 10
1097.855297
 20
-149.884928
 10
1097.855297
 20
-149.884928
 10
1075.064492
 20
-149.884928
 42
0.211077
 10
1071.36778
 20
-151.51828
 10
1023.342814
 20
-204.251576
 42
-0.211077
 10
1019.646102
 20
-205.884928
 10
963.369175
 20
-205.884928
 42
-0.148069
 10
960.595674
 20
-205.04518
 10
960.11492
 20
-204.724677
 42
0.148069
 10
957.341419
 20
-203.884928
 10
923.369175
 20
-203.884928
 42
0.148069
 10
920.595674
 20
-204.724677
 10
918.855297
 20
-205.884928
 10
918.855297
 20
-205.884928
 10
861.064492
 20
-205.884928
 42
-0.211077
 10
857.36778
 20
-204.251576
 10
809.342814
 20
-151.51828
 42
0.211077
 10
805.646102
 20
-149.884928
 10
782.855297
 20
-149.884928
 10
760.064492
 20
-149.884928
 42
0.211077
 10
756.36778
 20
-151.51828
 10
708.342814
 20
-204.251576
 42
-0.211077
 10
704.646102
 20
-205.884928
 10
648.369175
 20
-205.884928
 42
-0.148069
 10
645.595674
 20
-205.04518
 10
645.11492
 20
-204.724677
 42
0.148069
 10
642.341419
 20
-203.884928
 10
608.369175
 20
-203.884928
 42
0.148069
 10
605.595674
 20
-204.724677
 10
603.855297
 20
-205.884928
 10
603.855297
 20
-205.884928
 10
546.064492
 20
-205.884928
 42
-0.211077
 10
542.36778
 20
-204.251576
 10
494.342814
 20
-151.51828
 42
0.211077
 10
490.646102
 20
-149.884928
 10
467.855297
 20
-149.884928
 10
445.064492
 20
-149.884928
 42
0.211077
 10
441.36778
 20
-151.51828
 10
393.342814
 20
-204.251576
 42
-0.211077
 10
389.646102
 20
-205.884928
 10
333.369175
 20
-205.884928
 42
-0.148069
 10
330.595674
 20
-205.04518
 10
330.11492
 20
-204.724677
 42
0.148069
 10
327.341419
 20
-203.884928
 10
293.369175
 20
-203.884928
 42
0.148069
 10
290.595674
 20
-204.724677
 10
290.11492
 20
-205.04518
 42
-0.148069
 10
287.341419
 20
-205.884928
 10
231.064492
 20
-205.884928
 42
-0.211077
 10
227.36778
 20
-204.251576
 10
179.342814
 20
-151.51828
 42
0.211077
 10
175.646102
 20
-149.884928
 10
152.855297
 20
-149.884928
 10
130.064492
 20
-149.884928
 42
0.211077
 10
126.36778
 20
-151.51828
 10
117.655297
 20
-161.084928
  0
MTEXT
  5
4E
100
AcDbEntity
  8
POPIS
100
AcDbMText
 10
661.730741
 20
-42.124031
 30
0.0
 40
40.0
 41
1.0
 71
     5
 72
     1
  1
TR 58/315
  7
STYLE1
  0
LWPOLYLINE
  5
51
100
AcDbEntity
  8
RAMEC
100
AcDbPolyline
 90
        4
 70
     1
 43
0.0
 10
0.0
 20
0.0
 10
0.0
 20
-375.001233
 10
1349.672502
 20
-375.001233
 10
1349.672502
 20
0.0
  0
DIMENSION
  5
53
100
AcDbEntity
  8
KOTY-UPLNE
100
AcDbDimension
  2
*D4
 10
467.855297
 20
-265.884928
 30
0.0
 11
310.355297
 21
-250.224928
 31
0.0
 12
-943.32739
 22
2362.657346
 32
0.0
  3
UPLNE
100
AcDbAlignedDimension
 13
152.855297
 23
-149.884928
 33
0.0
 14
467.855297
 24
-149.884928
 34
0.0
100
AcDbRotatedDimension
1001
ACAD
1000
DSTYLE
1002
{
1070
    40
1040
3.0
1070
   147
1040
2.0
1002
}
  0
DIMENSION
  5
60
100
AcDbEntity
  8
KOTY-UPLNE
100
AcDbDimension
  2
*D2
 10
442.855297
 20
-111.074478
 30
0.0
 11
417.355297
 21
-95.414478
 31
0.0
 12
-943.32739
 22
2362.657346
 32
0.0
  3
UPLNE
100
AcDbAlignedDimension
 13
391.855297
 23
-205.884928
 33
0.0
 14
442.855297
 24
-149.884928
 34
0.0
100
AcDbRotatedDimension
1001
ACAD
1000
DSTYLE
1002
{
1070
    40
1040
3.0
1070
   147
1040
2.0
1002
}
  0
DIMENSION
  5
6D
100
AcDbEntity
  8
KOTY-UPLNE
100
AcDbDimension
  2
*D1
 10
391.855297
 20
-111.074478
 30
0.0
 11
310.355297
 21
-95.414478
 31
0.0
 12
-943.32739
 22
2362.657346
 32
0.0
  3
UPLNE
100
AcDbAlignedDimension
 13
228.855297
 23
-205.884928
 33
0.0
 14
391.855297
 24
-205.884928
 34
0.0
100
AcDbRotatedDimension
1001
ACAD
1000
DSTYLE
1002
{
1070
    40
1040
3.0
1070
   147
1040
2.0
1002
}
  0
DIMENSION
  5
7A
100
AcDbEntity
  8
KOTY-UPLNE
100
AcDbDimension
  2
*D0
 10
228.855297
 20
-111.074478
 30
0.0
 11
203.355297
 21
-95.414478
 31
0.0
 12
-943.32739
 22
2362.657346
 32
0.0
  3
UPLNE
100
AcDbAlignedDimension
 13
177.855297
 23
-149.884928
 33
0.0
 14
228.855297
 24
-205.884928
 34
0.0
100
AcDbRotatedDimension
1001
ACAD
1000
DSTYLE
1002
{
1070
    40
1040
3.0
1070
   147
1040
2.0
1002
}
  0
LINE
  5
87
100
AcDbEntity
  8
TRAPEZ-VELKY
100
AcDbLine
 10
288.855297
 20
-317.869233
 30
0.0
 11
288.855297
 21
-317.869233
 31
0.0
  0
DIMENSION
  5
88
100
AcDbEntity
  8
KOTY-UPLNE
100
AcDbDimension
  2
*D3
 10
492.855297
 20
-111.074478
 30
0.0
 11
467.855297
 21
-95.414478
 31
0.0
 12
-943.32739
 22
2362.657346
 32
0.0
  3
UPLNE
100
AcDbAlignedDimension
 13
442.855297
 23
-149.884928
 33
0.0
 14
492.855297
 24
-149.884928
 34
0.0
100
AcDbRotatedDimension
1001
ACAD
1000
DSTYLE
1002
{
1070
    40
1040
3.0
1070
   147
1040
2.0
1002
}
  0
DIMENSION
  5
95
100
AcDbEntity
  8
KOTY-UPLNE
100
AcDbDimension
  2
*D13
 10
1140.855297
 20
-111.074478
 30
0.0
 11
1157.273403
 21
-95.324478
 31
0.0
 12
-943.32739
 22
2362.657346
 32
0.0
 70
   128
  3
UPLNE
100
AcDbAlignedDimension
 13
1125.855297
 23
-205.884928
 33
0.0
 14
1140.855297
 24
-205.884928
 34
0.0
100
AcDbRotatedDimension
1001
ACAD
1000
DSTYLE
1002
{
1070
    40
1040
3.0
1070
   147
1040
2.0
1002
}
  0
DIMENSION
  5
A5
100
AcDbEntity
  8
KOTY-UPLNE
100
AcDbDimension
  2
*D12
 10
1125.855297
 20
-111.074478
 30
0.0
 11
1116.855297
 21
-85.859847
 31
0.0
 12
-943.32739
 22
2362.657346
 32
0.0
 70
   128
  3
UPLNE
100
AcDbAlignedDimension
 13
1107.855297
 23
-149.884928
 33
0.0
 14
1125.855297
 24
-205.884928
 34
0.0
100
AcDbRotatedDimension
1001
ACAD
1000
DSTYLE
1002
{
1070
    40
1040
3.0
1070
   147
1040
2.0
1002
}
  0
DIMENSION
  5
B5
100
AcDbEntity
  8
KOTY-UPLNE
100
AcDbDimension
  2
*D10
 10
1224.580497
 20
-205.884928
 30
0.0
 11
1208.920497
 21
-177.884928
 31
0.0
 12
-943.32739
 22
2362.657346
 32
0.0
  3
UPLNE
100
AcDbAlignedDimension
 13
1107.855297
 23
-149.884928
 33
0.0
 14
1140.855297
 24
-205.884928
 34
0.0
 50
90.0
100
AcDbRotatedDimension
1001
ACAD
1000
DSTYLE
1002
{
1070
    40
1040
3.0
1070
   147
1040
2.0
1002
}
  0
DIMENSION
  5
C2
100
AcDbEntity
  8
KOTY-UPLNE
100
AcDbDimension
  2
*D9
 10
766.976046
 20
-205.884928
 30
0.0
 11
751.226046
 21
-220.142312
 31
0.0
 12
-943.32739
 22
2362.657346
 32
0.0
 70
   128
  3
UPLNE
100
AcDbAlignedDimension
 13
643.855297
 23
-203.884928
 33
0.0
 14
706.855297
 24
-205.884928
 34
0.0
 50
90.0
100
AcDbRotatedDimension
1001
ACAD
1000
DSTYLE
1002
{
1070
    40
1040
3.0
1070
   147
1040
2.0
1002
}
  0
DIMENSION
  5
D2
100
AcDbEntity
  8
KOTY-UPLNE
100
AcDbDimension
  2
*D8
 10
646.855297
 20
-265.884928
 30
0.0
 11
659.417544
 21
-250.134928
 31
0.0
 12
-943.32739
 22
2362.657346
 32
0.0
 70
   128
  3
UPLNE
100
AcDbAlignedDimension
 13
643.855297
 23
-203.884928
 33
0.0
 14
646.855297
 24
-205.884928
 34
0.0
100
AcDbRotatedDimension
1001
ACAD
1000
DSTYLE
1002
{
1070
    40
1040
3.0
1070
   147
1040
2.0
1002
}
  0
MTEXT
  5
E2
100
AcDbEntity
  8
POZICE
100
AcDbMText
 10
932.39197
 20
-248.73104
 30
0.0
 40
41.73
 41
1.0
 71
     5
 72
     1
  1
B
  7
STYLE1
  0
MTEXT
  5
E4
100
AcDbEntity
  8
POZICE
100
AcDbMText
 10
932.39197
 20
-153.631044
 30
0.0
 40
41.73
 41
1.0
 71
     5
 72
     1
  1
A
  7
STYLE1
  0
DIMENSION
  5
E5
100
AcDbEntity
  8
KOTY-UPLNE
100
AcDbDimension
  2
*D11
 10
1107.855297
 20
-111.074478
 30
0.0
 11
1075.736859
 21
-95.324478
 31
0.0
 12
-943.32739
 22
2362.657346
 32
0.0
 70
   128
  3
UPLNE
100
AcDbAlignedDimension
 13
1072.855297
 23
-149.884928
 33
0.0
 14
1107.855297
 24
-149.884928
 34
0.0
100
AcDbRotatedDimension
1001
ACAD
1000
DSTYLE
1002
{
1070
    40
1040
3.0
1070
   147
1040
2.0
1002
}
  0
ENDSEC
  0
SECTION
  2
OBJECTS
  0
DICTIONARY
  5
1A
100
AcDbDictionary
  3
ACAD_GROUP
350
18
  3
ACAD_MLINESTYLE
350
19
  0
DICTIONARY
  5
18
102
{ACAD_REACTORS
330
1A
102
}
100
AcDbDictionary
  0
DICTIONARY
  5
19
102
{ACAD_REACTORS
330
1A
102
}
100
AcDbDictionary
  3
STANDARD
350
1C
  0
MLINESTYLE
  5
1C
102
{ACAD_REACTORS
330
19
102
}
100
AcDbMlineStyle
  2
STANDARD
 70
     0
  3

 62
   256
 51
90.0
 52
90.0
 71
     2
 49
0.5
 62
   256
  6
BYLAYER
 49
-0.5
 62
   256
  6
BYLAYER
  0
ENDSEC
  0
EOF
