  0
SECTION
  2
HEADER
  9
$ACADVER
  1
AC1014
  9
$ACADMAINTVER
 70
     0
  9
$DWGCODEPAGE
  3
ANSI_1250
  9
$INSBASE
 10
0.0
 20
0.0
 30
0.0
  9
$EXTMIN
 10
0.0
 20
-374.101233
 30
0.0
  9
$EXTMAX
 10
1349.672502
 20
0.0
 30
0.0
  9
$LIMMIN
 10
-1000.0
 20
-1000.0
  9
$LIMMAX
 10
1000.0
 20
1000.0
  9
$ORTHOMODE
 70
     0
  9
$REGENMODE
 70
     1
  9
$FILLMODE
 70
     1
  9
$QTEXTMODE
 70
     0
  9
$MIRRTEXT
 70
     0
  9
$DRAGMODE
 70
     2
  9
$LTSCALE
 40
3.0
  9
$OSMODE
 70
    32
  9
$ATTMODE
 70
     1
  9
$TEXTSIZE
 40
50.0
  9
$TRACEWID
 40
0.05
  9
$TEXTSTYLE
  7
STANDARD
  9
$CLAYER
  8
KOTY-UPLNE
  9
$CELTYPE
  6
BYLAYER
  9
$CECOLOR
 62
   256
  9
$CELTSCALE
 40
1.0
  9
$DELOBJ
 70
     1
  9
$DISPSILH
 70
     0
  9
$DIMSCALE
 40
3.0
  9
$DIMASZ
 40
5.0
  9
$DIMEXO
 40
1.0
  9
$DIMDLI
 40
0.0
  9
$DIMRND
 40
1.0
  9
$DIMDLE
 40
1.0
  9
$DIMEXE
 40
2.0
  9
$DIMTP
 40
0.0
  9
$DIMTM
 40
0.0
  9
$DIMTXT
 40
6.44
  9
$DIMCEN
 40
1.0
  9
$DIMTSZ
 40
0.0
  9
$DIMTOL
 70
     0
  9
$DIMLIM
 70
     0
  9
$DIMTIH
 70
     0
  9
$DIMTOH
 70
     0
  9
$DIMSE1
 70
     0
  9
$DIMSE2
 70
     0
  9
$DIMTAD
 70
     3
  9
$DIMZIN
 70
     0
  9
$DIMBLK
  1

  9
$DIMASO
 70
     1
  9
$DIMSHO
 70
     0
  9
$DIMPOST
  1

  9
$DIMAPOST
  1

  9
$DIMALT
 70
     0
  9
$DIMALTD
 70
     2
  9
$DIMALTF
 40
25.4
  9
$DIMLFAC
 40
1.0
  9
$DIMTOFL
 70
     1
  9
$DIMTVP
 40
0.0
  9
$DIMTIX
 70
     1
  9
$DIMSOXD
 70
     0
  9
$DIMSAH
 70
     0
  9
$DIMBLK1
  1

  9
$DIMBLK2
  1

  9
$DIMSTYLE
  2
UPLNE
  9
$DIMCLRD
 70
   256
  9
$DIMCLRE
 70
   256
  9
$DIMCLRT
 70
     5
  9
$DIMTFAC
 40
1.0
  9
$DIMGAP
 40
2.0
  9
$DIMJUST
 70
     0
  9
$DIMSD1
 70
     0
  9
$DIMSD2
 70
     0
  9
$DIMTOLJ
 70
     1
  9
$DIMTZIN
 70
     0
  9
$DIMALTZ
 70
     0
  9
$DIMALTTZ
 70
     0
  9
$DIMFIT
 70
     5
  9
$DIMUPT
 70
     0
  9
$DIMUNIT
 70
     2
  9
$DIMDEC
 70
     0
  9
$DIMTDEC
 70
     0
  9
$DIMALTU
 70
     2
  9
$DIMALTTD
 70
     2
  9
$DIMTXSTY
  7
STANDARD
  9
$DIMAUNIT
 70
     0
  9
$LUNITS
 70
     2
  9
$LUPREC
 70
     2
  9
$SKETCHINC
 40
0.1
  9
$FILLETRAD
 40
5.0
  9
$AUNITS
 70
     0
  9
$AUPREC
 70
     2
  9
$MENU
  1
acad
  9
$ELEVATION
 40
0.0
  9
$PELEVATION
 40
0.0
  9
$THICKNESS
 40
0.0
  9
$LIMCHECK
 70
     0
  9
$BLIPMODE
 70
     1
  9
$CHAMFERA
 40
0.0
  9
$CHAMFERB
 40
0.0
  9
$CHAMFERC
 40
0.0
  9
$CHAMFERD
 40
0.0
  9
$SKPOLY
 70
     0
  9
$TDCREATE
 40
2448722.252204629
  9
$TDUPDATE
 40
2452465.889392477
  9
$TDINDWG
 40
2.5236038194
  9
$TDUSRTIMER
 40
2.5236038194
  9
$USRTIMER
 70
     1
  9
$ANGBASE
 50
0.0
  9
$ANGDIR
 70
     0
  9
$PDMODE
 70
     0
  9
$PDSIZE
 40
0.0
  9
$PLINEWID
 40
0.0
  9
$COORDS
 70
     2
  9
$SPLFRAME
 70
     0
  9
$SPLINETYPE
 70
     6
  9
$SPLINESEGS
 70
     8
  9
$ATTDIA
 70
     0
  9
$ATTREQ
 70
     1
  9
$HANDLING
 70
     1
  9
$HANDSEED
  5
11D
  9
$SURFTAB1
 70
     6
  9
$SURFTAB2
 70
     6
  9
$SURFTYPE
 70
     6
  9
$SURFU
 70
     6
  9
$SURFV
 70
     6
  9
$UCSNAME
  2

  9
$UCSORG
 10
0.0
 20
0.0
 30
0.0
  9
$UCSXDIR
 10
1.0
 20
0.0
 30
0.0
  9
$UCSYDIR
 10
0.0
 20
1.0
 30
0.0
  9
$PUCSNAME
  2

  9
$PUCSORG
 10
0.0
 20
0.0
 30
0.0
  9
$PUCSXDIR
 10
1.0
 20
0.0
 30
0.0
  9
$PUCSYDIR
 10
0.0
 20
1.0
 30
0.0
  9
$USERI1
 70
     1
  9
$USERI2
 70
     0
  9
$USERI3
 70
     0
  9
$USERI4
 70
     0
  9
$USERI5
 70
     0
  9
$USERR1
 40
0.0
  9
$USERR2
 40
0.0
  9
$USERR3
 40
0.0
  9
$USERR4
 40
0.0
  9
$USERR5
 40
0.0
  9
$WORLDVIEW
 70
     1
  9
$SHADEDGE
 70
     3
  9
$SHADEDIF
 70
    70
  9
$TILEMODE
 70
     1
  9
$MAXACTVP
 70
    16
  9
$PINSBASE
 10
0.0
 20
0.0
 30
0.0
  9
$PLIMCHECK
 70
     0
  9
$PEXTMIN
 10
1.000000E+20
 20
1.000000E+20
 30
1.000000E+20
  9
$PEXTMAX
 10
-1.000000E+20
 20
-1.000000E+20
 30
-1.000000E+20
  9
$PLIMMIN
 10
0.0
 20
0.0
  9
$PLIMMAX
 10
12.0
 20
9.0
  9
$UNITMODE
 70
     0
  9
$VISRETAIN
 70
     0
  9
$PLINEGEN
 70
     0
  9
$PSLTSCALE
 70
     0
  9
$TREEDEPTH
 70
  3020
  9
$PICKSTYLE
 70
     0
  9
$CMLSTYLE
  2
STANDARD
  9
$CMLJUST
 70
     0
  9
$CMLSCALE
 40
1.0
  9
$PROXYGRAPHICS
 70
     1
  9
$MEASUREMENT
 70
     0
  0
ENDSEC
  0
SECTION
  2
CLASSES
  0
CLASS
  1
LWPOLYLINE
  2
AcDbPolyline
  3
"AutoCAD"
 90
        0
280
     0
281
     1
  0
CLASS
  1
DICTIONARYVAR
  2
AcDbDictionaryVar
  3
"AutoCAD"
 90
        0
280
     0
281
     0
  0
ENDSEC
  0
SECTION
  2
TABLES
  0
TABLE
  2
VPORT
  5
12
100
AcDbSymbolTable
 70
     2
  0
VPORT
  5
11C
100
AcDbSymbolTableRecord
100
AcDbViewportTableRecord
  2
*ACTIVE
 70
     0
 10
0.0
 20
0.0
 11
1.0
 21
1.0
 12
707.317229
 22
-183.027073
 13
0.0
 23
0.0
 14
1.0
 24
1.0
 15
600.0
 25
600.0
 16
0.0
 26
0.0
 36
1.0
 17
0.0
 27
0.0
 37
0.0
 40
668.097694
 41
2.224444
 42
50.0
 43
0.0
 44
0.0
 50
0.0
 51
0.0
 71
     0
 72
   100
 73
     1
 74
     0
 75
     0
 76
     0
 77
     0
 78
     0
  0
ENDTAB
  0
TABLE
  2
LTYPE
  5
D
100
AcDbSymbolTable
 70
     1
  0
LTYPE
  5
E
100
AcDbSymbolTableRecord
100
AcDbLinetypeTableRecord
  2
BYBLOCK
 70
     0
  3

 72
    65
 73
     0
 40
0.0
  0
LTYPE
  5
F
100
AcDbSymbolTableRecord
100
AcDbLinetypeTableRecord
  2
BYLAYER
 70
     0
  3

 72
    65
 73
     0
 40
0.0
  0
LTYPE
  5
5
100
AcDbSymbolTableRecord
100
AcDbLinetypeTableRecord
  2
CONTINUOUS
 70
     0
  3
Solid line
 72
    65
 73
     0
 40
0.0
  0
ENDTAB
  0
TABLE
  2
LAYER
  5
A
100
AcDbSymbolTable
 70
     7
  0
LAYER
  5
4
100
AcDbSymbolTableRecord
100
AcDbLayerTableRecord
  2
0
 70
     0
 62
     7
  6
CONTINUOUS
  0
LAYER
  5
1B
100
AcDbSymbolTableRecord
100
AcDbLayerTableRecord
  2
KOTY-UPLNE
 70
     0
 62
     7
  6
CONTINUOUS
  0
LAYER
  5
97
100
AcDbSymbolTableRecord
100
AcDbLayerTableRecord
  2
RAMEC
 70
     0
 62
     5
  6
CONTINUOUS
  0
LAYER
  5
E4
100
AcDbSymbolTableRecord
100
AcDbLayerTableRecord
  2
POZICE
 70
     0
 62
     1
  6
CONTINUOUS
  0
LAYER
  5
118
100
AcDbSymbolTableRecord
100
AcDbLayerTableRecord
  2
POPIS
 70
     0
 62
     1
  6
CONTINUOUS
  0
LAYER
  5
2A
100
AcDbSymbolTableRecord
100
AcDbLayerTableRecord
  2
DEFPOINTS
 70
     0
 62
     7
  6
CONTINUOUS
  0
LAYER
  5
B5
100
AcDbSymbolTableRecord
100
AcDbLayerTableRecord
  2
TRAPEZ-VELKY
 70
     0
 62
     7
  6
CONTINUOUS
  0
ENDTAB
  0
TABLE
  2
STYLE
  5
B
100
AcDbSymbolTable
 70
     2
  0
STYLE
  5
C
100
AcDbSymbolTableRecord
100
AcDbTextStyleTableRecord
  2
STANDARD
 70
     0
 40
0.0
 41
0.9
 50
0.0
 71
     0
 42
50.0
  3
simplex.shx
  4

  0
STYLE
  5
E5
100
AcDbSymbolTableRecord
100
AcDbTextStyleTableRecord
  2
STYLE1
 70
     0
 40
0.0
 41
0.9
 50
0.0
 71
     0
 42
50.0
  3
simplex.shx
  4

  0
ENDTAB
  0
TABLE
  2
VIEW
  5
10
100
AcDbSymbolTable
 70
     0
  0
ENDTAB
  0
TABLE
  2
UCS
  5
11
100
AcDbSymbolTable
 70
     0
  0
ENDTAB
  0
TABLE
  2
APPID
  5
14
100
AcDbSymbolTable
 70
     1
  0
APPID
  5
15
100
AcDbSymbolTableRecord
100
AcDbRegAppTableRecord
  2
ACAD
 70
     0
  0
ENDTAB
  0
TABLE
  2
DIMSTYLE
  5
16
100
AcDbSymbolTable
 70
     1
  0
DIMSTYLE
105
1D
102
{ACAD_REACTORS
330
B6
330
A7
330
F7
330
87
330
7A
330
6B
330
C3
330
D3
330
98
330
5C
330
4D
330
3E
330
2F
330
1E
330
E7
330
106
102
}
100
AcDbSymbolTableRecord
100
AcDbDimStyleTableRecord
  2
UPLNE
 70
     0
  3

  4

  5

  6

  7

 40
5.0
 41
5.0
 42
1.0
 43
0.0
 44
2.0
 45
1.0
 46
1.0
 47
0.0
 48
0.0
140
6.44
141
1.0
142
0.0
143
25.4
144
1.0
145
0.0
146
1.0
147
1.0
 71
     0
 72
     0
 73
     0
 74
     0
 75
     0
 76
     0
 77
     3
 78
     0
170
     0
171
     2
172
     1
173
     0
174
     1
175
     0
176
   256
177
   256
178
     5
270
     2
271
     0
272
     0
273
     2
274
     2
340
C
275
     0
280
     0
281
     0
282
     0
283
     1
284
     0
285
     0
286
     0
287
     5
288
     0
  0
ENDTAB
  0
TABLE
  2
BLOCK_RECORD
  5
1
100
AcDbSymbolTable
 70
    16
  0
BLOCK_RECORD
  5
2
100
AcDbSymbolTableRecord
100
AcDbBlockTableRecord
  2
*MODEL_SPACE
  0
BLOCK_RECORD
  5
7
100
AcDbSymbolTableRecord
100
AcDbBlockTableRecord
  2
*PAPER_SPACE
  0
BLOCK_RECORD
  5
B7
100
AcDbSymbolTableRecord
100
AcDbBlockTableRecord
  2
*D0
  0
BLOCK_RECORD
  5
A8
100
AcDbSymbolTableRecord
100
AcDbBlockTableRecord
  2
*D1
  0
BLOCK_RECORD
  5
F8
100
AcDbSymbolTableRecord
100
AcDbBlockTableRecord
  2
*D2
  0
BLOCK_RECORD
  5
88
100
AcDbSymbolTableRecord
100
AcDbBlockTableRecord
  2
*D3
  0
BLOCK_RECORD
  5
7B
100
AcDbSymbolTableRecord
100
AcDbBlockTableRecord
  2
*D4
  0
BLOCK_RECORD
  5
6C
100
AcDbSymbolTableRecord
100
AcDbBlockTableRecord
  2
*D5
  0
BLOCK_RECORD
  5
C4
100
AcDbSymbolTableRecord
100
AcDbBlockTableRecord
  2
*D6
  0
BLOCK_RECORD
  5
D4
100
AcDbSymbolTableRecord
100
AcDbBlockTableRecord
  2
*D7
  0
BLOCK_RECORD
  5
99
100
AcDbSymbolTableRecord
100
AcDbBlockTableRecord
  2
*D8
  0
BLOCK_RECORD
  5
5D
100
AcDbSymbolTableRecord
100
AcDbBlockTableRecord
  2
*D9
  0
BLOCK_RECORD
  5
4E
100
AcDbSymbolTableRecord
100
AcDbBlockTableRecord
  2
*D10
  0
BLOCK_RECORD
  5
3F
100
AcDbSymbolTableRecord
100
AcDbBlockTableRecord
  2
*D11
  0
BLOCK_RECORD
  5
30
100
AcDbSymbolTableRecord
100
AcDbBlockTableRecord
  2
*D12
  0
BLOCK_RECORD
  5
1F
100
AcDbSymbolTableRecord
100
AcDbBlockTableRecord
  2
*D13
  0
BLOCK_RECORD
  5
E8
100
AcDbSymbolTableRecord
100
AcDbBlockTableRecord
  2
*D14
  0
BLOCK_RECORD
  5
107
100
AcDbSymbolTableRecord
100
AcDbBlockTableRecord
  2
*D15
  0
ENDTAB
  0
ENDSEC
  0
SECTION
  2
BLOCKS
  0
BLOCK
  5
3
100
AcDbEntity
  8
0
100
AcDbBlockBegin
  2
*MODEL_SPACE
 70
     0
 10
0.0
 20
0.0
 30
0.0
  3
*MODEL_SPACE
  1

  0
ENDBLK
  5
6
100
AcDbEntity
  8
0
100
AcDbBlockEnd
  0
BLOCK
  5
8
100
AcDbEntity
 67
     1
  8
0
100
AcDbBlockBegin
  2
*PAPER_SPACE
 70
     0
 10
0.0
 20
0.0
 30
0.0
  3
*PAPER_SPACE
  1

  0
ENDBLK
  5
9
100
AcDbEntity
 67
     1
  8
0
100
AcDbBlockEnd
  0
BLOCK
  5
C1
100
AcDbEntity
  8
0
100
AcDbBlockBegin
  2
*D0
 70
     1
 10
0.0
 20
0.0
 30
0.0
  3
*D0
  1

  0
LINE
  5
B8
100
AcDbEntity
  8
0
  6
BYBLOCK
100
AcDbLine
 10
1096.182687
 20
-1370.642274
 30
0.0
 11
1096.182687
 21
-1433.642274
 31
0.0
  0
LINE
  5
B9
100
AcDbEntity
  8
0
  6
BYBLOCK
100
AcDbLine
 10
1346.182278
 20
-1370.642274
 30
0.0
 11
1346.182278
 21
-1433.642274
 31
0.0
  0
LINE
  5
BA
100
AcDbEntity
  8
0
  6
BYBLOCK
100
AcDbLine
 10
1111.182687
 20
-1427.642274
 30
0.0
 11
1331.182278
 21
-1427.642274
 31
0.0
  0
SOLID
  5
BB
100
AcDbEntity
  8
0
  6
BYBLOCK
100
AcDbTrace
 10
1111.182687
 20
-1425.142274
 30
0.0
 11
1111.182687
 21
-1430.142274
 31
0.0
 12
1096.182687
 22
-1427.642274
 32
0.0
 13
1096.182687
 23
-1427.642274
 33
0.0
  0
SOLID
  5
BC
100
AcDbEntity
  8
0
  6
BYBLOCK
100
AcDbTrace
 10
1331.182278
 20
-1425.142274
 30
0.0
 11
1331.182278
 21
-1430.142274
 31
0.0
 12
1346.182278
 22
-1427.642274
 32
0.0
 13
1346.182278
 23
-1427.642274
 33
0.0
  0
MTEXT
  5
BD
100
AcDbEntity
  8
0
  6
BYBLOCK
 62
     5
100
AcDbMText
 10
1221.182483
 20
-1411.982274
 30
0.0
 40
19.32
 41
0.0
 71
     5
 72
     1
  1
\A1;250
  0
POINT
  5
BE
100
AcDbEntity
  8
DEFPOINTS
  6
BYBLOCK
 62
     0
100
AcDbPoint
 10
1096.182687
 20
-1367.642274
 30
0.0
  0
POINT
  5
BF
100
AcDbEntity
  8
DEFPOINTS
  6
BYBLOCK
 62
     0
100
AcDbPoint
 10
1346.182278
 20
-1367.642274
 30
0.0
  0
POINT
  5
C0
100
AcDbEntity
  8
DEFPOINTS
  6
BYBLOCK
 62
     0
100
AcDbPoint
 10
1346.182278
 20
-1427.642274
 30
0.0
  0
ENDBLK
  5
C2
100
AcDbEntity
  8
0
100
AcDbBlockEnd
  0
BLOCK
  5
B2
100
AcDbEntity
  8
0
100
AcDbBlockBegin
  2
*D1
 70
     1
 10
0.0
 20
0.0
 30
0.0
  3
*D1
  1

  0
LINE
  5
A9
100
AcDbEntity
  8
0
  6
BYBLOCK
100
AcDbLine
 10
1096.182687
 20
-1370.642274
 30
0.0
 11
1096.182687
 21
-1493.642274
 31
0.0
  0
LINE
  5
AA
100
AcDbEntity
  8
0
  6
BYBLOCK
100
AcDbLine
 10
2096.181051
 20
-1370.642274
 30
0.0
 11
2096.181051
 21
-1493.642274
 31
0.0
  0
LINE
  5
AB
100
AcDbEntity
  8
0
  6
BYBLOCK
100
AcDbLine
 10
1111.182687
 20
-1487.642274
 30
0.0
 11
2081.181051
 21
-1487.642274
 31
0.0
  0
SOLID
  5
AC
100
AcDbEntity
  8
0
  6
BYBLOCK
100
AcDbTrace
 10
1111.182687
 20
-1485.142274
 30
0.0
 11
1111.182687
 21
-1490.142274
 31
0.0
 12
1096.182687
 22
-1487.642274
 32
0.0
 13
1096.182687
 23
-1487.642274
 33
0.0
  0
SOLID
  5
AD
100
AcDbEntity
  8
0
  6
BYBLOCK
100
AcDbTrace
 10
2081.181051
 20
-1485.142274
 30
0.0
 11
2081.181051
 21
-1490.142274
 31
0.0
 12
2096.181051
 22
-1487.642274
 32
0.0
 13
2096.181051
 23
-1487.642274
 33
0.0
  0
MTEXT
  5
AE
100
AcDbEntity
  8
0
  6
BYBLOCK
 62
     5
100
AcDbMText
 10
1596.181869
 20
-1471.982274
 30
0.0
 40
19.32
 41
0.0
 71
     5
 72
     1
  1
\A1;1000
  0
POINT
  5
AF
100
AcDbEntity
  8
DEFPOINTS
  6
BYBLOCK
 62
     0
100
AcDbPoint
 10
1096.182687
 20
-1367.642274
 30
0.0
  0
POINT
  5
B0
100
AcDbEntity
  8
DEFPOINTS
  6
BYBLOCK
 62
     0
100
AcDbPoint
 10
2096.181051
 20
-1367.642274
 30
0.0
  0
POINT
  5
B1
100
AcDbEntity
  8
DEFPOINTS
  6
BYBLOCK
 62
     0
100
AcDbPoint
 10
2096.181051
 20
-1487.642274
 30
0.0
  0
ENDBLK
  5
B3
100
AcDbEntity
  8
0
100
AcDbBlockEnd
  0
BLOCK
  5
104
100
AcDbEntity
  8
0
100
AcDbBlockBegin
  2
*D2
 70
     1
 10
0.0
 20
0.0
 30
0.0
  3
*D2
  1

  0
LINE
  5
F9
100
AcDbEntity
  8
0
  6
BYBLOCK
100
AcDbLine
 10
2033.021255
 20
-1312.542274
 30
0.0
 11
2229.665968
 21
-1312.542274
 31
0.0
  0
LINE
  5
FA
100
AcDbEntity
  8
0
  6
BYBLOCK
100
AcDbLine
 10
2118.841051
 20
-1367.642274
 30
0.0
 11
2229.665968
 21
-1367.642274
 31
0.0
  0
LINE
  5
FB
100
AcDbEntity
  8
0
  6
BYBLOCK
100
AcDbLine
 10
2223.665968
 20
-1297.542274
 30
0.0
 11
2223.665968
 21
-1282.542274
 31
0.0
  0
LINE
  5
FC
100
AcDbEntity
  8
0
  6
BYBLOCK
100
AcDbLine
 10
2223.665968
 20
-1382.642274
 30
0.0
 11
2223.665968
 21
-1397.642274
 31
0.0
  0
LINE
  5
FD
100
AcDbEntity
  8
0
  6
BYBLOCK
100
AcDbLine
 10
2223.665968
 20
-1312.542274
 30
0.0
 11
2223.665968
 21
-1367.642274
 31
0.0
  0
SOLID
  5
FE
100
AcDbEntity
  8
0
  6
BYBLOCK
100
AcDbTrace
 10
2221.165968
 20
-1297.542274
 30
0.0
 11
2226.165968
 21
-1297.542274
 31
0.0
 12
2223.665968
 22
-1312.542274
 32
0.0
 13
2223.665968
 23
-1312.542274
 33
0.0
  0
SOLID
  5
FF
100
AcDbEntity
  8
0
  6
BYBLOCK
100
AcDbTrace
 10
2221.165968
 20
-1382.642274
 30
0.0
 11
2226.165968
 21
-1382.642274
 31
0.0
 12
2223.665968
 22
-1367.642274
 32
0.0
 13
2223.665968
 23
-1367.642274
 33
0.0
  0
MTEXT
  5
100
100
AcDbEntity
  8
0
  6
BYBLOCK
 62
     5
100
AcDbMText
 10
2206.165968
 20
-1340.092274
 30
0.0
 40
19.32
 41
0.0
 71
     5
 72
     1
  1
\A1;55,1
 11
0.0
 21
1.0
 31
0.0
  0
POINT
  5
101
100
AcDbEntity
  8
DEFPOINTS
  6
BYBLOCK
 62
     0
100
AcDbPoint
 10
2030.021255
 20
-1312.542274
 30
0.0
  0
POINT
  5
102
100
AcDbEntity
  8
DEFPOINTS
  6
BYBLOCK
 62
     0
100
AcDbPoint
 10
2115.841051
 20
-1367.642274
 30
0.0
  0
POINT
  5
103
100
AcDbEntity
  8
DEFPOINTS
  6
BYBLOCK
 62
     0
100
AcDbPoint
 10
2223.665968
 20
-1367.642274
 30
0.0
  0
ENDBLK
  5
105
100
AcDbEntity
  8
0
100
AcDbBlockEnd
  0
BLOCK
  5
94
100
AcDbEntity
  8
0
100
AcDbBlockBegin
  2
*D3
 70
     1
 10
0.0
 20
0.0
 30
0.0
  3
*D3
  1

  0
LINE
  5
89
100
AcDbEntity
  8
0
  6
BYBLOCK
100
AcDbLine
 10
1115.842687
 20
-1364.642274
 30
0.0
 11
1115.842687
 21
-1267.730592
 31
0.0
  0
LINE
  5
8A
100
AcDbEntity
  8
0
  6
BYBLOCK
100
AcDbLine
 10
1162.342483
 20
-1309.542274
 30
0.0
 11
1162.342483
 21
-1267.730592
 31
0.0
  0
LINE
  5
8B
100
AcDbEntity
  8
0
  6
BYBLOCK
100
AcDbLine
 10
1100.842687
 20
-1273.730592
 30
0.0
 11
1085.842687
 21
-1273.730592
 31
0.0
  0
LINE
  5
8C
100
AcDbEntity
  8
0
  6
BYBLOCK
100
AcDbLine
 10
1177.342483
 20
-1273.730592
 30
0.0
 11
1192.342483
 21
-1273.730592
 31
0.0
  0
LINE
  5
8D
100
AcDbEntity
  8
0
  6
BYBLOCK
100
AcDbLine
 10
1115.842687
 20
-1273.730592
 30
0.0
 11
1162.342483
 21
-1273.730592
 31
0.0
  0
SOLID
  5
8E
100
AcDbEntity
  8
0
  6
BYBLOCK
100
AcDbTrace
 10
1100.842687
 20
-1271.230592
 30
0.0
 11
1100.842687
 21
-1276.230592
 31
0.0
 12
1115.842687
 22
-1273.730592
 32
0.0
 13
1115.842687
 23
-1273.730592
 33
0.0
  0
SOLID
  5
8F
100
AcDbEntity
  8
0
  6
BYBLOCK
100
AcDbTrace
 10
1177.342483
 20
-1271.230592
 30
0.0
 11
1177.342483
 21
-1276.230592
 31
0.0
 12
1162.342483
 22
-1273.730592
 32
0.0
 13
1162.342483
 23
-1273.730592
 33
0.0
  0
MTEXT
  5
90
100
AcDbEntity
  8
0
  6
BYBLOCK
 62
     5
100
AcDbMText
 10
1139.092585
 20
-1256.230592
 30
0.0
 40
19.32
 41
0.0
 71
     5
 72
     1
  1
\A1;46,5
  0
POINT
  5
91
100
AcDbEntity
  8
DEFPOINTS
  6
BYBLOCK
 62
     0
100
AcDbPoint
 10
1115.842687
 20
-1367.642274
 30
0.0
  0
POINT
  5
92
100
AcDbEntity
  8
DEFPOINTS
  6
BYBLOCK
 62
     0
100
AcDbPoint
 10
1162.342483
 20
-1312.542274
 30
0.0
  0
POINT
  5
93
100
AcDbEntity
  8
DEFPOINTS
  6
BYBLOCK
 62
     0
100
AcDbPoint
 10
1162.342483
 20
-1273.730592
 30
0.0
  0
ENDBLK
  5
95
100
AcDbEntity
  8
0
100
AcDbBlockEnd
  0
BLOCK
  5
85
100
AcDbEntity
  8
0
100
AcDbBlockBegin
  2
*D4
 70
     1
 10
0.0
 20
0.0
 30
0.0
  3
*D4
  1

  0
LINE
  5
7C
100
AcDbEntity
  8
0
  6
BYBLOCK
100
AcDbLine
 10
1162.342483
 20
-1309.542274
 30
0.0
 11
1162.342483
 21
-1267.730592
 31
0.0
  0
LINE
  5
7D
100
AcDbEntity
  8
0
  6
BYBLOCK
100
AcDbLine
 10
1280.022483
 20
-1309.542274
 30
0.0
 11
1280.022483
 21
-1267.730592
 31
0.0
  0
LINE
  5
7E
100
AcDbEntity
  8
0
  6
BYBLOCK
100
AcDbLine
 10
1177.342483
 20
-1273.730592
 30
0.0
 11
1265.022483
 21
-1273.730592
 31
0.0
  0
SOLID
  5
7F
100
AcDbEntity
  8
0
  6
BYBLOCK
100
AcDbTrace
 10
1177.342483
 20
-1271.230592
 30
0.0
 11
1177.342483
 21
-1276.230592
 31
0.0
 12
1162.342483
 22
-1273.730592
 32
0.0
 13
1162.342483
 23
-1273.730592
 33
0.0
  0
SOLID
  5
80
100
AcDbEntity
  8
0
  6
BYBLOCK
100
AcDbTrace
 10
1265.022483
 20
-1271.230592
 30
0.0
 11
1265.022483
 21
-1276.230592
 31
0.0
 12
1280.022483
 22
-1273.730592
 32
0.0
 13
1280.022483
 23
-1273.730592
 33
0.0
  0
MTEXT
  5
81
100
AcDbEntity
  8
0
  6
BYBLOCK
 62
     5
100
AcDbMText
 10
1221.182483
 20
-1256.230592
 30
0.0
 40
19.32
 41
0.0
 71
     5
 72
     1
  1
\A1;117,7
  0
POINT
  5
82
100
AcDbEntity
  8
DEFPOINTS
  6
BYBLOCK
 62
     0
100
AcDbPoint
 10
1162.342483
 20
-1312.542274
 30
0.0
  0
POINT
  5
83
100
AcDbEntity
  8
DEFPOINTS
  6
BYBLOCK
 62
     0
100
AcDbPoint
 10
1280.022483
 20
-1312.542274
 30
0.0
  0
POINT
  5
84
100
AcDbEntity
  8
DEFPOINTS
  6
BYBLOCK
 62
     0
100
AcDbPoint
 10
1280.022483
 20
-1273.730592
 30
0.0
  0
ENDBLK
  5
86
100
AcDbEntity
  8
0
100
AcDbBlockEnd
  0
BLOCK
  5
78
100
AcDbEntity
  8
0
100
AcDbBlockBegin
  2
*D5
 70
     1
 10
0.0
 20
0.0
 30
0.0
  3
*D5
  1

  0
LINE
  5
6D
100
AcDbEntity
  8
0
  6
BYBLOCK
100
AcDbLine
 10
1280.022483
 20
-1309.542274
 30
0.0
 11
1280.022483
 21
-1267.730592
 31
0.0
  0
LINE
  5
6E
100
AcDbEntity
  8
0
  6
BYBLOCK
100
AcDbLine
 10
1326.522278
 20
-1364.642274
 30
0.0
 11
1326.522278
 21
-1267.730592
 31
0.0
  0
LINE
  5
6F
100
AcDbEntity
  8
0
  6
BYBLOCK
100
AcDbLine
 10
1265.022483
 20
-1273.730592
 30
0.0
 11
1250.022483
 21
-1273.730592
 31
0.0
  0
LINE
  5
70
100
AcDbEntity
  8
0
  6
BYBLOCK
100
AcDbLine
 10
1341.522278
 20
-1273.730592
 30
0.0
 11
1356.522278
 21
-1273.730592
 31
0.0
  0
LINE
  5
71
100
AcDbEntity
  8
0
  6
BYBLOCK
100
AcDbLine
 10
1280.022483
 20
-1273.730592
 30
0.0
 11
1326.522278
 21
-1273.730592
 31
0.0
  0
SOLID
  5
72
100
AcDbEntity
  8
0
  6
BYBLOCK
100
AcDbTrace
 10
1265.022483
 20
-1271.230592
 30
0.0
 11
1265.022483
 21
-1276.230592
 31
0.0
 12
1280.022483
 22
-1273.730592
 32
0.0
 13
1280.022483
 23
-1273.730592
 33
0.0
  0
SOLID
  5
73
100
AcDbEntity
  8
0
  6
BYBLOCK
100
AcDbTrace
 10
1341.522278
 20
-1271.230592
 30
0.0
 11
1341.522278
 21
-1276.230592
 31
0.0
 12
1326.522278
 22
-1273.730592
 32
0.0
 13
1326.522278
 23
-1273.730592
 33
0.0
  0
MTEXT
  5
74
100
AcDbEntity
  8
0
  6
BYBLOCK
 62
     5
100
AcDbMText
 10
1303.27238
 20
-1256.230592
 30
0.0
 40
19.32
 41
0.0
 71
     5
 72
     1
  1
\A1;46,5
  0
POINT
  5
75
100
AcDbEntity
  8
DEFPOINTS
  6
BYBLOCK
 62
     0
100
AcDbPoint
 10
1280.022483
 20
-1312.542274
 30
0.0
  0
POINT
  5
76
100
AcDbEntity
  8
DEFPOINTS
  6
BYBLOCK
 62
     0
100
AcDbPoint
 10
1326.522278
 20
-1367.642274
 30
0.0
  0
POINT
  5
77
100
AcDbEntity
  8
DEFPOINTS
  6
BYBLOCK
 62
     0
100
AcDbPoint
 10
1326.522278
 20
-1273.730592
 30
0.0
  0
ENDBLK
  5
79
100
AcDbEntity
  8
0
100
AcDbBlockEnd
  0
BLOCK
  5
D1
100
AcDbEntity
  8
0
100
AcDbBlockBegin
  2
*D6
 70
     1
 10
0.0
 20
0.0
 30
0.0
  3
*D6
  1

  0
LINE
  5
C5
100
AcDbEntity
  8
0
  6
BYBLOCK
100
AcDbLine
 10
1224.182483
 20
-1319.080563
 30
0.0
 11
1369.334274
 21
-1319.080563
 31
0.0
  0
LINE
  5
C6
100
AcDbEntity
  8
0
  6
BYBLOCK
100
AcDbLine
 10
1283.022483
 20
-1312.542274
 30
0.0
 11
1369.334274
 21
-1312.542274
 31
0.0
  0
LINE
  5
C7
100
AcDbEntity
  8
0
  6
BYBLOCK
100
AcDbLine
 10
1363.334274
 20
-1334.080563
 30
0.0
 11
1363.334274
 21
-1349.080563
 31
0.0
  0
LINE
  5
C8
100
AcDbEntity
  8
0
  6
BYBLOCK
100
AcDbLine
 10
1363.334274
 20
-1297.542274
 30
0.0
 11
1363.334274
 21
-1282.542274
 31
0.0
  0
MTEXT
  5
C9
100
AcDbEntity
  8
0
  6
BYBLOCK
 62
     5
100
AcDbMText
 10
1348.392075
 20
-1332.437439
 30
0.0
 40
19.32
 41
0.0
 71
     5
 72
     1
  1
\A1;6
 11
0.0
 21
1.0
 31
0.0
  0
LINE
  5
CA
100
AcDbEntity
  8
0
  6
BYBLOCK
100
AcDbLine
 10
1363.334274
 20
-1319.080563
 30
0.0
 11
1363.334274
 21
-1312.542274
 31
0.0
  0
LINE
  5
CB
100
AcDbEntity
  8
0
  6
BYBLOCK
100
AcDbLine
 10
1363.334274
 20
-1319.080563
 30
0.0
 11
1363.334274
 21
-1312.542274
 31
0.0
  0
SOLID
  5
CC
100
AcDbEntity
  8
0
  6
BYBLOCK
100
AcDbTrace
 10
1360.834274
 20
-1334.080563
 30
0.0
 11
1365.834274
 21
-1334.080563
 31
0.0
 12
1363.334274
 22
-1319.080563
 32
0.0
 13
1363.334274
 23
-1319.080563
 33
0.0
  0
SOLID
  5
CD
100
AcDbEntity
  8
0
  6
BYBLOCK
100
AcDbTrace
 10
1360.834274
 20
-1297.542274
 30
0.0
 11
1365.834274
 21
-1297.542274
 31
0.0
 12
1363.334274
 22
-1312.542274
 32
0.0
 13
1363.334274
 23
-1312.542274
 33
0.0
  0
POINT
  5
CE
100
AcDbEntity
  8
DEFPOINTS
  6
BYBLOCK
 62
     0
100
AcDbPoint
 10
1221.182483
 20
-1319.080563
 30
0.0
  0
POINT
  5
CF
100
AcDbEntity
  8
DEFPOINTS
  6
BYBLOCK
 62
     0
100
AcDbPoint
 10
1280.022483
 20
-1312.542274
 30
0.0
  0
POINT
  5
D0
100
AcDbEntity
  8
DEFPOINTS
  6
BYBLOCK
 62
     0
100
AcDbPoint
 10
1363.334274
 20
-1312.542274
 30
0.0
  0
ENDBLK
  5
D2
100
AcDbEntity
  8
0
100
AcDbBlockEnd
  0
BLOCK
  5
E0
100
AcDbEntity
  8
0
100
AcDbBlockBegin
  2
*D7
 70
     1
 10
0.0
 20
0.0
 30
0.0
  3
*D7
  1

  0
LINE
  5
D5
100
AcDbEntity
  8
0
  6
BYBLOCK
100
AcDbLine
 10
1459.851924
 20
-1315.542274
 30
0.0
 11
1459.851924
 21
-1433.642274
 31
0.0
  0
LINE
  5
D6
100
AcDbEntity
  8
0
  6
BYBLOCK
100
AcDbLine
 10
1482.512224
 20
-1315.542274
 30
0.0
 11
1482.512224
 21
-1433.642274
 31
0.0
  0
LINE
  5
D7
100
AcDbEntity
  8
0
  6
BYBLOCK
100
AcDbLine
 10
1444.851924
 20
-1427.642274
 30
0.0
 11
1429.851924
 21
-1427.642274
 31
0.0
  0
LINE
  5
D8
100
AcDbEntity
  8
0
  6
BYBLOCK
100
AcDbLine
 10
1497.512224
 20
-1427.642274
 30
0.0
 11
1512.512224
 21
-1427.642274
 31
0.0
  0
LINE
  5
D9
100
AcDbEntity
  8
0
  6
BYBLOCK
100
AcDbLine
 10
1459.851924
 20
-1427.642274
 30
0.0
 11
1482.512224
 21
-1427.642274
 31
0.0
  0
SOLID
  5
DA
100
AcDbEntity
  8
0
  6
BYBLOCK
100
AcDbTrace
 10
1444.851924
 20
-1425.142274
 30
0.0
 11
1444.851924
 21
-1430.142274
 31
0.0
 12
1459.851924
 22
-1427.642274
 32
0.0
 13
1459.851924
 23
-1427.642274
 33
0.0
  0
SOLID
  5
DB
100
AcDbEntity
  8
0
  6
BYBLOCK
100
AcDbTrace
 10
1497.512224
 20
-1425.142274
 30
0.0
 11
1497.512224
 21
-1430.142274
 31
0.0
 12
1482.512224
 22
-1427.642274
 32
0.0
 13
1482.512224
 23
-1427.642274
 33
0.0
  0
MTEXT
  5
DC
100
AcDbEntity
  8
0
  6
BYBLOCK
 62
     5
100
AcDbMText
 10
1471.182074
 20
-1410.142274
 30
0.0
 40
19.32
 41
0.0
 71
     5
 72
     1
  1
\A1;23,5
  0
POINT
  5
DD
100
AcDbEntity
  8
DEFPOINTS
  6
BYBLOCK
 62
     0
100
AcDbPoint
 10
1459.851924
 20
-1312.542274
 30
0.0
  0
POINT
  5
DE
100
AcDbEntity
  8
DEFPOINTS
  6
BYBLOCK
 62
     0
100
AcDbPoint
 10
1482.512224
 20
-1312.542274
 30
0.0
  0
POINT
  5
DF
100
AcDbEntity
  8
DEFPOINTS
  6
BYBLOCK
 62
     0
100
AcDbPoint
 10
1482.512224
 20
-1427.642274
 30
0.0
  0
ENDBLK
  5
E1
100
AcDbEntity
  8
0
100
AcDbBlockEnd
  0
BLOCK
  5
A5
100
AcDbEntity
  8
0
100
AcDbBlockBegin
  2
*D8
 70
     1
 10
0.0
 20
0.0
 30
0.0
  3
*D8
  1

  0
LINE
  5
9A
100
AcDbEntity
  8
0
  6
BYBLOCK
100
AcDbLine
 10
1576.521869
 20
-1370.642274
 30
0.0
 11
1576.521869
 21
-1433.642274
 31
0.0
  0
LINE
  5
9B
100
AcDbEntity
  8
0
  6
BYBLOCK
100
AcDbLine
 10
1615.841869
 20
-1370.642274
 30
0.0
 11
1615.841869
 21
-1433.642274
 31
0.0
  0
LINE
  5
9C
100
AcDbEntity
  8
0
  6
BYBLOCK
100
AcDbLine
 10
1561.521869
 20
-1427.642274
 30
0.0
 11
1546.521869
 21
-1427.642274
 31
0.0
  0
LINE
  5
9D
100
AcDbEntity
  8
0
  6
BYBLOCK
100
AcDbLine
 10
1630.841869
 20
-1427.642274
 30
0.0
 11
1645.841869
 21
-1427.642274
 31
0.0
  0
LINE
  5
9E
100
AcDbEntity
  8
0
  6
BYBLOCK
100
AcDbLine
 10
1576.521869
 20
-1427.642274
 30
0.0
 11
1615.841869
 21
-1427.642274
 31
0.0
  0
SOLID
  5
9F
100
AcDbEntity
  8
0
  6
BYBLOCK
100
AcDbTrace
 10
1561.521869
 20
-1425.142274
 30
0.0
 11
1561.521869
 21
-1430.142274
 31
0.0
 12
1576.521869
 22
-1427.642274
 32
0.0
 13
1576.521869
 23
-1427.642274
 33
0.0
  0
SOLID
  5
A0
100
AcDbEntity
  8
0
  6
BYBLOCK
100
AcDbTrace
 10
1630.841869
 20
-1425.142274
 30
0.0
 11
1630.841869
 21
-1430.142274
 31
0.0
 12
1615.841869
 22
-1427.642274
 32
0.0
 13
1615.841869
 23
-1427.642274
 33
0.0
  0
MTEXT
  5
A1
100
AcDbEntity
  8
0
  6
BYBLOCK
 62
     5
100
AcDbMText
 10
1596.181869
 20
-1410.142274
 30
0.0
 40
19.32
 41
0.0
 71
     5
 72
     1
  1
\A1;39,3
  0
POINT
  5
A2
100
AcDbEntity
  8
DEFPOINTS
  6
BYBLOCK
 62
     0
100
AcDbPoint
 10
1576.521869
 20
-1367.642274
 30
0.0
  0
POINT
  5
A3
100
AcDbEntity
  8
DEFPOINTS
  6
BYBLOCK
 62
     0
100
AcDbPoint
 10
1615.841869
 20
-1367.642274
 30
0.0
  0
POINT
  5
A4
100
AcDbEntity
  8
DEFPOINTS
  6
BYBLOCK
 62
     0
100
AcDbPoint
 10
1615.841869
 20
-1427.642274
 30
0.0
  0
ENDBLK
  5
A6
100
AcDbEntity
  8
0
100
AcDbBlockEnd
  0
BLOCK
  5
69
100
AcDbEntity
  8
0
100
AcDbBlockBegin
  2
*D9
 70
     1
 10
0.0
 20
0.0
 30
0.0
  3
*D9
  1

  0
LINE
  5
5E
100
AcDbEntity
  8
0
  6
BYBLOCK
100
AcDbLine
 10
1783.021665
 20
-1312.542274
 30
0.0
 11
1808.241957
 21
-1312.542274
 31
0.0
  0
LINE
  5
5F
100
AcDbEntity
  8
0
  6
BYBLOCK
100
AcDbLine
 10
1735.110206
 20
-1311.042821
 30
0.0
 11
1798.104003
 21
-1274.690996
 31
0.0
  0
ARC
  5
60
100
AcDbEntity
  8
0
  6
BYBLOCK
100
AcDbCircle
 10
1732.511815
 20
-1312.542274
 30
0.0
 40
69.730142
100
AcDbArc
 50
12.349071
 51
17.63888
  0
SOLID
  5
61
100
AcDbEntity
  8
0
  6
BYBLOCK
100
AcDbTrace
 10
1803.114091
 20
-1297.360397
 30
0.0
 11
1798.143097
 21
-1297.898185
 31
0.0
 12
1802.241957
 22
-1312.542274
 32
0.0
 13
1802.241957
 23
-1312.542274
 33
0.0
  0
SOLID
  5
62
100
AcDbEntity
  8
0
  6
BYBLOCK
100
AcDbTrace
 10
1796.67645
 20
-1292.42228
 30
0.0
 11
1801.250776
 21
-1290.403482
 31
0.0
 12
1792.90722
 22
-1277.689904
 32
0.0
 13
1792.90722
 23
-1277.689904
 33
0.0
  0
MTEXT
  5
63
100
AcDbEntity
  8
0
  6
BYBLOCK
 62
     5
100
AcDbMText
 10
1815.081617
 20
-1283.514358
 30
0.0
 40
19.32
 41
0.0
 71
     5
 72
     1
  1
\A1;30°
 11
0.331658
 21
-0.9434
 31
0.0
  0
POINT
  5
64
100
AcDbEntity
  8
DEFPOINTS
  6
BYBLOCK
 62
     0
100
AcDbPoint
 10
1801.183448
 20
-1300.438576
 30
0.0
  0
POINT
  5
65
100
AcDbEntity
  8
DEFPOINTS
  6
BYBLOCK
 62
     0
100
AcDbPoint
 10
1732.511815
 20
-1312.542274
 30
0.0
  0
POINT
  5
66
100
AcDbEntity
  8
DEFPOINTS
  6
BYBLOCK
 62
     0
100
AcDbPoint
 10
1780.021665
 20
-1312.542274
 30
0.0
  0
POINT
  5
67
100
AcDbEntity
  8
DEFPOINTS
  6
BYBLOCK
 62
     0
100
AcDbPoint
 10
1732.511815
 20
-1312.542274
 30
0.0
  0
POINT
  5
68
100
AcDbEntity
  8
DEFPOINTS
  6
BYBLOCK
 62
     0
100
AcDbPoint
 10
1721.181665
 20
-1319.080563
 30
0.0
  0
ENDBLK
  5
6A
100
AcDbEntity
  8
0
100
AcDbBlockEnd
  0
BLOCK
  5
5A
100
AcDbEntity
  8
0
100
AcDbBlockBegin
  2
*D10
 70
     1
 10
0.0
 20
0.0
 30
0.0
  3
*D10
  1

  0
LINE
  5
4F
100
AcDbEntity
  8
0
  6
BYBLOCK
100
AcDbLine
 10
1868.84146
 20
-1367.642274
 30
0.0
 11
2028.113838
 21
-1367.642274
 31
0.0
  0
LINE
  5
50
100
AcDbEntity
  8
0
  6
BYBLOCK
100
AcDbLine
 10
1880.085852
 20
-1348.169086
 30
0.0
 11
1961.646161
 21
-1236.669819
 31
0.0
  0
ARC
  5
51
100
AcDbEntity
  8
0
  6
BYBLOCK
100
AcDbCircle
 10
1865.84146
 20
-1367.642274
 30
0.0
 40
156.272378
100
AcDbArc
 50
5.501721
 51
48.313279
  0
SOLID
  5
52
100
AcDbEntity
  8
0
  6
BYBLOCK
100
AcDbTrace
 10
2023.891061
 20
-1352.539576
 30
0.0
 11
2018.896822
 21
-1352.779542
 31
0.0
 12
2022.113838
 22
-1367.642274
 32
0.0
 13
2022.113838
 23
-1367.642274
 33
0.0
  0
SOLID
  5
53
100
AcDbEntity
  8
0
  6
BYBLOCK
100
AcDbTrace
 10
1968.200419
 20
-1252.883884
 30
0.0
 11
1971.342669
 21
-1248.994634
 31
0.0
 12
1958.103795
 22
-1241.512508
 32
0.0
 13
1958.103795
 23
-1241.512508
 33
0.0
  0
MTEXT
  5
54
100
AcDbEntity
  8
0
  6
BYBLOCK
 62
     5
100
AcDbMText
 10
2010.112199
 20
-1265.183222
 30
0.0
 40
19.32
 41
0.0
 71
     5
 72
     1
  1
\A1;53,82°
 11
0.579023
 21
-0.815311
 31
0.0
  0
POINT
  5
55
100
AcDbEntity
  8
DEFPOINTS
  6
BYBLOCK
 62
     0
100
AcDbPoint
 10
2014.517212
 20
-1319.511443
 30
0.0
  0
POINT
  5
56
100
AcDbEntity
  8
DEFPOINTS
  6
BYBLOCK
 62
     0
100
AcDbPoint
 10
1878.314668
 20
-1350.590431
 30
0.0
  0
POINT
  5
57
100
AcDbEntity
  8
DEFPOINTS
  6
BYBLOCK
 62
     0
100
AcDbPoint
 10
1865.84146
 20
-1367.642274
 30
0.0
  0
POINT
  5
58
100
AcDbEntity
  8
DEFPOINTS
  6
BYBLOCK
 62
     0
100
AcDbPoint
 10
1846.18146
 20
-1367.642274
 30
0.0
  0
POINT
  5
59
100
AcDbEntity
  8
DEFPOINTS
  6
BYBLOCK
 62
     0
100
AcDbPoint
 10
1865.84146
 20
-1367.642274
 30
0.0
  0
ENDBLK
  5
5B
100
AcDbEntity
  8
0
100
AcDbBlockEnd
  0
BLOCK
  5
4B
100
AcDbEntity
  8
0
100
AcDbBlockBegin
  2
*D11
 70
     1
 10
0.0
 20
0.0
 30
0.0
  3
*D11
  1

  0
LINE
  5
40
100
AcDbEntity
  8
0
  6
BYBLOCK
100
AcDbLine
 10
1697.822929
 20
-1350.590431
 30
0.0
 11
1708.182649
 21
-1350.590431
 31
0.0
  0
LINE
  5
41
100
AcDbEntity
  8
0
  6
BYBLOCK
100
AcDbLine
 10
1640.9415
 20
-1344.06365
 30
0.0
 11
1699.264324
 21
-1313.915734
 31
0.0
  0
ARC
  5
42
100
AcDbEntity
  8
0
  6
BYBLOCK
100
AcDbCircle
 10
1628.315078
 20
-1350.590431
 30
0.0
 40
73.867571
100
AcDbArc
 50
11.654915
 51
15.680185
  0
SOLID
  5
43
100
AcDbEntity
  8
0
  6
BYBLOCK
100
AcDbTrace
 10
1703.146733
 20
-1335.414116
 30
0.0
 11
1698.172572
 21
-1335.921781
 31
0.0
 12
1702.182649
 22
-1350.590431
 32
0.0
 13
1702.182649
 23
-1350.590431
 33
0.0
  0
SOLID
  5
44
100
AcDbEntity
  8
0
  6
BYBLOCK
100
AcDbTrace
 10
1697.107765
 20
-1331.542991
 30
0.0
 11
1701.759609
 21
-1329.709864
 31
0.0
 12
1693.934307
 22
-1316.670897
 32
0.0
 13
1693.934307
 23
-1316.670897
 33
0.0
  0
MTEXT
  5
45
100
AcDbEntity
  8
0
  6
BYBLOCK
 62
     5
100
AcDbMText
 10
1690.717588
 20
-1288.144666
 30
0.0
 40
19.32
 41
0.0
 71
     5
 72
     1
  1
\A1;27,3°
 11
0.707352
 21
-0.706862
 31
0.0
  0
POINT
  5
46
100
AcDbEntity
  8
DEFPOINTS
  6
BYBLOCK
 62
     0
100
AcDbPoint
 10
1701.25055
 20
-1338.892785
 30
0.0
  0
POINT
  5
47
100
AcDbEntity
  8
DEFPOINTS
  6
BYBLOCK
 62
     0
100
AcDbPoint
 10
1638.276492
 20
-1345.441231
 30
0.0
  0
POINT
  5
48
100
AcDbEntity
  8
DEFPOINTS
  6
BYBLOCK
 62
     0
100
AcDbPoint
 10
1628.315078
 20
-1350.590431
 30
0.0
  0
POINT
  5
49
100
AcDbEntity
  8
DEFPOINTS
  6
BYBLOCK
 62
     0
100
AcDbPoint
 10
1694.822929
 20
-1350.590431
 30
0.0
  0
POINT
  5
4A
100
AcDbEntity
  8
DEFPOINTS
  6
BYBLOCK
 62
     0
100
AcDbPoint
 10
1628.315078
 20
-1350.590431
 30
0.0
  0
ENDBLK
  5
4C
100
AcDbEntity
  8
0
100
AcDbBlockEnd
  0
BLOCK
  5
3C
100
AcDbEntity
  8
0
100
AcDbBlockBegin
  2
*D12
 70
     1
 10
0.0
 20
0.0
 30
0.0
  3
*D12
  1

  0
LINE
  5
31
100
AcDbEntity
  8
0
  6
BYBLOCK
100
AcDbLine
 10
1914.112439
 20
-1310.120929
 30
0.0
 11
1940.597745
 21
-1273.913462
 31
0.0
  0
LINE
  5
32
100
AcDbEntity
  8
0
  6
BYBLOCK
100
AcDbLine
 10
1910.076907
 20
-1307.168989
 30
0.0
 11
1936.562213
 21
-1270.961521
 31
0.0
  0
LINE
  5
33
100
AcDbEntity
  8
0
  6
BYBLOCK
100
AcDbLine
 10
1949.162102
 20
-1287.612067
 30
0.0
 11
1961.268826
 21
-1296.467983
 31
0.0
  0
LINE
  5
34
100
AcDbEntity
  8
0
  6
BYBLOCK
100
AcDbLine
 10
1920.913123
 20
-1266.948295
 30
0.0
 11
1908.806399
 21
-1258.092379
 31
0.0
  0
LINE
  5
35
100
AcDbEntity
  8
0
  6
BYBLOCK
100
AcDbLine
 10
1937.055379
 20
-1278.756151
 30
0.0
 11
1933.019847
 21
-1275.804211
 31
0.0
  0
SOLID
  5
36
100
AcDbEntity
  8
0
  6
BYBLOCK
100
AcDbTrace
 10
1950.638088
 20
-1285.59428
 30
0.0
 11
1947.686116
 21
-1289.629855
 31
0.0
 12
1937.055379
 22
-1278.756151
 32
0.0
 13
1937.055379
 23
-1278.756151
 33
0.0
  0
SOLID
  5
37
100
AcDbEntity
  8
0
  6
BYBLOCK
100
AcDbTrace
 10
1922.389109
 20
-1264.930508
 30
0.0
 11
1919.437137
 21
-1268.966082
 31
0.0
 12
1933.019847
 22
-1275.804211
 32
0.0
 13
1933.019847
 23
-1275.804211
 33
0.0
  0
MTEXT
  5
38
100
AcDbEntity
  8
0
  6
BYBLOCK
 62
     5
100
AcDbMText
 10
1944.283189
 20
-1264.640762
 30
0.0
 40
19.32
 41
0.0
 71
     5
 72
     1
  1
\A1;5
 11
0.807115
 21
-0.590394
 31
0.0
  0
POINT
  5
39
100
AcDbEntity
  8
DEFPOINTS
  6
BYBLOCK
 62
     0
100
AcDbPoint
 10
1912.341255
 20
-1312.542274
 30
0.0
  0
POINT
  5
3A
100
AcDbEntity
  8
DEFPOINTS
  6
BYBLOCK
 62
     0
100
AcDbPoint
 10
1908.305723
 20
-1309.590333
 30
0.0
  0
POINT
  5
3B
100
AcDbEntity
  8
DEFPOINTS
  6
BYBLOCK
 62
     0
100
AcDbPoint
 10
1933.019847
 20
-1275.804211
 30
0.0
  0
ENDBLK
  5
3D
100
AcDbEntity
  8
0
100
AcDbBlockEnd
  0
BLOCK
  5
2D
100
AcDbEntity
  8
0
100
AcDbBlockBegin
  2
*D13
 70
     1
 10
0.0
 20
0.0
 30
0.0
  3
*D13
  1

  0
LINE
  5
20
100
AcDbEntity
  8
0
  6
BYBLOCK
100
AcDbLine
 10
2033.021255
 20
-1312.542274
 30
0.0
 11
2159.021365
 21
-1312.542274
 31
0.0
  0
LINE
  5
21
100
AcDbEntity
  8
0
  6
BYBLOCK
100
AcDbLine
 10
2057.086428
 20
-1345.441231
 30
0.0
 11
2159.021365
 21
-1345.441231
 31
0.0
  0
LINE
  5
22
100
AcDbEntity
  8
0
  6
BYBLOCK
100
AcDbLine
 10
2153.021365
 20
-1297.542274
 30
0.0
 11
2153.021365
 21
-1282.542274
 31
0.0
  0
LINE
  5
23
100
AcDbEntity
  8
0
  6
BYBLOCK
100
AcDbLine
 10
2153.021365
 20
-1360.441231
 30
0.0
 11
2153.021365
 21
-1375.441231
 31
0.0
  0
MTEXT
  5
24
100
AcDbEntity
  8
0
  6
BYBLOCK
 62
     5
100
AcDbMText
 10
2137.421087
 20
-1291.684883
 30
0.0
 40
19.32
 41
0.0
 71
     5
 72
     1
  1
\A1;35
 11
0.0
 21
1.0
 31
0.0
  0
LINE
  5
25
100
AcDbEntity
  8
0
  6
BYBLOCK
100
AcDbLine
 10
2153.021365
 20
-1312.542274
 30
0.0
 11
2153.021365
 21
-1345.441231
 31
0.0
  0
LINE
  5
26
100
AcDbEntity
  8
0
  6
BYBLOCK
100
AcDbLine
 10
2153.021365
 20
-1312.542274
 30
0.0
 11
2153.021365
 21
-1345.441231
 31
0.0
  0
SOLID
  5
27
100
AcDbEntity
  8
0
  6
BYBLOCK
100
AcDbTrace
 10
2150.521365
 20
-1297.542274
 30
0.0
 11
2155.521365
 21
-1297.542274
 31
0.0
 12
2153.021365
 22
-1312.542274
 32
0.0
 13
2153.021365
 23
-1312.542274
 33
0.0
  0
SOLID
  5
28
100
AcDbEntity
  8
0
  6
BYBLOCK
100
AcDbTrace
 10
2150.521365
 20
-1360.441231
 30
0.0
 11
2155.521365
 21
-1360.441231
 31
0.0
 12
2153.021365
 22
-1345.441231
 32
0.0
 13
2153.021365
 23
-1345.441231
 33
0.0
  0
POINT
  5
29
100
AcDbEntity
  8
DEFPOINTS
  6
BYBLOCK
 62
     0
100
AcDbPoint
 10
2030.021255
 20
-1312.542274
 30
0.0
  0
POINT
  5
2B
100
AcDbEntity
  8
DEFPOINTS
  6
BYBLOCK
 62
     0
100
AcDbPoint
 10
2054.086428
 20
-1345.441231
 30
0.0
  0
POINT
  5
2C
100
AcDbEntity
  8
DEFPOINTS
  6
BYBLOCK
 62
     0
100
AcDbPoint
 10
2153.021365
 20
-1345.441231
 30
0.0
  0
ENDBLK
  5
2E
100
AcDbEntity
  8
0
100
AcDbBlockEnd
  0
BLOCK
  5
F5
100
AcDbEntity
  8
0
100
AcDbBlockBegin
  2
*D14
 70
     1
 10
0.0
 20
0.0
 30
0.0
  3
*D14
  1

  0
LINE
  5
E9
100
AcDbEntity
  8
0
  6
BYBLOCK
100
AcDbLine
 10
2057.086428
 20
-1345.441231
 30
0.0
 11
2159.021365
 21
-1345.441231
 31
0.0
  0
LINE
  5
EA
100
AcDbEntity
  8
0
  6
BYBLOCK
100
AcDbLine
 10
2067.047842
 20
-1350.590431
 30
0.0
 11
2159.021365
 21
-1350.590431
 31
0.0
  0
LINE
  5
EB
100
AcDbEntity
  8
0
  6
BYBLOCK
100
AcDbLine
 10
2153.021365
 20
-1330.441231
 30
0.0
 11
2153.021365
 21
-1315.441231
 31
0.0
  0
LINE
  5
EC
100
AcDbEntity
  8
0
  6
BYBLOCK
100
AcDbLine
 10
2153.021365
 20
-1365.590431
 30
0.0
 11
2153.021365
 21
-1380.590431
 31
0.0
  0
MTEXT
  5
ED
100
AcDbEntity
  8
0
  6
BYBLOCK
 62
     5
100
AcDbMText
 10
2175.190122
 20
-1344.98822
 30
0.0
 40
19.32
 41
0.0
 71
     5
 72
     1
  1
\A1;5,1
 11
0.0
 21
1.0
 31
0.0
  0
LINE
  5
EE
100
AcDbEntity
  8
0
  6
BYBLOCK
100
AcDbLine
 10
2153.021365
 20
-1345.441231
 30
0.0
 11
2153.021365
 21
-1350.590431
 31
0.0
  0
LINE
  5
EF
100
AcDbEntity
  8
0
  6
BYBLOCK
100
AcDbLine
 10
2153.021365
 20
-1345.441231
 30
0.0
 11
2153.021365
 21
-1350.590431
 31
0.0
  0
SOLID
  5
F0
100
AcDbEntity
  8
0
  6
BYBLOCK
100
AcDbTrace
 10
2150.521365
 20
-1330.441231
 30
0.0
 11
2155.521365
 21
-1330.441231
 31
0.0
 12
2153.021365
 22
-1345.441231
 32
0.0
 13
2153.021365
 23
-1345.441231
 33
0.0
  0
SOLID
  5
F1
100
AcDbEntity
  8
0
  6
BYBLOCK
100
AcDbTrace
 10
2150.521365
 20
-1365.590431
 30
0.0
 11
2155.521365
 21
-1365.590431
 31
0.0
 12
2153.021365
 22
-1350.590431
 32
0.0
 13
2153.021365
 23
-1350.590431
 33
0.0
  0
POINT
  5
F2
100
AcDbEntity
  8
DEFPOINTS
  6
BYBLOCK
 62
     0
100
AcDbPoint
 10
2054.086428
 20
-1345.441231
 30
0.0
  0
POINT
  5
F3
100
AcDbEntity
  8
DEFPOINTS
  6
BYBLOCK
 62
     0
100
AcDbPoint
 10
2064.047842
 20
-1350.590431
 30
0.0
  0
POINT
  5
F4
100
AcDbEntity
  8
DEFPOINTS
  6
BYBLOCK
 62
     0
100
AcDbPoint
 10
2153.021365
 20
-1350.590431
 30
0.0
  0
ENDBLK
  5
F6
100
AcDbEntity
  8
0
100
AcDbBlockEnd
  0
BLOCK
  5
114
100
AcDbEntity
  8
0
100
AcDbBlockBegin
  2
*D15
 70
     1
 10
0.0
 20
0.0
 30
0.0
  3
*D15
  1

  0
LINE
  5
108
100
AcDbEntity
  8
0
  6
BYBLOCK
100
AcDbLine
 10
2067.047842
 20
-1350.590431
 30
0.0
 11
2159.021365
 21
-1350.590431
 31
0.0
  0
LINE
  5
109
100
AcDbEntity
  8
0
  6
BYBLOCK
100
AcDbLine
 10
2118.841051
 20
-1367.642274
 30
0.0
 11
2159.021365
 21
-1367.642274
 31
0.0
  0
LINE
  5
10A
100
AcDbEntity
  8
0
  6
BYBLOCK
100
AcDbLine
 10
2153.021365
 20
-1335.590431
 30
0.0
 11
2153.021365
 21
-1320.590431
 31
0.0
  0
LINE
  5
10B
100
AcDbEntity
  8
0
  6
BYBLOCK
100
AcDbLine
 10
2153.021365
 20
-1382.642274
 30
0.0
 11
2153.021365
 21
-1397.642274
 31
0.0
  0
MTEXT
  5
10C
100
AcDbEntity
  8
0
  6
BYBLOCK
 62
     5
100
AcDbMText
 10
2137.421087
 20
-1387.630905
 30
0.0
 40
19.32
 41
0.0
 71
     5
 72
     1
  1
\A1;15
 11
0.0
 21
1.0
 31
0.0
  0
LINE
  5
10D
100
AcDbEntity
  8
0
  6
BYBLOCK
100
AcDbLine
 10
2153.021365
 20
-1350.590431
 30
0.0
 11
2153.021365
 21
-1367.642274
 31
0.0
  0
LINE
  5
10E
100
AcDbEntity
  8
0
  6
BYBLOCK
100
AcDbLine
 10
2153.021365
 20
-1350.590431
 30
0.0
 11
2153.021365
 21
-1367.642274
 31
0.0
  0
SOLID
  5
10F
100
AcDbEntity
  8
0
  6
BYBLOCK
100
AcDbTrace
 10
2150.521365
 20
-1335.590431
 30
0.0
 11
2155.521365
 21
-1335.590431
 31
0.0
 12
2153.021365
 22
-1350.590431
 32
0.0
 13
2153.021365
 23
-1350.590431
 33
0.0
  0
SOLID
  5
110
100
AcDbEntity
  8
0
  6
BYBLOCK
100
AcDbTrace
 10
2150.521365
 20
-1382.642274
 30
0.0
 11
2155.521365
 21
-1382.642274
 31
0.0
 12
2153.021365
 22
-1367.642274
 32
0.0
 13
2153.021365
 23
-1367.642274
 33
0.0
  0
POINT
  5
111
100
AcDbEntity
  8
DEFPOINTS
  6
BYBLOCK
 62
     0
100
AcDbPoint
 10
2064.047842
 20
-1350.590431
 30
0.0
  0
POINT
  5
112
100
AcDbEntity
  8
DEFPOINTS
  6
BYBLOCK
 62
     0
100
AcDbPoint
 10
2115.841051
 20
-1367.642274
 30
0.0
  0
POINT
  5
113
100
AcDbEntity
  8
DEFPOINTS
  6
BYBLOCK
 62
     0
100
AcDbPoint
 10
2153.021365
 20
-1367.642274
 30
0.0
  0
ENDBLK
  5
115
100
AcDbEntity
  8
0
100
AcDbBlockEnd
  0
ENDSEC
  0
SECTION
  2
ENTITIES
  0
DIMENSION
  5
1E
100
AcDbEntity
  8
KOTY-UPLNE
100
AcDbDimension
  2
*D13
 10
1209.693975
 20
-182.783885
 30
0.0
 11
1194.093697
 21
-129.027537
 31
0.0
 12
-943.32739
 22
1162.657346
 32
0.0
 70
   128
  1
35
  3
UPLNE
100
AcDbAlignedDimension
 13
1086.693865
 23
-149.884928
 33
0.0
 14
1110.759038
 24
-182.783885
 34
0.0
 50
90.0
100
AcDbRotatedDimension
1001
ACAD
1000
DSTYLE
1002
{
1070
    40
1040
3.0
1070
   147
1040
2.0
1002
}
  0
DIMENSION
  5
2F
100
AcDbEntity
  8
KOTY-UPLNE
100
AcDbDimension
  2
*D12
 10
989.692456
 20
-113.146865
 30
0.0
 11
1000.955798
 21
-101.983416
 31
0.0
 12
-943.32739
 22
1162.657346
 32
0.0
 70
     1
  3
UPLNE
100
AcDbAlignedDimension
 13
969.013865
 23
-149.884928
 33
0.0
 14
964.978333
 24
-146.932987
 34
0.0
1001
ACAD
1000
DSTYLE
1002
{
1070
    40
1040
3.0
1070
   147
1040
2.0
1002
}
  0
DIMENSION
  5
3E
100
AcDbEntity
  8
KOTY-UPLNE
100
AcDbDimension
  2
*D11
 10
684.987687
 20
-187.933085
 30
0.0
 11
747.390198
 21
-125.48732
 31
0.0
 12
-943.32739
 22
1162.657346
 32
0.0
 70
   130
  1
27,3%%d
  3
UPLNE
100
AcDb2LineAngularDimension
 13
684.987687
 23
-187.933085
 33
0.0
 14
751.495538
 24
-187.933085
 34
0.0
 15
694.949102
 25
-182.783885
 35
0.0
 16
757.92316
 26
-176.235439
 36
0.0
1001
ACAD
1000
DSTYLE
1002
{
1070
    40
1040
3.0
1070
   147
1040
2.0
1002
}
  0
DIMENSION
  5
4D
100
AcDbEntity
  8
KOTY-UPLNE
100
AcDbDimension
  2
*D10
 10
922.51407
 20
-204.984928
 30
0.0
 11
1066.784808
 21
-102.525876
 31
0.0
 12
-943.32739
 22
1162.657346
 32
0.0
 70
   130
  1
53,82%%d
  3
UPLNE
100
AcDb2LineAngularDimension
 13
922.51407
 23
-204.984928
 33
0.0
 14
902.85407
 24
-204.984928
 34
0.0
 15
934.987278
 25
-187.933085
 35
0.0
 16
1071.189822
 26
-156.854097
 36
0.0
1001
ACAD
1000
DSTYLE
1002
{
1070
    40
1040
3.0
1070
   147
1040
2.0
1002
}
  0
DIMENSION
  5
5C
100
AcDbEntity
  8
KOTY-UPLNE
100
AcDbDimension
  2
*D9
 10
777.854274
 20
-156.423217
 30
0.0
 11
871.754227
 21
-120.857012
 31
0.0
 12
-943.32739
 22
1162.657346
 32
0.0
 70
   130
  3
UPLNE
100
AcDb2LineAngularDimension
 13
836.694274
 23
-149.884928
 33
0.0
 14
789.184424
 24
-149.884928
 34
0.0
 15
789.184424
 25
-149.884928
 35
0.0
 16
857.856058
 26
-137.78123
 36
0.0
1001
ACAD
1000
DSTYLE
1002
{
1070
    40
1040
3.0
1070
   147
1040
2.0
1002
}
  0
DIMENSION
  5
6B
100
AcDbEntity
  8
KOTY-UPLNE
100
AcDbDimension
  2
*D5
 10
383.194888
 20
-111.073246
 30
0.0
 11
359.94499
 21
-93.573246
 31
0.0
 12
-943.32739
 22
1162.657346
 32
0.0
  1
46,5
  3
UPLNE
100
AcDbAlignedDimension
 13
336.695093
 23
-149.884928
 33
0.0
 14
383.194888
 24
-204.984928
 34
0.0
100
AcDbRotatedDimension
1001
ACAD
1000
DSTYLE
1002
{
1070
    40
1040
3.0
1070
   147
1040
2.0
1002
}
  0
DIMENSION
  5
7A
100
AcDbEntity
  8
KOTY-UPLNE
100
AcDbDimension
  2
*D4
 10
336.695093
 20
-111.073246
 30
0.0
 11
277.855093
 21
-93.573246
 31
0.0
 12
-943.32739
 22
1162.657346
 32
0.0
  1
117,7
  3
UPLNE
100
AcDbAlignedDimension
 13
219.015093
 23
-149.884928
 33
0.0
 14
336.695093
 24
-149.884928
 34
0.0
100
AcDbRotatedDimension
1001
ACAD
1000
DSTYLE
1002
{
1070
    40
1040
3.0
1070
   147
1040
2.0
1002
}
  0
DIMENSION
  5
87
100
AcDbEntity
  8
KOTY-UPLNE
100
AcDbDimension
  2
*D3
 10
219.015093
 20
-111.073246
 30
0.0
 11
195.765195
 21
-93.573246
 31
0.0
 12
-943.32739
 22
1162.657346
 32
0.0
  1
46,5
  3
UPLNE
100
AcDbAlignedDimension
 13
172.515297
 23
-204.984928
 33
0.0
 14
219.015093
 24
-149.884928
 34
0.0
100
AcDbRotatedDimension
1001
ACAD
1000
DSTYLE
1002
{
1070
    40
1040
3.0
1070
   147
1040
2.0
1002
}
  0
LWPOLYLINE
  5
96
100
AcDbEntity
  8
RAMEC
100
AcDbPolyline
 90
        4
 70
     1
 43
0.0
 10
0.0
 20
0.0
 10
0.0
 20
-374.101233
 10
1349.672502
 20
-374.101233
 10
1349.672502
 20
0.0
  0
DIMENSION
  5
98
100
AcDbEntity
  8
KOTY-UPLNE
100
AcDbDimension
  2
*D8
 10
672.514479
 20
-264.984928
 30
0.0
 11
652.854479
 21
-247.484928
 31
0.0
 12
-943.32739
 22
1162.657346
 32
0.0
  1
39,3
  3
UPLNE
100
AcDbAlignedDimension
 13
633.194479
 23
-204.984928
 33
0.0
 14
672.514479
 24
-204.984928
 34
0.0
100
AcDbRotatedDimension
1001
ACAD
1000
DSTYLE
1002
{
1070
    40
1040
3.0
1070
   147
1040
2.0
1002
}
  0
DIMENSION
  5
A7
100
AcDbEntity
  8
KOTY-UPLNE
100
AcDbDimension
  2
*D1
 10
1152.853661
 20
-324.984928
 30
0.0
 11
652.854479
 21
-309.324928
 31
0.0
 12
-943.32739
 22
1162.657346
 32
0.0
  3
UPLNE
100
AcDbAlignedDimension
 13
152.855297
 23
-204.984928
 33
0.0
 14
1152.853661
 24
-204.984928
 34
0.0
100
AcDbRotatedDimension
1001
ACAD
1000
DSTYLE
1002
{
1070
    40
1040
3.0
1070
   147
1040
2.0
1002
}
  0
LWPOLYLINE
  5
B4
100
AcDbEntity
  8
TRAPEZ-VELKY
100
AcDbPolyline
 90
       98
 70
     0
 43
5.0
 10
1178.413488
 20
-196.919406
 10
1173.562335
 20
-203.551308
 42
-0.239225
 10
1170.737433
 20
-204.984928
 10
1152.853661
 20
-204.984928
 10
1134.969888
 20
-204.984928
 42
-0.239225
 10
1132.144986
 20
-203.551308
 10
1121.206638
 20
-188.597738
 42
0.116057
 10
1119.988914
 20
-187.554942
 10
1111.490576
 20
-183.162028
 42
-0.116057
 10
1110.272852
 20
-182.119232
 10
1087.74254
 20
-151.318548
 42
0.239225
 10
1084.917638
 20
-149.884928
 10
1040.121443
 20
-149.884928
 42
0.131599
 10
1038.37208
 20
-150.353471
 10
1029.491832
 20
-155.477996
 42
-0.248438
 10
1026.215899
 20
-155.477996
 10
1017.33565
 20
-150.353471
 42
0.131599
 10
1015.586288
 20
-149.884928
 10
970.790093
 20
-149.884928
 42
0.239225
 10
967.965191
 20
-151.318548
 10
945.434878
 20
-182.119232
 42
-0.116057
 10
944.217154
 20
-183.162028
 10
935.718817
 20
-187.554942
 42
0.116057
 10
934.501093
 20
-188.597738
 10
923.562745
 20
-203.551308
 42
-0.239225
 10
920.737842
 20
-204.984928
 10
902.85407
 20
-204.984928
 10
902.85407
 20
-204.984928
 10
884.970297
 20
-204.984928
 42
-0.239225
 10
882.145395
 20
-203.551308
 10
871.207047
 20
-188.597738
 42
0.116057
 10
869.989323
 20
-187.554942
 10
861.490985
 20
-183.162028
 42
-0.116057
 10
860.273261
 20
-182.119232
 10
837.742949
 20
-151.318548
 42
0.239225
 10
834.918047
 20
-149.884928
 10
790.121852
 20
-149.884928
 42
0.131599
 10
788.37249
 20
-150.353471
 10
779.603637
 20
-155.413712
 42
-0.267836
 10
776.104912
 20
-155.413712
 10
767.336059
 20
-150.353471
 42
0.131599
 10
765.586697
 20
-149.884928
 10
720.790502
 20
-149.884928
 42
0.239225
 10
717.9656
 20
-151.318548
 10
695.435287
 20
-182.119232
 42
-0.116057
 10
694.217564
 20
-183.162028
 10
685.719226
 20
-187.554942
 42
0.116057
 10
684.501502
 20
-188.597738
 10
673.563154
 20
-203.551308
 42
-0.239225
 10
670.738251
 20
-204.984928
 10
652.854479
 20
-204.984928
 10
634.970706
 20
-204.984928
 42
-0.239225
 10
632.145804
 20
-203.551308
 10
621.207456
 20
-188.597738
 42
0.116057
 10
619.989732
 20
-187.554942
 10
611.491394
 20
-183.162028
 42
-0.116057
 10
610.273671
 20
-182.119232
 10
587.743358
 20
-151.318548
 42
0.239225
 10
584.918456
 20
-149.884928
 10
540.122261
 20
-149.884928
 42
0.131599
 10
538.372899
 20
-150.353471
 10
529.604046
 20
-155.413712
 42
-0.267836
 10
526.105321
 20
-155.413712
 10
517.336468
 20
-150.353471
 42
0.131599
 10
515.587106
 20
-149.884928
 10
470.790911
 20
-149.884928
 42
0.239225
 10
467.966009
 20
-151.318548
 10
445.435696
 20
-182.119232
 42
-0.116057
 10
444.217973
 20
-183.162028
 10
435.719635
 20
-187.554942
 42
0.116057
 10
434.501911
 20
-188.597738
 10
423.563563
 20
-203.551308
 42
-0.239225
 10
420.738661
 20
-204.984928
 10
402.854888
 20
-204.984928
 10
384.971115
 20
-204.984928
 42
-0.239225
 10
382.146213
 20
-203.551308
 10
371.207865
 20
-188.597738
 42
0.116057
 10
369.990141
 20
-187.554942
 10
361.491803
 20
-183.162028
 42
-0.116057
 10
360.27408
 20
-182.119232
 10
337.743767
 20
-151.318548
 42
0.239225
 10
334.918865
 20
-149.884928
 10
290.12267
 20
-149.884928
 42
0.131599
 10
288.373308
 20
-150.353471
 10
279.604455
 20
-155.413712
 42
-0.267836
 10
276.10573
 20
-155.413712
 10
267.336877
 20
-150.353471
 42
0.131599
 10
265.587515
 20
-149.884928
 10
220.79132
 20
-149.884928
 42
0.239225
 10
217.966418
 20
-151.318548
 10
195.436106
 20
-182.119232
 42
-0.116057
 10
194.218382
 20
-183.162028
 10
185.720044
 20
-187.554942
 42
0.116057
 10
184.50232
 20
-188.597738
 10
173.563972
 20
-203.551308
 42
-0.239225
 10
170.73907
 20
-204.984928
 10
152.855297
 20
-204.984928
 10
147.855297
 20
-204.984928
  0
DIMENSION
  5
B6
100
AcDbEntity
  8
KOTY-UPLNE
100
AcDbDimension
  2
*D0
 10
402.854888
 20
-264.984928
 30
0.0
 11
277.855093
 21
-249.324928
 31
0.0
 12
-943.32739
 22
1162.657346
 32
0.0
  3
UPLNE
100
AcDbAlignedDimension
 13
152.855297
 23
-204.984928
 33
0.0
 14
402.854888
 24
-204.984928
 34
0.0
100
AcDbRotatedDimension
1001
ACAD
1000
DSTYLE
1002
{
1070
    40
1040
3.0
1070
   147
1040
2.0
1002
}
  0
DIMENSION
  5
C3
100
AcDbEntity
  8
KOTY-UPLNE
100
AcDbDimension
  2
*D6
 10
420.006884
 20
-149.884928
 30
0.0
 11
405.064685
 21
-169.780093
 31
0.0
 12
-943.32739
 22
1162.657346
 32
0.0
 70
   128
  1
6
  3
UPLNE
100
AcDbAlignedDimension
 13
277.855093
 23
-156.423217
 33
0.0
 14
336.695093
 24
-149.884928
 34
0.0
 50
90.0
100
AcDbRotatedDimension
1001
ACAD
1000
DSTYLE
1002
{
1070
    40
1040
3.0
1070
   147
1040
2.0
1002
}
  0
DIMENSION
  5
D3
100
AcDbEntity
  8
KOTY-UPLNE
100
AcDbDimension
  2
*D7
 10
539.184833
 20
-264.984928
 30
0.0
 11
527.854683
 21
-247.484928
 31
0.0
 12
-943.32739
 22
1162.657346
 32
0.0
  1
23,5
  3
UPLNE
100
AcDbAlignedDimension
 13
516.524533
 23
-149.884928
 33
0.0
 14
539.184833
 24
-149.884928
 34
0.0
100
AcDbRotatedDimension
1001
ACAD
1000
DSTYLE
1002
{
1070
    40
1040
3.0
1070
   147
1040
2.0
1002
}
  0
LINE
  5
E2
100
AcDbEntity
  8
KOTY-UPLNE
100
AcDbLine
 10
684.987687
 20
-187.933085
 30
0.0
 11
751.495538
 21
-187.933085
 31
0.0
  0
MTEXT
  5
E3
100
AcDbEntity
  8
POZICE
100
AcDbMText
 10
907.098581
 20
-249.83104
 30
0.0
 40
41.73
 41
1.0
 71
     5
 72
     1
  1
B
  7
STYLE1
  0
MTEXT
  5
E6
100
AcDbEntity
  8
POZICE
100
AcDbMText
 10
904.4128
 20
-140.284145
 30
0.0
 40
41.73
 41
1.0
 71
     5
 72
     1
  1
A
  7
STYLE1
  0
DIMENSION
  5
E7
100
AcDbEntity
  8
KOTY-UPLNE
100
AcDbDimension
  2
*D14
 10
1209.693975
 20
-187.933085
 30
0.0
 11
1231.862732
 21
-182.330873
 31
0.0
 12
-943.32739
 22
1162.657346
 32
0.0
 70
   128
  1
5,1
  3
UPLNE
100
AcDbAlignedDimension
 13
1110.759038
 23
-182.783885
 33
0.0
 14
1120.720452
 24
-187.933085
 34
0.0
 50
90.0
100
AcDbRotatedDimension
1001
ACAD
1000
DSTYLE
1002
{
1070
    40
1040
3.0
1070
   147
1040
2.0
1002
}
  0
DIMENSION
  5
F7
100
AcDbEntity
  8
KOTY-UPLNE
100
AcDbDimension
  2
*D2
 10
1280.338578
 20
-204.984928
 30
0.0
 11
1262.838578
 21
-177.434928
 31
0.0
 12
-943.32739
 22
1162.657346
 32
0.0
  1
55,1
  3
UPLNE
100
AcDbAlignedDimension
 13
1086.693865
 23
-149.884928
 33
0.0
 14
1172.513661
 24
-204.984928
 34
0.0
 50
90.0
100
AcDbRotatedDimension
1001
ACAD
1000
DSTYLE
1002
{
1070
    40
1040
3.0
1070
   147
1040
2.0
1002
}
  0
DIMENSION
  5
106
100
AcDbEntity
  8
KOTY-UPLNE
100
AcDbDimension
  2
*D15
 10
1209.693975
 20
-204.984928
 30
0.0
 11
1194.093697
 21
-224.973559
 31
0.0
 12
-943.32739
 22
1162.657346
 32
0.0
 70
   128
  1
15
  3
UPLNE
100
AcDbAlignedDimension
 13
1120.720452
 23
-187.933085
 33
0.0
 14
1172.513661
 24
-204.984928
 34
0.0
 50
90.0
100
AcDbRotatedDimension
1001
ACAD
1000
DSTYLE
1002
{
1070
    40
1040
3.0
1070
   147
1040
2.0
1002
}
  0
MTEXT
  5
116
100
AcDbEntity
  8
KOTY-UPLNE
  6
BYBLOCK
 62
     5
100
AcDbMText
 10
669.486575
 20
-85.198963
 30
0.0
 40
16.5
 41
0.0
 71
     5
 72
     1
  1
všechna zaoblení R=3,5
  0
MTEXT
  5
117
100
AcDbEntity
  8
POPIS
100
AcDbMText
 10
661.730741
 20
-42.124031
 30
0.0
 40
40.0
 41
1.0
 71
     5
 72
     1
  1
TR 55/250
  7
STYLE1
  0
ENDSEC
  0
SECTION
  2
OBJECTS
  0
DICTIONARY
  5
1A
100
AcDbDictionary
  3
ACAD_GROUP
350
18
  3
ACAD_MLINESTYLE
350
19
  0
DICTIONARY
  5
18
102
{ACAD_REACTORS
330
1A
102
}
100
AcDbDictionary
  0
DICTIONARY
  5
19
102
{ACAD_REACTORS
330
1A
102
}
100
AcDbDictionary
  3
STANDARD
350
1C
  0
MLINESTYLE
  5
1C
102
{ACAD_REACTORS
330
19
102
}
100
AcDbMlineStyle
  2
STANDARD
 70
     0
  3

 62
   256
 51
90.0
 52
90.0
 71
     2
 49
0.5
 62
   256
  6
BYLAYER
 49
-0.5
 62
   256
  6
BYLAYER
  0
ENDSEC
  0
EOF
