  0
SECTION
  2
HEADER
  9
$ACADVER
  1
AC1014
  9
$ACADMAINTVER
 70
     0
  9
$DWGCODEPAGE
  3
ANSI_1250
  9
$INSBASE
 10
0.0
 20
0.0
 30
0.0
  9
$EXTMIN
 10
0.0
 20
-350.001233
 30
0.0
  9
$EXTMAX
 10
1349.672502
 20
0.0
 30
0.0
  9
$LIMMIN
 10
-1000.0
 20
-1000.0
  9
$LIMMAX
 10
1000.0
 20
1000.0
  9
$ORTHOMODE
 70
     0
  9
$REGENMODE
 70
     1
  9
$FILLMODE
 70
     1
  9
$QTEXTMODE
 70
     0
  9
$MIRRTEXT
 70
     0
  9
$DRAGMODE
 70
     2
  9
$LTSCALE
 40
3.0
  9
$OSMODE
 70
    32
  9
$ATTMODE
 70
     1
  9
$TEXTSIZE
 40
50.0
  9
$TRACEWID
 40
0.05
  9
$TEXTSTYLE
  7
STANDARD
  9
$CLAYER
  8
KOTY-UPLNE
  9
$CELTYPE
  6
BYLAYER
  9
$CECOLOR
 62
   256
  9
$CELTSCALE
 40
1.0
  9
$DELOBJ
 70
     1
  9
$DISPSILH
 70
     0
  9
$DIMSCALE
 40
3.0
  9
$DIMASZ
 40
5.0
  9
$DIMEXO
 40
1.0
  9
$DIMDLI
 40
0.0
  9
$DIMRND
 40
1.0
  9
$DIMDLE
 40
1.0
  9
$DIMEXE
 40
2.0
  9
$DIMTP
 40
0.0
  9
$DIMTM
 40
0.0
  9
$DIMTXT
 40
6.44
  9
$DIMCEN
 40
1.0
  9
$DIMTSZ
 40
0.0
  9
$DIMTOL
 70
     0
  9
$DIMLIM
 70
     0
  9
$DIMTIH
 70
     0
  9
$DIMTOH
 70
     0
  9
$DIMSE1
 70
     0
  9
$DIMSE2
 70
     0
  9
$DIMTAD
 70
     3
  9
$DIMZIN
 70
     0
  9
$DIMBLK
  1

  9
$DIMASO
 70
     1
  9
$DIMSHO
 70
     0
  9
$DIMPOST
  1

  9
$DIMAPOST
  1

  9
$DIMALT
 70
     0
  9
$DIMALTD
 70
     2
  9
$DIMALTF
 40
25.4
  9
$DIMLFAC
 40
1.0
  9
$DIMTOFL
 70
     1
  9
$DIMTVP
 40
0.0
  9
$DIMTIX
 70
     1
  9
$DIMSOXD
 70
     0
  9
$DIMSAH
 70
     0
  9
$DIMBLK1
  1

  9
$DIMBLK2
  1

  9
$DIMSTYLE
  2
UPLNE
  9
$DIMCLRD
 70
   256
  9
$DIMCLRE
 70
   256
  9
$DIMCLRT
 70
     5
  9
$DIMTFAC
 40
1.0
  9
$DIMGAP
 40
2.0
  9
$DIMJUST
 70
     0
  9
$DIMSD1
 70
     0
  9
$DIMSD2
 70
     0
  9
$DIMTOLJ
 70
     1
  9
$DIMTZIN
 70
     0
  9
$DIMALTZ
 70
     0
  9
$DIMALTTZ
 70
     0
  9
$DIMFIT
 70
     5
  9
$DIMUPT
 70
     0
  9
$DIMUNIT
 70
     2
  9
$DIMDEC
 70
     0
  9
$DIMTDEC
 70
     0
  9
$DIMALTU
 70
     2
  9
$DIMALTTD
 70
     2
  9
$DIMTXSTY
  7
STANDARD
  9
$DIMAUNIT
 70
     0
  9
$LUNITS
 70
     2
  9
$LUPREC
 70
     2
  9
$SKETCHINC
 40
0.1
  9
$FILLETRAD
 40
5.0
  9
$AUNITS
 70
     0
  9
$AUPREC
 70
     2
  9
$MENU
  1
acad
  9
$ELEVATION
 40
0.0
  9
$PELEVATION
 40
0.0
  9
$THICKNESS
 40
0.0
  9
$LIMCHECK
 70
     0
  9
$BLIPMODE
 70
     1
  9
$CHAMFERA
 40
0.0
  9
$CHAMFERB
 40
0.0
  9
$CHAMFERC
 40
0.0
  9
$CHAMFERD
 40
0.0
  9
$SKPOLY
 70
     0
  9
$TDCREATE
 40
2448722.252204629
  9
$TDUPDATE
 40
2452465.886330903
  9
$TDINDWG
 40
2.5236407407
  9
$TDUSRTIMER
 40
2.5236407407
  9
$USRTIMER
 70
     1
  9
$ANGBASE
 50
0.0
  9
$ANGDIR
 70
     0
  9
$PDMODE
 70
     0
  9
$PDSIZE
 40
0.0
  9
$PLINEWID
 40
0.0
  9
$COORDS
 70
     2
  9
$SPLFRAME
 70
     0
  9
$SPLINETYPE
 70
     6
  9
$SPLINESEGS
 70
     8
  9
$ATTDIA
 70
     0
  9
$ATTREQ
 70
     1
  9
$HANDLING
 70
     1
  9
$HANDSEED
  5
9E
  9
$SURFTAB1
 70
     6
  9
$SURFTAB2
 70
     6
  9
$SURFTYPE
 70
     6
  9
$SURFU
 70
     6
  9
$SURFV
 70
     6
  9
$UCSNAME
  2

  9
$UCSORG
 10
0.0
 20
0.0
 30
0.0
  9
$UCSXDIR
 10
1.0
 20
0.0
 30
0.0
  9
$UCSYDIR
 10
0.0
 20
1.0
 30
0.0
  9
$PUCSNAME
  2

  9
$PUCSORG
 10
0.0
 20
0.0
 30
0.0
  9
$PUCSXDIR
 10
1.0
 20
0.0
 30
0.0
  9
$PUCSYDIR
 10
0.0
 20
1.0
 30
0.0
  9
$USERI1
 70
     1
  9
$USERI2
 70
     0
  9
$USERI3
 70
     0
  9
$USERI4
 70
     0
  9
$USERI5
 70
     0
  9
$USERR1
 40
0.0
  9
$USERR2
 40
0.0
  9
$USERR3
 40
0.0
  9
$USERR4
 40
0.0
  9
$USERR5
 40
0.0
  9
$WORLDVIEW
 70
     1
  9
$SHADEDGE
 70
     3
  9
$SHADEDIF
 70
    70
  9
$TILEMODE
 70
     1
  9
$MAXACTVP
 70
    16
  9
$PINSBASE
 10
0.0
 20
0.0
 30
0.0
  9
$PLIMCHECK
 70
     0
  9
$PEXTMIN
 10
1.000000E+20
 20
1.000000E+20
 30
1.000000E+20
  9
$PEXTMAX
 10
-1.000000E+20
 20
-1.000000E+20
 30
-1.000000E+20
  9
$PLIMMIN
 10
0.0
 20
0.0
  9
$PLIMMAX
 10
12.0
 20
9.0
  9
$UNITMODE
 70
     0
  9
$VISRETAIN
 70
     0
  9
$PLINEGEN
 70
     0
  9
$PSLTSCALE
 70
     0
  9
$TREEDEPTH
 70
  3020
  9
$PICKSTYLE
 70
     0
  9
$CMLSTYLE
  2
STANDARD
  9
$CMLJUST
 70
     0
  9
$CMLSCALE
 40
1.0
  9
$PROXYGRAPHICS
 70
     1
  9
$MEASUREMENT
 70
     0
  0
ENDSEC
  0
SECTION
  2
CLASSES
  0
CLASS
  1
LWPOLYLINE
  2
AcDbPolyline
  3
"AutoCAD"
 90
        0
280
     0
281
     1
  0
CLASS
  1
DICTIONARYVAR
  2
AcDbDictionaryVar
  3
"AutoCAD"
 90
        0
280
     0
281
     0
  0
ENDSEC
  0
SECTION
  2
TABLES
  0
TABLE
  2
VPORT
  5
12
100
AcDbSymbolTable
 70
     2
  0
VPORT
  5
9D
100
AcDbSymbolTableRecord
100
AcDbViewportTableRecord
  2
*ACTIVE
 70
     0
 10
0.0
 20
0.0
 11
1.0
 21
1.0
 12
738.360446
 22
-159.701763
 13
0.0
 23
0.0
 14
1.0
 24
1.0
 15
600.0
 25
600.0
 16
0.0
 26
0.0
 36
1.0
 17
0.0
 27
0.0
 37
0.0
 40
702.871336
 41
2.224444
 42
50.0
 43
0.0
 44
0.0
 50
0.0
 51
0.0
 71
     0
 72
   100
 73
     1
 74
     0
 75
     0
 76
     0
 77
     0
 78
     0
  0
ENDTAB
  0
TABLE
  2
LTYPE
  5
D
100
AcDbSymbolTable
 70
     1
  0
LTYPE
  5
E
100
AcDbSymbolTableRecord
100
AcDbLinetypeTableRecord
  2
BYBLOCK
 70
     0
  3

 72
    65
 73
     0
 40
0.0
  0
LTYPE
  5
F
100
AcDbSymbolTableRecord
100
AcDbLinetypeTableRecord
  2
BYLAYER
 70
     0
  3

 72
    65
 73
     0
 40
0.0
  0
LTYPE
  5
5
100
AcDbSymbolTableRecord
100
AcDbLinetypeTableRecord
  2
CONTINUOUS
 70
     0
  3
Solid line
 72
    65
 73
     0
 40
0.0
  0
ENDTAB
  0
TABLE
  2
LAYER
  5
A
100
AcDbSymbolTable
 70
     7
  0
LAYER
  5
4
100
AcDbSymbolTableRecord
100
AcDbLayerTableRecord
  2
0
 70
     0
 62
     7
  6
CONTINUOUS
  0
LAYER
  5
1B
100
AcDbSymbolTableRecord
100
AcDbLayerTableRecord
  2
KOTY-UPLNE
 70
     0
 62
     7
  6
CONTINUOUS
  0
LAYER
  5
2F
100
AcDbSymbolTableRecord
100
AcDbLayerTableRecord
  2
RAMEC
 70
     0
 62
     5
  6
CONTINUOUS
  0
LAYER
  5
94
100
AcDbSymbolTableRecord
100
AcDbLayerTableRecord
  2
POZICE
 70
     0
 62
     1
  6
CONTINUOUS
  0
LAYER
  5
98
100
AcDbSymbolTableRecord
100
AcDbLayerTableRecord
  2
POPIS
 70
     0
 62
     1
  6
CONTINUOUS
  0
LAYER
  5
27
100
AcDbSymbolTableRecord
100
AcDbLayerTableRecord
  2
DEFPOINTS
 70
     0
 62
     7
  6
CONTINUOUS
  0
LAYER
  5
2D
100
AcDbSymbolTableRecord
100
AcDbLayerTableRecord
  2
TRAPEZ-VELKY
 70
     0
 62
     7
  6
CONTINUOUS
  0
ENDTAB
  0
TABLE
  2
STYLE
  5
B
100
AcDbSymbolTable
 70
     2
  0
STYLE
  5
C
100
AcDbSymbolTableRecord
100
AcDbTextStyleTableRecord
  2
STANDARD
 70
     0
 40
0.0
 41
0.9
 50
0.0
 71
     0
 42
50.0
  3
simplex.shx
  4

  0
STYLE
  5
95
100
AcDbSymbolTableRecord
100
AcDbTextStyleTableRecord
  2
STYLE1
 70
     0
 40
0.0
 41
0.9
 50
0.0
 71
     0
 42
50.0
  3
simplex.shx
  4

  0
ENDTAB
  0
TABLE
  2
VIEW
  5
10
100
AcDbSymbolTable
 70
     0
  0
ENDTAB
  0
TABLE
  2
UCS
  5
11
100
AcDbSymbolTable
 70
     0
  0
ENDTAB
  0
TABLE
  2
APPID
  5
14
100
AcDbSymbolTable
 70
     1
  0
APPID
  5
15
100
AcDbSymbolTableRecord
100
AcDbRegAppTableRecord
  2
ACAD
 70
     0
  0
ENDTAB
  0
TABLE
  2
DIMSTYLE
  5
16
100
AcDbSymbolTable
 70
     1
  0
DIMSTYLE
105
1D
102
{ACAD_REACTORS
330
30
330
1E
330
84
330
3D
330
59
330
75
330
68
330
4A
102
}
100
AcDbSymbolTableRecord
100
AcDbDimStyleTableRecord
  2
UPLNE
 70
     0
  3

  4

  5

  6

  7

 40
5.0
 41
5.0
 42
1.0
 43
0.0
 44
2.0
 45
1.0
 46
1.0
 47
0.0
 48
0.0
140
6.44
141
1.0
142
0.0
143
25.4
144
1.0
145
0.0
146
1.0
147
1.0
 71
     0
 72
     0
 73
     0
 74
     0
 75
     0
 76
     0
 77
     3
 78
     0
170
     0
171
     2
172
     1
173
     0
174
     1
175
     0
176
   256
177
   256
178
     5
270
     2
271
     0
272
     0
273
     2
274
     2
340
C
275
     0
280
     0
281
     0
282
     0
283
     1
284
     0
285
     0
286
     0
287
     5
288
     0
  0
ENDTAB
  0
TABLE
  2
BLOCK_RECORD
  5
1
100
AcDbSymbolTable
 70
     8
  0
BLOCK_RECORD
  5
2
100
AcDbSymbolTableRecord
100
AcDbBlockTableRecord
  2
*MODEL_SPACE
  0
BLOCK_RECORD
  5
7
100
AcDbSymbolTableRecord
100
AcDbBlockTableRecord
  2
*PAPER_SPACE
  0
BLOCK_RECORD
  5
31
100
AcDbSymbolTableRecord
100
AcDbBlockTableRecord
  2
*D0
  0
BLOCK_RECORD
  5
1F
100
AcDbSymbolTableRecord
100
AcDbBlockTableRecord
  2
*D1
  0
BLOCK_RECORD
  5
85
100
AcDbSymbolTableRecord
100
AcDbBlockTableRecord
  2
*D2
  0
BLOCK_RECORD
  5
3E
100
AcDbSymbolTableRecord
100
AcDbBlockTableRecord
  2
*D3
  0
BLOCK_RECORD
  5
5A
100
AcDbSymbolTableRecord
100
AcDbBlockTableRecord
  2
*D4
  0
BLOCK_RECORD
  5
76
100
AcDbSymbolTableRecord
100
AcDbBlockTableRecord
  2
*D5
  0
BLOCK_RECORD
  5
69
100
AcDbSymbolTableRecord
100
AcDbBlockTableRecord
  2
*D6
  0
BLOCK_RECORD
  5
4B
100
AcDbSymbolTableRecord
100
AcDbBlockTableRecord
  2
*D7
  0
ENDTAB
  0
ENDSEC
  0
SECTION
  2
BLOCKS
  0
BLOCK
  5
3
100
AcDbEntity
  8
0
100
AcDbBlockBegin
  2
*MODEL_SPACE
 70
     0
 10
0.0
 20
0.0
 30
0.0
  3
*MODEL_SPACE
  1

  0
ENDBLK
  5
6
100
AcDbEntity
  8
0
100
AcDbBlockEnd
  0
BLOCK
  5
8
100
AcDbEntity
 67
     1
  8
0
100
AcDbBlockBegin
  2
*PAPER_SPACE
 70
     0
 10
0.0
 20
0.0
 30
0.0
  3
*PAPER_SPACE
  1

  0
ENDBLK
  5
9
100
AcDbEntity
 67
     1
  8
0
100
AcDbBlockEnd
  0
BLOCK
  5
3B
100
AcDbEntity
  8
0
100
AcDbBlockBegin
  2
*D0
 70
     1
 10
0.0
 20
0.0
 30
0.0
  3
*D0
  1

  0
LINE
  5
32
100
AcDbEntity
  8
0
  6
BYBLOCK
100
AcDbLine
 10
-403.817313
 20
-2546.542274
 30
0.0
 11
-403.817313
 21
-2609.542274
 31
0.0
  0
LINE
  5
33
100
AcDbEntity
  8
0
  6
BYBLOCK
100
AcDbLine
 10
-196.817313
 20
-2546.542274
 30
0.0
 11
-196.817313
 21
-2609.542274
 31
0.0
  0
LINE
  5
34
100
AcDbEntity
  8
0
  6
BYBLOCK
100
AcDbLine
 10
-388.817313
 20
-2603.542274
 30
0.0
 11
-211.817313
 21
-2603.542274
 31
0.0
  0
SOLID
  5
35
100
AcDbEntity
  8
0
  6
BYBLOCK
100
AcDbTrace
 10
-388.817313
 20
-2601.042274
 30
0.0
 11
-388.817313
 21
-2606.042274
 31
0.0
 12
-403.817313
 22
-2603.542274
 32
0.0
 13
-403.817313
 23
-2603.542274
 33
0.0
  0
SOLID
  5
36
100
AcDbEntity
  8
0
  6
BYBLOCK
100
AcDbTrace
 10
-211.817313
 20
-2601.042274
 30
0.0
 11
-211.817313
 21
-2606.042274
 31
0.0
 12
-196.817313
 22
-2603.542274
 32
0.0
 13
-196.817313
 23
-2603.542274
 33
0.0
  0
MTEXT
  5
37
100
AcDbEntity
  8
0
  6
BYBLOCK
 62
     5
100
AcDbMText
 10
-300.317313
 20
-2587.882274
 30
0.0
 40
19.32
 41
0.0
 71
     5
 72
     1
  1
\A1;207
  0
POINT
  5
38
100
AcDbEntity
  8
DEFPOINTS
  6
BYBLOCK
 62
     0
100
AcDbPoint
 10
-403.817313
 20
-2543.542274
 30
0.0
  0
POINT
  5
39
100
AcDbEntity
  8
DEFPOINTS
  6
BYBLOCK
 62
     0
100
AcDbPoint
 10
-196.817313
 20
-2543.542274
 30
0.0
  0
POINT
  5
3A
100
AcDbEntity
  8
DEFPOINTS
  6
BYBLOCK
 62
     0
100
AcDbPoint
 10
-196.817313
 20
-2603.542274
 30
0.0
  0
ENDBLK
  5
3C
100
AcDbEntity
  8
0
100
AcDbBlockEnd
  0
BLOCK
  5
2A
100
AcDbEntity
  8
0
100
AcDbBlockBegin
  2
*D1
 70
     1
 10
0.0
 20
0.0
 30
0.0
  3
*D1
  1

  0
LINE
  5
20
100
AcDbEntity
  8
0
  6
BYBLOCK
100
AcDbLine
 10
-403.817313
 20
-2546.542274
 30
0.0
 11
-403.817313
 21
-2669.542274
 31
0.0
  0
LINE
  5
21
100
AcDbEntity
  8
0
  6
BYBLOCK
100
AcDbLine
 10
631.182687
 20
-2546.542274
 30
0.0
 11
631.182687
 21
-2669.542274
 31
0.0
  0
LINE
  5
22
100
AcDbEntity
  8
0
  6
BYBLOCK
100
AcDbLine
 10
-388.817313
 20
-2663.542274
 30
0.0
 11
616.182687
 21
-2663.542274
 31
0.0
  0
SOLID
  5
23
100
AcDbEntity
  8
0
  6
BYBLOCK
100
AcDbTrace
 10
-388.817313
 20
-2661.042274
 30
0.0
 11
-388.817313
 21
-2666.042274
 31
0.0
 12
-403.817313
 22
-2663.542274
 32
0.0
 13
-403.817313
 23
-2663.542274
 33
0.0
  0
SOLID
  5
24
100
AcDbEntity
  8
0
  6
BYBLOCK
100
AcDbTrace
 10
616.182687
 20
-2661.042274
 30
0.0
 11
616.182687
 21
-2666.042274
 31
0.0
 12
631.182687
 22
-2663.542274
 32
0.0
 13
631.182687
 23
-2663.542274
 33
0.0
  0
MTEXT
  5
25
100
AcDbEntity
  8
0
  6
BYBLOCK
 62
     5
100
AcDbMText
 10
113.682687
 20
-2647.882274
 30
0.0
 40
19.32
 41
0.0
 71
     5
 72
     1
  1
\A1;1035
  0
POINT
  5
26
100
AcDbEntity
  8
DEFPOINTS
  6
BYBLOCK
 62
     0
100
AcDbPoint
 10
-403.817313
 20
-2543.542274
 30
0.0
  0
POINT
  5
28
100
AcDbEntity
  8
DEFPOINTS
  6
BYBLOCK
 62
     0
100
AcDbPoint
 10
631.182687
 20
-2543.542274
 30
0.0
  0
POINT
  5
29
100
AcDbEntity
  8
DEFPOINTS
  6
BYBLOCK
 62
     0
100
AcDbPoint
 10
631.182687
 20
-2663.542274
 30
0.0
  0
ENDBLK
  5
2B
100
AcDbEntity
  8
0
100
AcDbBlockEnd
  0
BLOCK
  5
91
100
AcDbEntity
  8
0
100
AcDbBlockBegin
  2
*D2
 70
     1
 10
0.0
 20
0.0
 30
0.0
  3
*D2
  1

  0
LINE
  5
86
100
AcDbEntity
  8
0
  6
BYBLOCK
100
AcDbLine
 10
586.358003
 20
-2512.542274
 30
0.0
 11
732.512872
 21
-2512.542274
 31
0.0
  0
LINE
  5
87
100
AcDbEntity
  8
0
  6
BYBLOCK
100
AcDbLine
 10
650.682687
 20
-2543.542274
 30
0.0
 11
732.512872
 21
-2543.542274
 31
0.0
  0
LINE
  5
88
100
AcDbEntity
  8
0
  6
BYBLOCK
100
AcDbLine
 10
726.512872
 20
-2497.542274
 30
0.0
 11
726.512872
 21
-2482.542274
 31
0.0
  0
LINE
  5
89
100
AcDbEntity
  8
0
  6
BYBLOCK
100
AcDbLine
 10
726.512872
 20
-2558.542274
 30
0.0
 11
726.512872
 21
-2573.542274
 31
0.0
  0
LINE
  5
8A
100
AcDbEntity
  8
0
  6
BYBLOCK
100
AcDbLine
 10
726.512872
 20
-2512.542274
 30
0.0
 11
726.512872
 21
-2543.542274
 31
0.0
  0
SOLID
  5
8B
100
AcDbEntity
  8
0
  6
BYBLOCK
100
AcDbTrace
 10
724.012872
 20
-2497.542274
 30
0.0
 11
729.012872
 21
-2497.542274
 31
0.0
 12
726.512872
 22
-2512.542274
 32
0.0
 13
726.512872
 23
-2512.542274
 33
0.0
  0
SOLID
  5
8C
100
AcDbEntity
  8
0
  6
BYBLOCK
100
AcDbTrace
 10
724.012872
 20
-2558.542274
 30
0.0
 11
729.012872
 21
-2558.542274
 31
0.0
 12
726.512872
 22
-2543.542274
 32
0.0
 13
726.512872
 23
-2543.542274
 33
0.0
  0
MTEXT
  5
8D
100
AcDbEntity
  8
0
  6
BYBLOCK
 62
     5
100
AcDbMText
 10
710.852872
 20
-2528.042274
 30
0.0
 40
19.32
 41
0.0
 71
     5
 72
     1
  1
\A1;31
 11
0.0
 21
1.0
 31
0.0
  0
POINT
  5
8E
100
AcDbEntity
  8
DEFPOINTS
  6
BYBLOCK
 62
     0
100
AcDbPoint
 10
583.358003
 20
-2512.542274
 30
0.0
  0
POINT
  5
8F
100
AcDbEntity
  8
DEFPOINTS
  6
BYBLOCK
 62
     0
100
AcDbPoint
 10
647.682687
 20
-2543.542274
 30
0.0
  0
POINT
  5
90
100
AcDbEntity
  8
DEFPOINTS
  6
BYBLOCK
 62
     0
100
AcDbPoint
 10
726.512872
 20
-2543.542274
 30
0.0
  0
ENDBLK
  5
92
100
AcDbEntity
  8
0
100
AcDbBlockEnd
  0
BLOCK
  5
48
100
AcDbEntity
  8
0
100
AcDbBlockBegin
  2
*D3
 70
     1
 10
0.0
 20
0.0
 30
0.0
  3
*D3
  1

  0
LINE
  5
3F
100
AcDbEntity
  8
0
  6
BYBLOCK
100
AcDbLine
 10
-353.317313
 20
-2509.542274
 30
0.0
 11
-353.317313
 21
-2467.730592
 31
0.0
  0
LINE
  5
40
100
AcDbEntity
  8
0
  6
BYBLOCK
100
AcDbLine
 10
-247.317313
 20
-2509.542274
 30
0.0
 11
-247.317313
 21
-2467.730592
 31
0.0
  0
LINE
  5
41
100
AcDbEntity
  8
0
  6
BYBLOCK
100
AcDbLine
 10
-338.317313
 20
-2473.730592
 30
0.0
 11
-262.317313
 21
-2473.730592
 31
0.0
  0
SOLID
  5
42
100
AcDbEntity
  8
0
  6
BYBLOCK
100
AcDbTrace
 10
-338.317313
 20
-2471.230592
 30
0.0
 11
-338.317313
 21
-2476.230592
 31
0.0
 12
-353.317313
 22
-2473.730592
 32
0.0
 13
-353.317313
 23
-2473.730592
 33
0.0
  0
SOLID
  5
43
100
AcDbEntity
  8
0
  6
BYBLOCK
100
AcDbTrace
 10
-262.317313
 20
-2471.230592
 30
0.0
 11
-262.317313
 21
-2476.230592
 31
0.0
 12
-247.317313
 22
-2473.730592
 32
0.0
 13
-247.317313
 23
-2473.730592
 33
0.0
  0
MTEXT
  5
44
100
AcDbEntity
  8
0
  6
BYBLOCK
 62
     5
100
AcDbMText
 10
-300.317313
 20
-2458.070592
 30
0.0
 40
19.32
 41
0.0
 71
     5
 72
     1
  1
\A1;106
  0
POINT
  5
45
100
AcDbEntity
  8
DEFPOINTS
  6
BYBLOCK
 62
     0
100
AcDbPoint
 10
-353.317313
 20
-2512.542274
 30
0.0
  0
POINT
  5
46
100
AcDbEntity
  8
DEFPOINTS
  6
BYBLOCK
 62
     0
100
AcDbPoint
 10
-247.317313
 20
-2512.542274
 30
0.0
  0
POINT
  5
47
100
AcDbEntity
  8
DEFPOINTS
  6
BYBLOCK
 62
     0
100
AcDbPoint
 10
-247.317313
 20
-2473.730592
 30
0.0
  0
ENDBLK
  5
49
100
AcDbEntity
  8
0
100
AcDbBlockEnd
  0
BLOCK
  5
66
100
AcDbEntity
  8
0
100
AcDbBlockBegin
  2
*D4
 70
     1
 10
0.0
 20
0.0
 30
0.0
  3
*D4
  1

  0
LINE
  5
5B
100
AcDbEntity
  8
0
  6
BYBLOCK
100
AcDbLine
 10
-247.317313
 20
-2509.542274
 30
0.0
 11
-247.317313
 21
-2467.730592
 31
0.0
  0
LINE
  5
5C
100
AcDbEntity
  8
0
  6
BYBLOCK
100
AcDbLine
 10
-213.317313
 20
-2540.542274
 30
0.0
 11
-213.317313
 21
-2467.730592
 31
0.0
  0
LINE
  5
5D
100
AcDbEntity
  8
0
  6
BYBLOCK
100
AcDbLine
 10
-262.317313
 20
-2473.730592
 30
0.0
 11
-277.317313
 21
-2473.730592
 31
0.0
  0
LINE
  5
5E
100
AcDbEntity
  8
0
  6
BYBLOCK
100
AcDbLine
 10
-198.317313
 20
-2473.730592
 30
0.0
 11
-183.317313
 21
-2473.730592
 31
0.0
  0
LINE
  5
5F
100
AcDbEntity
  8
0
  6
BYBLOCK
100
AcDbLine
 10
-247.317313
 20
-2473.730592
 30
0.0
 11
-213.317313
 21
-2473.730592
 31
0.0
  0
SOLID
  5
60
100
AcDbEntity
  8
0
  6
BYBLOCK
100
AcDbTrace
 10
-262.317313
 20
-2471.230592
 30
0.0
 11
-262.317313
 21
-2476.230592
 31
0.0
 12
-247.317313
 22
-2473.730592
 32
0.0
 13
-247.317313
 23
-2473.730592
 33
0.0
  0
SOLID
  5
61
100
AcDbEntity
  8
0
  6
BYBLOCK
100
AcDbTrace
 10
-198.317313
 20
-2471.230592
 30
0.0
 11
-198.317313
 21
-2476.230592
 31
0.0
 12
-213.317313
 22
-2473.730592
 32
0.0
 13
-213.317313
 23
-2473.730592
 33
0.0
  0
MTEXT
  5
62
100
AcDbEntity
  8
0
  6
BYBLOCK
 62
     5
100
AcDbMText
 10
-230.317313
 20
-2458.070592
 30
0.0
 40
19.32
 41
0.0
 71
     5
 72
     1
  1
\A1;34
  0
POINT
  5
63
100
AcDbEntity
  8
DEFPOINTS
  6
BYBLOCK
 62
     0
100
AcDbPoint
 10
-247.317313
 20
-2512.542274
 30
0.0
  0
POINT
  5
64
100
AcDbEntity
  8
DEFPOINTS
  6
BYBLOCK
 62
     0
100
AcDbPoint
 10
-213.317313
 20
-2543.542274
 30
0.0
  0
POINT
  5
65
100
AcDbEntity
  8
DEFPOINTS
  6
BYBLOCK
 62
     0
100
AcDbPoint
 10
-213.317313
 20
-2473.730592
 30
0.0
  0
ENDBLK
  5
67
100
AcDbEntity
  8
0
100
AcDbBlockEnd
  0
BLOCK
  5
82
100
AcDbEntity
  8
0
100
AcDbBlockBegin
  2
*D5
 70
     1
 10
0.0
 20
0.0
 30
0.0
  3
*D5
  1

  0
LINE
  5
77
100
AcDbEntity
  8
0
  6
BYBLOCK
100
AcDbLine
 10
-6.317313
 20
-2546.542274
 30
0.0
 11
-6.317313
 21
-2609.542274
 31
0.0
  0
LINE
  5
78
100
AcDbEntity
  8
0
  6
BYBLOCK
100
AcDbLine
 10
26.682687
 20
-2546.542274
 30
0.0
 11
26.682687
 21
-2609.542274
 31
0.0
  0
LINE
  5
79
100
AcDbEntity
  8
0
  6
BYBLOCK
100
AcDbLine
 10
-21.317313
 20
-2603.542274
 30
0.0
 11
-36.317313
 21
-2603.542274
 31
0.0
  0
LINE
  5
7A
100
AcDbEntity
  8
0
  6
BYBLOCK
100
AcDbLine
 10
41.682687
 20
-2603.542274
 30
0.0
 11
56.682687
 21
-2603.542274
 31
0.0
  0
LINE
  5
7B
100
AcDbEntity
  8
0
  6
BYBLOCK
100
AcDbLine
 10
-6.317313
 20
-2603.542274
 30
0.0
 11
26.682687
 21
-2603.542274
 31
0.0
  0
SOLID
  5
7C
100
AcDbEntity
  8
0
  6
BYBLOCK
100
AcDbTrace
 10
-21.317313
 20
-2601.042274
 30
0.0
 11
-21.317313
 21
-2606.042274
 31
0.0
 12
-6.317313
 22
-2603.542274
 32
0.0
 13
-6.317313
 23
-2603.542274
 33
0.0
  0
SOLID
  5
7D
100
AcDbEntity
  8
0
  6
BYBLOCK
100
AcDbTrace
 10
41.682687
 20
-2601.042274
 30
0.0
 11
41.682687
 21
-2606.042274
 31
0.0
 12
26.682687
 22
-2603.542274
 32
0.0
 13
26.682687
 23
-2603.542274
 33
0.0
  0
MTEXT
  5
7E
100
AcDbEntity
  8
0
  6
BYBLOCK
 62
     5
100
AcDbMText
 10
10.182687
 20
-2587.882274
 30
0.0
 40
19.32
 41
0.0
 71
     5
 72
     1
  1
\A1;33
  0
POINT
  5
7F
100
AcDbEntity
  8
DEFPOINTS
  6
BYBLOCK
 62
     0
100
AcDbPoint
 10
-6.317313
 20
-2543.542274
 30
0.0
  0
POINT
  5
80
100
AcDbEntity
  8
DEFPOINTS
  6
BYBLOCK
 62
     0
100
AcDbPoint
 10
26.682687
 20
-2543.542274
 30
0.0
  0
POINT
  5
81
100
AcDbEntity
  8
DEFPOINTS
  6
BYBLOCK
 62
     0
100
AcDbPoint
 10
26.682687
 20
-2603.542274
 30
0.0
  0
ENDBLK
  5
83
100
AcDbEntity
  8
0
100
AcDbBlockEnd
  0
BLOCK
  5
73
100
AcDbEntity
  8
0
100
AcDbBlockBegin
  2
*D6
 70
     1
 10
0.0
 20
0.0
 30
0.0
  3
*D6
  1

  0
LINE
  5
6A
100
AcDbEntity
  8
0
  6
BYBLOCK
100
AcDbLine
 10
26.682687
 20
-2546.542274
 30
0.0
 11
26.682687
 21
-2609.542274
 31
0.0
  0
LINE
  5
6B
100
AcDbEntity
  8
0
  6
BYBLOCK
100
AcDbLine
 10
200.682687
 20
-2546.542274
 30
0.0
 11
200.682687
 21
-2609.542274
 31
0.0
  0
LINE
  5
6C
100
AcDbEntity
  8
0
  6
BYBLOCK
100
AcDbLine
 10
41.682687
 20
-2603.542274
 30
0.0
 11
185.682687
 21
-2603.542274
 31
0.0
  0
SOLID
  5
6D
100
AcDbEntity
  8
0
  6
BYBLOCK
100
AcDbTrace
 10
41.682687
 20
-2601.042274
 30
0.0
 11
41.682687
 21
-2606.042274
 31
0.0
 12
26.682687
 22
-2603.542274
 32
0.0
 13
26.682687
 23
-2603.542274
 33
0.0
  0
SOLID
  5
6E
100
AcDbEntity
  8
0
  6
BYBLOCK
100
AcDbTrace
 10
185.682687
 20
-2601.042274
 30
0.0
 11
185.682687
 21
-2606.042274
 31
0.0
 12
200.682687
 22
-2603.542274
 32
0.0
 13
200.682687
 23
-2603.542274
 33
0.0
  0
MTEXT
  5
6F
100
AcDbEntity
  8
0
  6
BYBLOCK
 62
     5
100
AcDbMText
 10
113.682687
 20
-2587.882274
 30
0.0
 40
19.32
 41
0.0
 71
     5
 72
     1
  1
\A1;174
  0
POINT
  5
70
100
AcDbEntity
  8
DEFPOINTS
  6
BYBLOCK
 62
     0
100
AcDbPoint
 10
26.682687
 20
-2543.542274
 30
0.0
  0
POINT
  5
71
100
AcDbEntity
  8
DEFPOINTS
  6
BYBLOCK
 62
     0
100
AcDbPoint
 10
200.682687
 20
-2543.542274
 30
0.0
  0
POINT
  5
72
100
AcDbEntity
  8
DEFPOINTS
  6
BYBLOCK
 62
     0
100
AcDbPoint
 10
200.682687
 20
-2603.542274
 30
0.0
  0
ENDBLK
  5
74
100
AcDbEntity
  8
0
100
AcDbBlockEnd
  0
BLOCK
  5
57
100
AcDbEntity
  8
0
100
AcDbBlockBegin
  2
*D7
 70
     1
 10
0.0
 20
0.0
 30
0.0
  3
*D7
  1

  0
LINE
  5
4C
100
AcDbEntity
  8
0
  6
BYBLOCK
100
AcDbLine
 10
-387.317313
 20
-2540.542274
 30
0.0
 11
-387.317313
 21
-2467.730592
 31
0.0
  0
LINE
  5
4D
100
AcDbEntity
  8
0
  6
BYBLOCK
100
AcDbLine
 10
-353.317313
 20
-2509.542274
 30
0.0
 11
-353.317313
 21
-2467.730592
 31
0.0
  0
LINE
  5
4E
100
AcDbEntity
  8
0
  6
BYBLOCK
100
AcDbLine
 10
-402.317313
 20
-2473.730592
 30
0.0
 11
-417.317313
 21
-2473.730592
 31
0.0
  0
LINE
  5
4F
100
AcDbEntity
  8
0
  6
BYBLOCK
100
AcDbLine
 10
-338.317313
 20
-2473.730592
 30
0.0
 11
-323.317313
 21
-2473.730592
 31
0.0
  0
LINE
  5
50
100
AcDbEntity
  8
0
  6
BYBLOCK
100
AcDbLine
 10
-387.317313
 20
-2473.730592
 30
0.0
 11
-353.317313
 21
-2473.730592
 31
0.0
  0
SOLID
  5
51
100
AcDbEntity
  8
0
  6
BYBLOCK
100
AcDbTrace
 10
-402.317313
 20
-2471.230592
 30
0.0
 11
-402.317313
 21
-2476.230592
 31
0.0
 12
-387.317313
 22
-2473.730592
 32
0.0
 13
-387.317313
 23
-2473.730592
 33
0.0
  0
SOLID
  5
52
100
AcDbEntity
  8
0
  6
BYBLOCK
100
AcDbTrace
 10
-338.317313
 20
-2471.230592
 30
0.0
 11
-338.317313
 21
-2476.230592
 31
0.0
 12
-353.317313
 22
-2473.730592
 32
0.0
 13
-353.317313
 23
-2473.730592
 33
0.0
  0
MTEXT
  5
53
100
AcDbEntity
  8
0
  6
BYBLOCK
 62
     5
100
AcDbMText
 10
-370.317313
 20
-2458.070592
 30
0.0
 40
19.32
 41
0.0
 71
     5
 72
     1
  1
\A1;34
  0
POINT
  5
54
100
AcDbEntity
  8
DEFPOINTS
  6
BYBLOCK
 62
     0
100
AcDbPoint
 10
-387.317313
 20
-2543.542274
 30
0.0
  0
POINT
  5
55
100
AcDbEntity
  8
DEFPOINTS
  6
BYBLOCK
 62
     0
100
AcDbPoint
 10
-353.317313
 20
-2512.542274
 30
0.0
  0
POINT
  5
56
100
AcDbEntity
  8
DEFPOINTS
  6
BYBLOCK
 62
     0
100
AcDbPoint
 10
-353.317313
 20
-2473.730592
 30
0.0
  0
ENDBLK
  5
58
100
AcDbEntity
  8
0
100
AcDbBlockEnd
  0
ENDSEC
  0
SECTION
  2
ENTITIES
  0
DIMENSION
  5
1E
100
AcDbEntity
  8
KOTY-UPLNE
100
AcDbDimension
  2
*D1
 10
1187.855297
 20
-300.884928
 30
0.0
 11
670.355297
 21
-285.224928
 31
0.0
 12
556.67261
 22
2362.657346
 32
0.0
  3
UPLNE
100
AcDbAlignedDimension
 13
152.855297
 23
-180.884928
 33
0.0
 14
1187.855297
 24
-180.884928
 34
0.0
100
AcDbRotatedDimension
1001
ACAD
1000
DSTYLE
1002
{
1070
    40
1040
3.0
1070
   147
1040
2.0
1002
}
  0
LWPOLYLINE
  5
2C
100
AcDbEntity
  8
TRAPEZ-VELKY
100
AcDbPolyline
 90
       49
 70
     0
 43
5.0
 10
147.855297
 20
-180.884928
 10
167.030613
 20
-180.884928
 42
0.186953
 10
171.073136
 20
-179.318663
 10
201.637458
 20
-151.451193
 42
-0.186953
 10
205.679981
 20
-149.884928
 10
307.030613
 20
-149.884928
 42
-0.186953
 10
311.073136
 20
-151.451193
 10
341.637458
 20
-179.318663
 42
0.186953
 10
345.679981
 20
-180.884928
 10
359.855297
 20
-180.884928
 10
374.030613
 20
-180.884928
 42
0.186953
 10
378.073136
 20
-179.318663
 10
408.637458
 20
-151.451193
 42
-0.186953
 10
412.679981
 20
-149.884928
 10
514.030613
 20
-149.884928
 42
-0.186953
 10
518.073136
 20
-151.451193
 10
548.637458
 20
-179.318663
 42
0.186953
 10
552.679981
 20
-180.884928
 10
566.855297
 20
-180.884928
 10
581.030613
 20
-180.884928
 42
0.186953
 10
585.073136
 20
-179.318663
 10
615.637458
 20
-151.451193
 42
-0.186953
 10
619.679981
 20
-149.884928
 10
721.030613
 20
-149.884928
 42
-0.186953
 10
725.073136
 20
-151.451193
 10
755.637458
 20
-179.318663
 42
0.186953
 10
759.679981
 20
-180.884928
 10
773.855297
 20
-180.884928
 10
788.030613
 20
-180.884928
 42
0.186953
 10
792.073136
 20
-179.318663
 10
822.637458
 20
-151.451193
 42
-0.186953
 10
826.679981
 20
-149.884928
 10
928.030613
 20
-149.884928
 42
-0.186953
 10
932.073136
 20
-151.451193
 10
962.637458
 20
-179.318663
 42
0.186953
 10
966.679981
 20
-180.884928
 10
980.855297
 20
-180.884928
 10
995.030613
 20
-180.884928
 42
0.186953
 10
999.073136
 20
-179.318663
 10
1029.637458
 20
-151.451193
 42
-0.186953
 10
1033.679981
 20
-149.884928
 10
1135.030613
 20
-149.884928
 42
-0.186953
 10
1139.073136
 20
-151.451193
 10
1169.637458
 20
-179.318663
 42
0.186953
 10
1173.679981
 20
-180.884928
 10
1187.855297
 20
-180.884928
 10
1202.030613
 20
-180.884928
 42
0.186953
 10
1206.073136
 20
-179.318663
 10
1217.853836
 20
-168.577437
  0
LWPOLYLINE
  5
2E
100
AcDbEntity
  8
RAMEC
100
AcDbPolyline
 90
        4
 70
     1
 43
0.0
 10
0.0
 20
0.0
 10
0.0
 20
-350.001233
 10
1349.672502
 20
-350.001233
 10
1349.672502
 20
0.0
  0
DIMENSION
  5
30
100
AcDbEntity
  8
KOTY-UPLNE
100
AcDbDimension
  2
*D0
 10
359.855297
 20
-240.884928
 30
0.0
 11
256.355297
 21
-225.224928
 31
0.0
 12
556.67261
 22
2362.657346
 32
0.0
  3
UPLNE
100
AcDbAlignedDimension
 13
152.855297
 23
-180.884928
 33
0.0
 14
359.855297
 24
-180.884928
 34
0.0
100
AcDbRotatedDimension
1001
ACAD
1000
DSTYLE
1002
{
1070
    40
1040
3.0
1070
   147
1040
2.0
1002
}
  0
DIMENSION
  5
3D
100
AcDbEntity
  8
KOTY-UPLNE
100
AcDbDimension
  2
*D3
 10
309.355297
 20
-111.073246
 30
0.0
 11
256.355297
 21
-95.413246
 31
0.0
 12
556.67261
 22
2362.657346
 32
0.0
  3
UPLNE
100
AcDbAlignedDimension
 13
203.355297
 23
-149.884928
 33
0.0
 14
309.355297
 24
-149.884928
 34
0.0
100
AcDbRotatedDimension
1001
ACAD
1000
DSTYLE
1002
{
1070
    40
1040
3.0
1070
   147
1040
2.0
1002
}
  0
DIMENSION
  5
4A
100
AcDbEntity
  8
KOTY-UPLNE
100
AcDbDimension
  2
*D7
 10
203.355297
 20
-111.073246
 30
0.0
 11
186.355297
 21
-95.413246
 31
0.0
 12
556.67261
 22
2362.657346
 32
0.0
  3
UPLNE
100
AcDbAlignedDimension
 13
169.355297
 23
-180.884928
 33
0.0
 14
203.355297
 24
-149.884928
 34
0.0
100
AcDbRotatedDimension
1001
ACAD
1000
DSTYLE
1002
{
1070
    40
1040
3.0
1070
   147
1040
2.0
1002
}
  0
DIMENSION
  5
59
100
AcDbEntity
  8
KOTY-UPLNE
100
AcDbDimension
  2
*D4
 10
343.355297
 20
-111.073246
 30
0.0
 11
326.355297
 21
-95.413246
 31
0.0
 12
556.67261
 22
2362.657346
 32
0.0
  3
UPLNE
100
AcDbAlignedDimension
 13
309.355297
 23
-149.884928
 33
0.0
 14
343.355297
 24
-180.884928
 34
0.0
100
AcDbRotatedDimension
1001
ACAD
1000
DSTYLE
1002
{
1070
    40
1040
3.0
1070
   147
1040
2.0
1002
}
  0
DIMENSION
  5
68
100
AcDbEntity
  8
KOTY-UPLNE
100
AcDbDimension
  2
*D6
 10
757.355297
 20
-240.884928
 30
0.0
 11
670.355297
 21
-225.224928
 31
0.0
 12
556.67261
 22
2362.657346
 32
0.0
  3
UPLNE
100
AcDbAlignedDimension
 13
583.355297
 23
-180.884928
 33
0.0
 14
757.355297
 24
-180.884928
 34
0.0
100
AcDbRotatedDimension
1001
ACAD
1000
DSTYLE
1002
{
1070
    40
1040
3.0
1070
   147
1040
2.0
1002
}
  0
DIMENSION
  5
75
100
AcDbEntity
  8
KOTY-UPLNE
100
AcDbDimension
  2
*D5
 10
583.355297
 20
-240.884928
 30
0.0
 11
566.855297
 21
-225.224928
 31
0.0
 12
556.67261
 22
2362.657346
 32
0.0
  3
UPLNE
100
AcDbAlignedDimension
 13
550.355297
 23
-180.884928
 33
0.0
 14
583.355297
 24
-180.884928
 34
0.0
100
AcDbRotatedDimension
1001
ACAD
1000
DSTYLE
1002
{
1070
    40
1040
3.0
1070
   147
1040
2.0
1002
}
  0
DIMENSION
  5
84
100
AcDbEntity
  8
KOTY-UPLNE
100
AcDbDimension
  2
*D2
 10
1283.185482
 20
-180.884928
 30
0.0
 11
1267.525482
 21
-165.384928
 31
0.0
 12
556.67261
 22
2362.657346
 32
0.0
  3
UPLNE
100
AcDbAlignedDimension
 13
1140.030613
 23
-149.884928
 33
0.0
 14
1204.355297
 24
-180.884928
 34
0.0
 50
90.0
100
AcDbRotatedDimension
1001
ACAD
1000
DSTYLE
1002
{
1070
    40
1040
3.0
1070
   147
1040
2.0
1002
}
  0
MTEXT
  5
93
100
AcDbEntity
  8
POZICE
100
AcDbMText
 10
1081.441003
 20
-200.010378
 30
0.0
 40
41.73
 41
1.0
 71
     5
 72
     1
  1
B
  7
STYLE1
  0
MTEXT
  5
96
100
AcDbEntity
  8
KOTY-UPLNE
  6
BYBLOCK
 62
     5
100
AcDbMText
 10
661.191435
 20
-85.198963
 30
0.0
 40
16.5
 41
0.0
 71
     5
 72
     1
  1
všechna zaoblení R=6
  0
MTEXT
  5
97
100
AcDbEntity
  8
POPIS
100
AcDbMText
 10
661.730741
 20
-42.124031
 30
0.0
 40
40.0
 41
1.0
 71
     5
 72
     1
  1
TR 32/207
  7
STYLE1
  0
MTEXT
  5
99
100
AcDbEntity
  8
POZICE
100
AcDbMText
 10
1081.441003
 20
-104.910381
 30
0.0
 40
41.73
 41
1.0
 71
     5
 72
     1
  1
A
  7
STYLE1
  0
ENDSEC
  0
SECTION
  2
OBJECTS
  0
DICTIONARY
  5
1A
100
AcDbDictionary
  3
ACAD_GROUP
350
18
  3
ACAD_MLINESTYLE
350
19
  0
DICTIONARY
  5
18
102
{ACAD_REACTORS
330
1A
102
}
100
AcDbDictionary
  0
DICTIONARY
  5
19
102
{ACAD_REACTORS
330
1A
102
}
100
AcDbDictionary
  3
STANDARD
350
1C
  0
MLINESTYLE
  5
1C
102
{ACAD_REACTORS
330
19
102
}
100
AcDbMlineStyle
  2
STANDARD
 70
     0
  3

 62
   256
 51
90.0
 52
90.0
 71
     2
 49
0.5
 62
   256
  6
BYLAYER
 49
-0.5
 62
   256
  6
BYLAYER
  0
ENDSEC
  0
EOF
